osu file format v14

[General]
AudioFilename: Suwa Foughten Field.mp3
AudioLeadIn: 0
PreviewTime: 252230
Countdown: 0
SampleSet: None
StackLeniency: 0.4
Mode: 0
LetterboxInBreaks: 1
WidescreenStoryboard: 1

[Editor]
Bookmarks: 308632,308732,308782,308832,308932,309032,309082,309132,309232,309332,309382,309432,317032
DistanceSpacing: 1
BeatDivisor: 4
GridSize: 4
TimelineZoom: 2

[Metadata]
Title:The Venerable Ancient Battlefield ~ Suwa Foughten Field
TitleUnicode:神さびた古戦場 ~ Suwa Foughten Field
Artist:Demetori
ArtistUnicode:Demetori
Creator:nooblet
Version:ending
Source:東方Project
Tags:Kanako Yasaka Touhou 10 東方風神録 ~ Mountain of Faith Il Mondo dove e finito il Tempo the world where time ended comiket73 c73 fuujinroku
BeatmapID:973752
BeatmapSetID:353587

[Difficulty]
HPDrainRate:1.4
CircleSize:4.4
OverallDifficulty:8.4
ApproachRate:9.4
SliderMultiplier:1.8
SliderTickRate:1

[Events]
//Background and Video events
0,0,"Kanako Yasaka.jpg",0,0
//Break Periods
//Storyboard Layer 0 (Background)
//Storyboard Layer 1 (Fail)
//Storyboard Layer 2 (Pass)
//Storyboard Layer 3 (Foreground)
//Storyboard Sound Samples

[TimingPoints]
16032,750,4,3,1,50,1,0
127032,1000,4,3,1,50,1,0
134032,300,4,3,1,50,1,0
135082,-133.333333333333,4,3,1,50,0,0
135532,-133.333333333333,4,2,0,50,0,0
137332,-100,4,3,3,50,0,0
137932,-133.333333333333,4,2,0,50,0,0
138682,-133.333333333333,4,3,1,50,0,0
139132,-133.333333333333,4,3,0,50,0,0
139282,-125,4,3,1,50,0,0
139432,-125,4,3,0,50,0,0
139732,-83.3333333333333,4,3,0,50,0,0
140182,-100,4,3,3,50,0,0
144532,-83.3333333333333,4,3,2,50,0,0
144832,-100,4,3,3,50,0,0
144982,-100,4,3,1,50,0,0
146932,-83.3333333333333,4,3,1,50,0,0
147232,-100,4,3,1,50,0,0
149332,-83.3333333333333,4,3,2,50,0,0
149632,-83.3333333333333,4,3,3,50,0,0
149782,-100,4,3,1,50,0,0
151732,-83.3333333333333,4,3,3,50,0,0
152182,-100,4,3,1,50,0,0
152932,-100,4,3,4,50,0,0
154132,-83.3333333333333,4,3,2,50,0,0
154432,-100,4,3,3,50,0,0
154582,-100,4,3,1,50,0,0
159232,-100,4,3,3,50,0,0
159382,-100,4,3,1,50,0,0
161332,-100,4,3,2,50,0,0
161482,-100,4,3,1,50,0,0
161632,-100,4,3,3,50,0,0
161782,-100,4,3,1,50,0,0
162832,-100,4,3,3,50,0,0
162982,-100,4,3,1,30,0,0
163132,-100,4,3,1,40,0,0
163432,-100,4,3,1,50,0,0
163732,-100,4,3,1,60,0,0
164032,-66.6666666666667,4,3,1,60,0,0
164332,-100,4,3,3,60,0,0
169582,-66.6666666666667,4,3,3,60,0,0
170032,-100,4,3,3,60,0,0
173332,-100,4,3,3,55,0,0
174232,-100,4,3,3,50,0,0
174682,-83.3333333333333,4,3,3,60,0,0
174982,-100,4,3,3,50,0,0
175432,300,4,3,3,60,1,0
175582,-100,4,3,4,50,0,0
180232,-100,4,3,3,50,0,0
180382,-100,4,3,4,50,0,0
184582,-100,4,3,2,50,0,0
185032,-100,4,3,3,50,0,0
185182,-100,4,3,4,50,0,0
189832,-100,4,3,3,50,0,0
189982,-100,4,3,4,50,0,0
193282,-100,4,3,2,50,0,0
193732,-100,4,3,0,50,0,0
194332,-100,4,3,3,50,0,0
197182,-100,4,3,1,50,0,0
199132,-83.3333333333333,4,3,1,50,0,0
199432,-100,4,3,1,50,0,0
201532,-100,4,3,2,50,0,0
201832,-100,4,3,3,50,0,0
202132,-100,4,3,1,50,0,0
203032,-100,4,3,1,60,0,0
203932,-100,4,3,2,60,0,0
204232,-100,4,3,3,60,0,0
204382,-100,4,3,4,50,0,0
209032,-100,4,3,3,50,0,0
209182,-100,4,3,4,50,0,0
213382,-100,4,3,2,50,0,0
213832,-100,4,3,3,50,0,0
213982,-100,4,3,4,50,0,0
217432,-100,4,3,3,50,0,0
218782,-100,4,3,4,50,0,0
221032,-100,4,3,3,50,0,0
223132,-83.3333333333333,4,3,3,50,0,0
223582,-100,4,3,2,50,0,0
227632,-100,4,3,4,50,0,0
227782,-100,4,3,3,50,0,0
228232,-100,4,3,2,50,0,0
232432,-100,4,3,2,55,0,0
232732,-100,4,3,3,55,0,0
233032,-100,4,3,2,60,0,0
234682,-100,4,3,3,60,0,0
235432,-100,4,3,2,60,0,0
237832,-100,4,3,3,50,0,0
241732,-100,4,3,4,50,0,0
242632,-100,4,3,3,50,0,0
245182,-100,4,3,1,50,0,0
246532,-100,4,3,0,50,0,0
247432,-100,4,3,2,50,0,0
251032,-100,4,3,3,50,0,0
251832,-100,4,3,2,55,0,0
252232,-100,4,3,2,60,0,1
252382,-100,4,3,4,50,0,1
257036,-100,4,3,2,50,0,1
257186,-100,4,3,4,50,0,1
259432,-100,4,3,3,50,0,1
259582,-100,4,3,1,50,0,1
261382,-100,4,3,2,50,0,1
261832,-100,4,3,3,50,0,1
261982,-100,4,3,4,50,0,1
266182,-100,4,3,2,50,0,1
266782,-100,4,3,4,50,0,1
269032,-100,4,3,3,50,0,1
269332,-100,4,3,1,50,0,1
270082,-100,4,3,3,50,0,1
270532,-100,4,3,0,55,0,1
271282,-100,4,3,0,55,0,0
271432,-100,4,3,3,55,0,1
271582,-100,4,3,1,55,0,1
272632,-90.9090909090909,4,3,1,55,0,1
273832,-83.3333333333333,4,3,1,55,0,1
276082,-83.3333333333333,4,3,3,55,0,1
276232,-76.9230769230769,4,3,3,60,0,1
276382,-76.9230769230769,4,3,1,60,0,1
277432,-71.4285714285714,4,3,1,60,0,1
278632,-62.5,4,3,3,60,0,1
278782,-62.5,4,3,1,60,0,1
279832,-62.5,4,3,2,60,0,1
279982,-62.5,4,3,1,60,0,1
280282,-66.6666666666667,4,3,1,60,0,1
280432,-71.4285714285714,4,3,1,60,0,1
280582,-76.9230769230769,4,3,2,60,0,1
280732,-83.3333333333333,4,3,2,60,0,1
280882,-90.9090909090909,4,3,2,60,0,1
281032,-100,4,3,3,55,0,1
281182,-100,4,3,1,55,0,1
282232,-100,4,3,1,55,0,1
283432,-100,4,3,1,55,0,1
285382,-100,4,3,3,55,0,1
285682,-100,4,3,2,55,0,1
285832,-100,4,3,3,55,0,1
285982,-100,4,3,1,55,0,1
287182,-100,4,3,3,55,0,1
287482,-100,4,3,2,55,0,1
288232,-76.9230769230769,4,3,2,55,0,1
288832,-83.3333333333333,4,3,1,55,0,1
289032,-83.3333333333333,4,3,4,55,0,1
289432,-90.9090909090909,4,3,1,50,0,1
290032,-100,4,3,1,45,0,1
290632,-100,4,3,4,40,0,0
294232,-100,4,3,0,40,0,0
294832,-100,4,3,3,45,0,0
295732,-100,4,3,4,45,0,0
299032,-100,4,3,4,50,0,0
300232,-100,4,3,3,55,0,0
300532,-100,4,3,4,55,0,0
304582,-100,4,3,2,55,0,0
304732,-100,4,3,4,55,0,0
304882,-100,4,3,2,55,0,0
305032,-100,4,3,3,55,0,0
305332,-100,4,3,4,55,0,0
305632,-100,4,3,4,55,0,0
306232,-100,4,3,4,50,0,0
314632,-100,4,3,2,50,0,0
314932,-100,4,3,4,50,0,0
317032,-100,4,3,4,50,0,0
317332,-100,4,3,4,50,0,0
317632,-100,4,3,4,55,0,0
317932,-100,4,3,3,55,0,0
318232,-90.9090909090909,4,3,4,60,0,0
318682,-83.3333333333333,4,3,4,60,0,0
319282,-76.9230769230769,4,3,3,70,0,0
321532,-100,4,3,1,45,0,0
323182,-100,4,3,3,45,0,0
323632,-100,4,3,2,50,0,0
324232,-100,4,3,3,50,0,0
324382,-100,4,3,1,50,0,0
326332,-100,4,3,2,50,0,0
326932,-100,4,3,3,50,0,0
328432,-100,4,3,2,50,0,0
329032,-100,4,3,0,50,0,0
330232,-100,4,3,4,50,0,0
331282,-100,4,3,2,50,0,0
332032,-100,4,3,4,50,0,0
333532,-100,4,3,3,50,0,0
333982,-100,4,3,1,50,0,0
336532,-100,4,3,2,50,0,0
337432,-100,4,3,1,50,0,0
339232,300,4,3,3,60,1,0
341932,-100,4,3,2,60,0,0
343282,-100,4,3,3,60,0,0
344032,-100,4,3,2,60,0,0
345682,-100,4,3,3,60,0,0
346432,-100,4,3,2,60,0,0
347482,-100,4,3,4,60,0,0
347932,-100,4,3,3,60,0,0
348232,-100,4,3,2,60,0,0
348832,-100,4,3,3,60,0,0
349132,-100,4,3,1,50,0,0
350632,-100,4,3,3,50,0,0
351532,-100,4,3,1,50,0,0
352432,-100,4,3,3,50,0,0
353032,-100,4,3,0,50,0,0
353332,-100,4,3,3,50,0,0
353782,-100,4,3,1,50,0,0
356032,-100,4,3,3,50,0,0
357232,-100,4,3,3,55,0,0
358132,-100,4,3,3,60,0,0
359032,-100,4,3,4,70,0,0
359632,-100,4,3,2,60,0,1
359782,-100,4,3,4,50,0,1
364432,-100,4,3,2,50,0,1
364582,-100,4,3,4,50,0,1
366832,-100,4,3,3,50,0,1
367132,-100,4,3,1,50,0,1
368782,-100,4,3,2,50,0,1
369232,-100,4,3,3,50,0,1
369382,-100,4,3,4,50,0,1
374032,-100,4,3,2,50,0,1
374182,-100,4,3,4,50,0,1
375982,-100,4,3,2,50,0,1
376432,-100,4,3,3,50,0,1
376582,-100,4,3,1,50,0,1
377482,-100,4,3,3,50,0,1
377932,-100,4,3,0,50,0,1
378232,-100,4,3,4,55,0,1
378307,-100,4,3,0,55,0,1
378682,-100,4,3,4,55,0,0
378832,-100,4,3,3,55,0,1
378982,-100,4,3,1,55,0,1
380032,-90.9090909090909,4,3,1,55,0,1
381232,-83.3333333333333,4,3,1,55,0,1
383632,-76.9230769230769,4,3,2,60,0,1
383782,-76.9230769230769,4,3,1,60,0,1
384832,-71.4285714285714,4,3,1,60,0,1
386032,-71.4285714285714,4,3,3,60,0,1
386182,-71.4285714285714,4,3,1,60,0,1
387232,-71.4285714285714,4,3,2,60,0,1
387532,-62.5,4,3,2,60,0,1
387682,-66.6666666666667,4,3,2,60,0,1
387832,-71.4285714285714,4,3,2,60,0,1
387982,-76.9230769230769,4,3,3,60,0,1
388132,-83.3333333333333,4,3,3,60,0,1
388282,-90.9090909090909,4,3,2,60,0,1
388432,-100,4,3,3,55,0,1
388582,-100,4,3,4,55,0,1
389632,-90.9090909090909,4,3,4,55,0,1
390832,-83.3333333333333,4,3,4,55,0,1
390982,-83.3333333333333,4,3,2,55,0,1
391282,-83.3333333333333,4,3,3,55,0,1
391582,-83.3333333333333,4,3,4,55,0,1
391882,-83.3333333333333,4,3,3,55,0,1
392182,-83.3333333333333,4,3,2,55,0,1
392482,-83.3333333333333,4,3,3,55,0,1
393232,-83.3333333333333,4,3,2,60,0,1
394432,-100,4,3,3,60,0,1
394507,-100,4,3,3,40,0,1
394732,-100,4,3,3,50,0,1
395032,-100,4,3,0,60,0,1
395632,-100,4,3,3,70,0,0
395782,-100,4,3,4,50,0,0
400432,-100,4,3,2,50,0,0
400582,-100,4,3,4,50,0,0
402832,-100,4,3,3,50,0,0
402982,-100,4,3,4,50,0,0
404782,-100,4,3,3,50,0,0
405082,-100,4,3,2,50,0,0
405232,-100,4,3,3,50,0,0
405382,-100,4,3,4,50,0,0
409582,-100,4,3,2,50,0,0
410032,-100,4,3,3,50,0,0
410182,-100,4,3,4,50,0,0
411532,-100,4,3,0,50,0,0
412432,-100,4,3,3,50,0,0
412732,-100,4,3,1,50,0,0
416632,-100,4,3,3,50,0,0
417232,-100,4,3,2,50,0,0
417532,-100,4,3,1,50,0,0
419332,-100,4,3,3,50,0,0
419632,-100,4,3,2,50,0,0
419932,-100,4,3,1,50,0,0
420907,-100,4,3,0,50,0,0
421732,-100,4,3,2,50,0,0
422032,-100,4,3,3,50,0,0
422332,-100,4,3,1,50,0,0
424432,-100,4,3,3,50,0,0
424732,-100,4,3,1,50,0,0
426832,-100,4,3,3,50,0,0
426982,-100,4,3,1,50,0,0
428782,-100,4,3,2,50,0,0
429082,-100,4,3,3,50,0,0
429382,-100,4,3,2,50,0,0
429982,-100,4,3,3,50,0,0
430132,-100,4,3,2,50,0,0
431332,-100,4,3,4,50,0,0

[HitObjects]
136,124,397132,6,0,P|128:176|168:240,1,90,4|10,0:0|0:0,0:0:0:0:
284,270,397432,2,0,P|242:237|167:239,1,90,4|10,0:0|0:0,0:0:0:0:
83,325,397732,2,0,P|132:305|167:239,1,90,4|10,0:0|0:0,0:0:0:0:
256,124,398032,6,0,P|286:91|328:77,1,90,4|10,0:0|0:0,0:0:0:0:
488,192,398332,1,4,0:0:0:0:
488,192,398407,1,4,0:0:0:0:
488,192,398482,1,10,0:0:0:0:
340,176,398632,2,0,P|309:143|267:129,1,90,4|10,0:0|0:0,0:0:0:0:
108,244,398932,1,4,0:0:0:0:
108,244,399007,1,4,0:0:0:0:
108,244,399082,1,10,0:0:0:0:
256,340,399232,6,0,P|308:324|344:284,1,90,4|10,0:0|0:0,0:0:0:0:
320,136,399532,2,0,P|268:118|215:129,1,90,4|10,0:0|0:0,0:0:0:0:
148,263,399832,2,0,P|179:307|228:329,1,90,4|10,0:0|0:0,0:0:0:0:
360,260,400132,2,0,P|364:237|363:215,3,30,4|4|4|10,0:0|0:0|0:0|0:0,0:0:0:0:
186,136,400432,6,0,P|158:170|147:213,1,90,6|10,0:0|0:0,0:0:0:0:
256,340,400732,1,4,0:0:0:0:
256,340,400807,1,4,0:0:0:0:
256,340,400882,1,10,0:0:0:0:
324,160,401032,2,0,P|368:152|410:164,1,90,4|10,0:0|0:0,0:0:0:0:
466,321,401332,1,4,0:0:0:0:
466,321,401407,1,4,0:0:0:0:
466,321,401482,1,10,0:0:0:0:
283,241,401632,6,0,P|249:212|234:170,1,90,4|10,0:0|0:0,0:0:0:0:
256,40,401932,1,4,0:0:0:0:
373,236,402082,2,0,P|364:279|335:313,1,90,10|4,0:0|0:0,0:0:0:0:
213,359,402382,1,10,0:0:0:0:
324,160,402532,2,0,P|365:145|409:153,1,90,4|10,0:0|0:0,0:0:0:0:
511,237,402832,6,0,L|496:312,5,45,6|4|10|4|4|4,0:0|0:0|0:0|0:0|0:0|0:0,0:0:0:0:
412,368,403282,2,0,L|427:293,5,45,10|4|4|4|10|4,0:0|0:0|0:0|0:0|0:0|0:0,0:0:0:0:
420,196,403732,6,0,L|386:264,3,45,4|4|10|4,0:0|0:0|0:0|0:0,0:0:0:0:
290,296,404032,2,0,L|323:227,3,45,4|4|10|4,0:0|0:0|0:0|0:0,0:0:0:0:
342,132,404332,2,0,L|291:189,3,45,4|4|10|4,0:0|0:0|0:0|0:0,0:0:0:0:
190,194,404632,2,0,L|240:136,3,45,4|4|10|4,0:0|0:0|0:0|0:0,0:0:0:0:
283,49,404932,2,0,L|219:91,3,45,4|4|10|4,0:0|0:0|0:0|0:0,0:0:0:0:
119,69,405232,6,0,P|83:94|60:133,1,90,6|10,0:0|0:0,0:0:0:0:
64,304,405532,1,4,0:0:0:0:
64,304,405607,1,4,0:0:0:0:
64,304,405682,1,10,0:0:0:0:
190,194,405832,2,0,P|230:175|275:174,1,90,4|10,0:0|0:0,0:0:0:0:
421,263,406132,1,4,0:0:0:0:
421,263,406207,1,4,0:0:0:0:
421,263,406282,1,10,0:0:0:0:
278,364,406432,6,0,P|258:324|252:280,1,90,4|10,0:0|0:0,0:0:0:0:
232,80,406732,1,4,0:0:0:0:
232,80,406807,1,4,0:0:0:0:
232,80,406882,1,10,0:0:0:0:
415,27,407032,2,0,P|424:72|419:116,1,90,4|10,0:0|0:0,0:0:0:0:
252,280,407332,1,4,0:0:0:0:
252,280,407407,1,4,0:0:0:0:
252,280,407482,1,10,0:0:0:0:
52,212,407632,6,0,P|21:179|7:137,1,90,4|10,0:0|0:0,0:0:0:0:
127,115,407932,1,4,0:0:0:0:
294,246,408082,2,0,P|281:288|251:321,1,90,10|4,0:0|0:0,0:0:0:0:
172,228,408382,1,10,0:0:0:0:
202,19,408532,2,0,P|245:8|289:17,1,90,4|10,0:0|0:0,0:0:0:0:
408,120,408832,6,0,L|392:220,1,90,4|10,0:0|0:0,0:0:0:0:
228,276,409132,2,0,L|244:176,1,90,4|10,0:0|0:0,0:0:0:0:
393,208,409432,2,0,L|423:213,3,30,4|4|4|10,0:0|0:0|0:0|0:0,0:0:0:0:
248,144,409731,2,0,L|219:140,3,30,4|4|4|10,0:0|0:0|0:0|0:0,0:0:0:0:
89,269,410032,6,0,P|94:313|114:353,1,90,6|10,0:0|0:0,0:0:0:0:
228,276,410332,1,4,0:0:0:0:
228,276,410407,1,4,0:0:0:0:
228,276,410482,1,10,0:0:0:0:
424,160,410632,2,0,P|419:204|399:244,1,90,4|10,0:0|0:0,0:0:0:0:
285,166,410932,1,4,0:0:0:0:
285,166,411007,1,4,0:0:0:0:
285,166,411082,1,10,0:0:0:0:
89,50,411232,6,0,L|93:94,3,45,8|8|4|4,0:0|0:0|0:0|0:0,0:0:0:0:
188,128,411532,1,8,0:0:0:0:
188,128,411607,1,8,0:0:0:0:
188,128,411682,2,0,L|192:172,1,45,4|4,0:0|0:0,0:0:0:0:
380,184,411832,6,0,L|375:228,3,45,8|8|4|4,0:0|0:0|0:0|0:0,0:0:0:0:
281,262,412132,1,4,0:0:0:0:
281,262,412207,1,4,0:0:0:0:
281,262,412282,2,0,L|276:306,1,45,4|4,0:0|0:0,0:0:0:0:
120,324,412432,5,10,0:0:0:0:
111,234,412582,2,0,L|100:118,1,90,4|10,0:0|0:0,0:0:0:0:
95,54,412882,1,4,0:0:0:0:
102,144,413032,2,0,L|111:234,1,90,10|4,0:0|0:0,0:0:0:0:
282,127,413332,5,10,0:0:0:0:
192,136,413482,2,0,L|76:146,1,90,4|10,0:0|0:0,0:0:0:0:
12,152,413782,1,4,0:0:0:0:
102,143,413932,2,0,L|192:136,1,90,10|4,0:0|0:0,0:0:0:0:
372,169,414232,6,0,P|336:196|272:212,1,90,10|4,0:0|0:0,0:0:0:0:
187,158,414457,1,4,0:0:0:0:
191,136,414532,2,0,P|227:109|291:93,1,90,10|4,0:0|0:0,0:0:0:0:
359,80,414757,1,4,0:0:0:0:
381,79,414832,5,10,0:0:0:0:
372,169,414982,2,0,L|363:258,1,90,4|10,0:0|0:0,0:0:0:0:
356,349,415282,1,4,0:0:0:0:
363,258,415432,2,0,L|371:168,1,90,10|4,0:0|0:0,0:0:0:0:
185,242,415732,5,10,0:0:0:0:
273,250,415882,2,0,L|362:257,1,90,4|10,0:0|0:0,0:0:0:0:
455,267,416182,1,4,0:0:0:0:
362,258,416332,2,0,L|272:250,1,90,10|4,0:0|0:0,0:0:0:0:
108,192,416632,6,0,P|76:160|60:96,1,90,10|4,0:0|0:0,0:0:0:0:
102,22,416857,1,4,0:0:0:0:
124,26,416932,2,0,P|156:58|172:100,1,90,10|4,0:0|0:0,0:0:0:0:
216,182,417157,1,4,0:0:0:0:
220,204,417232,6,0,P|235:245|267:277,1,90,10|4,0:0|0:0,0:0:0:0:
404,232,417532,1,10,0:0:0:0:
404,63,417682,1,4,0:0:0:0:
304,200,417832,1,10,0:0:0:0:
466,147,417982,1,4,0:0:0:0:
303,94,418132,6,0,P|260:107|224:135,1,90,10|4,0:0|0:0,0:0:0:0:
203,338,418432,1,10,0:0:0:0:
203,169,418582,1,4,0:0:0:0:
303,306,418732,1,10,0:0:0:0:
141,253,418882,1,4,0:0:0:0:
304,200,419032,6,0,P|346:212|382:240,1,90,10|4,0:0|0:0,0:0:0:0:
295,312,419257,1,4,0:0:0:0:
272,310,419332,2,0,P|229:297|193:269,1,90,10|4,0:0|0:0,0:0:0:0:
139,168,419557,1,4,0:0:0:0:
134,146,419632,5,10,0:0:0:0:
300,36,419782,2,0,B|344:28|344:28|388:36,1,90,4|10,0:0|0:0,0:0:0:0:
388,164,420082,2,0,B|344:172|344:172|300:164,1,90,4|10,0:0|0:0,0:0:0:0:
344,28,420382,1,4,0:0:0:0:
432,155,420532,1,10,0:0:0:0:
255,155,420682,1,4,0:0:0:0:
420,36,420832,6,0,L|424:88,1,45,10|8,0:0|0:0,0:0:0:0:
332,148,420982,2,0,L|328:96,1,45,4|4,0:0|0:0,0:0:0:0:
452,60,421132,2,0,L|456:112,1,45,4|4,0:0|0:0,0:0:0:0:
364,172,421282,2,0,L|360:120,1,45,8|8,0:0|0:0,0:0:0:0:
484,84,421432,5,4,0:0:0:0:
487,128,421507,1,4,0:0:0:0:
490,173,421582,1,4,0:0:0:0:
486,217,421657,1,4,0:0:0:0:
483,262,421732,2,0,P|456:332|424:356,1,90,10|4,0:0|0:0,0:0:0:0:
288,284,422032,5,14,0:0:0:0:
251,259,422107,1,4,0:0:0:0:
206,255,422182,1,4,0:0:0:0:
166,275,422257,1,4,0:0:0:0:
141,311,422332,1,10,0:0:0:0:
100,236,422482,1,4,0:0:0:0:
224,344,422632,1,10,0:0:0:0:
255,182,422782,1,4,0:0:0:0:
232,352,422932,6,0,P|272:371|316:367,1,90,10|4,0:0|0:0,0:0:0:0:
452,276,423232,2,0,B|468:272|468:272|395:258,1,90,10|4,0:0|0:0,0:0:0:0:
269,206,423457,1,4,0:0:0:0:
249,202,423532,2,0,B|233:198|233:198|317:182,1,90,10|4,0:0|0:0,0:0:0:0:
438,148,423832,2,0,P|466:112|474:52,1,90,10|4,0:0|0:0,0:0:0:0:
286,40,424132,2,0,P|258:76|250:136,1,90,10|4,0:0|0:0,0:0:0:0:
268,280,424432,5,14,0:0:0:0:
237,312,424507,1,4,0:0:0:0:
195,327,424582,1,4,0:0:0:0:
151,320,424657,1,4,0:0:0:0:
115,293,424732,1,10,0:0:0:0:
87,136,424882,1,4,0:0:0:0:
187,236,425032,1,10,0:0:0:0:
271,120,425182,1,4,0:0:0:0:
170,18,425332,6,0,L|178:126,1,90,10|4,0:0|0:0,0:0:0:0:
177,108,425557,1,4,0:0:0:0:
177,108,425632,1,10,0:0:0:0:
335,108,425782,1,8,0:0:0:0:
177,108,425932,5,8,0:0:0:0:
178,130,426007,1,4,0:0:0:0:
180,152,426082,2,0,L|184:206,1,45,4|4,0:0|0:0,0:0:0:0:
329,196,426232,2,0,L|324:250,1,45,4|4,0:0|0:0,0:0:0:0:
183,196,426382,5,8,0:0:0:0:
184,218,426457,1,4,0:0:0:0:
186,240,426532,2,0,L|190:294,1,45,4|4,0:0|0:0,0:0:0:0:
323,284,426682,2,0,L|318:338,1,45,4|4,0:0|0:0,0:0:0:0:
189,284,426832,5,6,0:0:0:0:
190,306,426907,1,4,0:0:0:0:
192,328,426982,2,0,L|196:382,2,45,10|4|4,0:0|0:0|0:0,0:0:0:0:
319,328,427282,1,10,0:0:0:0:
186,240,427432,1,4,0:0:0:0:
329,196,427582,1,10,0:0:0:0:
462,284,427732,5,4,0:0:0:0:
512,155,427882,2,0,P|514:111|498:69,1,90,10|4,0:0|0:0,0:0:0:0:
350,49,428182,2,0,P|348:94|364:136,1,90,10|4,0:0|0:0,0:0:0:0:
500,184,428482,1,10,0:0:0:0:
432,288,428632,1,4,0:0:0:0:
398,292,428707,1,4,0:0:0:0:
365,286,428782,1,10,0:0:0:0:
336,269,428857,1,4,0:0:0:0:
315,243,428932,1,4,0:0:0:0:
293,217,429007,1,4,0:0:0:0:
264,199,429082,1,10,0:0:0:0:
231,193,429157,1,4,0:0:0:0:
198,198,429232,6,0,P|178:208|159:221,1,45,4|4,0:0|0:0,0:0:0:0:
189,316,429382,2,0,P|209:307|228:294,1,45,10|4,0:0|0:0,0:0:0:0:
122,199,429532,2,0,P|120:221|122:243,1,45,4|4,0:0|0:0,0:0:0:0:
265,315,429682,2,0,P|266:292|264:270,1,45,10|4,0:0|0:0,0:0:0:0:
84,265,429832,2,0,P|102:277|123:286,1,45,4|4,0:0|0:0,0:0:0:0:
303,249,429982,2,0,P|284:236|263:227,1,45,10|4,0:0|0:0,0:0:0:0:
160,132,430132,2,0,P|160:68|200:112,1,135,10|0,0:0|2:0,0:0:0:0:
232,168,430432,5,8,0:0:0:0:
256,191,430507,1,8,0:0:0:0:
286,207,430582,1,4,0:0:0:0:
318,215,430657,1,4,0:0:0:0:
352,214,430732,1,8,0:0:0:0:
384,205,430807,1,8,0:0:0:0:
413,187,430882,1,4,0:0:0:0:
437,163,430957,1,4,0:0:0:0:
453,134,431032,2,0,P|414:61|334:84,1,180,12|10,0:0|0:0,0:0:0:0:
