osu file format v14

[General]
AudioFilename: [] Demetori - Intro-The Shining Needle Castle... - Counter-Clock World.mp3
AudioLeadIn: 0
PreviewTime: 94778
Countdown: 0
SampleSet: None
StackLeniency: 0.7
Mode: 0
LetterboxInBreaks: 1
EpilepsyWarning: 1
WidescreenStoryboard: 1

[Editor]
Bookmarks: 34233,35355,37906,63966,65912,76453,84075,94939,120723,152669,163048,170183,193696,214129,215426,241696,245588,289374,314184,314346,334940,344021,345319
DistanceSpacing: 1.5
BeatDivisor: 4
GridSize: 4
TimelineZoom: 2.4

[Metadata]
Title:The Shining Needle Castle Sinking in the Air ~ Counter-Clock World
TitleUnicode:空中に沈む輝針城 ~ Counter-Clock World
Artist:Demetori
ArtistUnicode:Demetori
Creator:Keada
Version:Extra Stage
Source:東方Project
Tags:Seija Kijin 愧人贖悪 ~ Evil People as the True Object of Salvation ~ C88 ZUN
BeatmapID:779956
BeatmapSetID:354017

[Difficulty]
HPDrainRate:6
CircleSize:5
OverallDifficulty:9
ApproachRate:9.4
SliderMultiplier:1.8
SliderTickRate:2

[Events]
//Background and Video events
0,0,"fastderr.png",0,0
//Break Periods
2,35575,38130
//Storyboard Layer 0 (Background)
//Storyboard Layer 1 (Fail)
//Storyboard Layer 2 (Pass)
//Storyboard Layer 3 (Foreground)
//Storyboard Sound Samples

[TimingPoints]
378,670.391061452514,3,2,0,10,1,0
2389,657.174151150055,3,2,0,10,1,0
4360,656.455142231947,3,2,0,10,1,0
6329,656.455142231947,3,2,0,10,1,0
8298,659.340659340659,3,2,0,10,1,0
10276,658.616904500549,3,2,0,10,1,0
12251,660.79295154185,3,2,0,10,1,0
14233,660.06600660066,3,2,0,10,1,0
16213,657.174151150055,3,2,0,10,1,0
18184,657.894736842105,3,2,0,10,1,0
20157,658.616904500549,3,2,0,10,1,0
22132,660.06600660066,3,2,0,10,1,0
24112,663.716814159292,3,2,0,10,1,0
26103,697.674418604651,3,2,0,10,1,0
27149,727.272727272727,3,2,0,10,1,0
28239,716.845878136201,3,2,0,10,1,0
29314,789.473684210526,3,2,0,10,1,0
30498,898.203592814371,3,2,0,10,1,0
31845,916.030534351145,3,2,0,10,1,0
33023,1176.47058823529,3,2,0,10,1,0
38022,324.324324324324,4,3,1,60,1,0
40940,-100,4,3,2,60,0,0
43049,-100,4,3,1,60,0,0
43535,-100,4,3,2,60,0,0
44508,-100,4,3,1,60,0,0
44832,-100,4,3,2,60,0,0
45643,-100,4,3,1,60,0,0
45967,-100,4,3,2,60,0,0
48238,-100,4,3,1,60,0,0
48724,-100,4,3,2,60,0,0
49373,-100,4,3,4,60,0,0
50832,-100,4,3,1,60,0,0
51319,-100,4,3,2,60,0,0
53103,-100,4,3,4,60,0,0
53265,-100,4,3,1,60,0,0
53913,-100,4,3,2,60,0,0
54886,-100,4,3,4,60,0,0
56021,-100,4,3,1,60,0,0
56508,-100,4,3,2,60,0,0
58616,-100,4,3,1,60,0,0
59103,-100,4,3,2,60,0,0
59751,-100,4,3,4,60,0,0
61373,-100,4,3,1,60,0,0
61697,-100,4,3,2,60,0,0
62670,-100,4,3,1,30,0,0
62994,-100,4,3,1,40,0,0
63319,-100,4,3,1,50,0,0
63643,-100,4,3,1,60,0,0
64292,-100,4,3,2,60,0,0
66278,-100,4,3,1,60,0,0
66562,-100,4,3,2,60,0,0
68832,-100,4,3,4,60,0,0
69157,-100,4,3,1,60,0,0
69481,-100,4,3,2,60,0,0
71508,-100,4,3,1,60,0,0
71751,-100,4,3,2,60,0,0
74346,-100,4,3,1,60,0,0
74670,-100,4,3,2,60,0,0
76697,-100,4,3,1,60,0,0
76940,-100,4,3,2,60,0,0
79211,-100,4,3,4,60,0,0
79535,-100,4,3,1,60,0,0
79859,-100,4,3,2,60,0,0
81886,-100,4,3,1,60,0,0
82454,-100,4,3,2,60,0,0
83751,-100,4,3,4,60,0,0
84724,-100,4,3,1,60,0,0
86346,-100,4,3,4,60,0,0
89913,-100,4,3,1,60,0,0
90238,-100,4,3,2,60,0,0
91211,-100,4,3,1,60,0,0
91535,-100,4,3,2,60,0,0
92184,-100,4,3,4,60,0,0
92508,-100,4,3,1,60,0,0
92670,-100,4,3,2,30,0,0
92832,-100,4,3,1,40,0,0
93157,-100,4,3,1,50,0,0
94940,-90.9090909090909,4,3,1,70,0,1
95427,-90.9090909090909,4,3,2,70,0,1
97535,-90.9090909090909,4,3,1,70,0,1
98021,-90.9090909090909,4,3,2,70,0,1
100130,-90.9090909090909,4,3,1,70,0,1
100616,-90.9090909090909,4,3,2,70,0,1
101427,-90.9090909090909,4,3,1,70,0,1
101913,-90.9090909090909,4,3,2,70,0,1
102724,-90.9090909090909,4,3,1,70,0,1
103211,-90.9090909090909,4,3,2,70,0,1
103859,-90.9090909090909,4,3,4,70,0,1
105319,-90.9090909090909,4,3,1,70,0,1
105643,-90.9090909090909,4,3,3,70,0,1
107427,-90.9090909090909,4,3,2,70,0,1
107913,-90.9090909090909,4,3,1,70,0,1
108238,-90.9090909090909,4,3,3,70,0,1
109697,-90.9090909090909,4,3,4,70,0,1
110184,-90.9090909090909,4,3,2,70,0,1
110508,-90.9090909090909,4,3,1,70,0,1
110994,-90.9090909090909,4,3,2,70,0,1
111805,-90.9090909090909,4,3,1,70,0,1
112130,-90.9090909090909,4,3,2,70,0,1
113102,-90.9090909090909,4,3,1,70,0,1
113589,-90.9090909090909,4,3,2,70,0,1
114238,-90.9090909090909,4,3,4,70,0,1
115696,-83.3333333333333,4,3,1,70,0,1
115940,-100,4,3,2,60,0,0
117967,-100,4,3,4,60,0,0
118292,-100,4,3,1,60,0,0
118778,-100,4,3,2,60,0,0
120886,-100,4,3,1,60,0,0
123157,-100,4,3,2,60,0,0
123481,-100,4,3,1,60,0,0
123967,-100,4,3,4,60,0,0
124292,-100,4,3,5,60,0,0
124778,-100,4,3,1,60,0,0
125265,-100,4,3,4,60,0,0
126076,-100,4,3,1,60,0,0
128508,-100,4,3,4,60,0,0
128832,-100,4,3,1,60,0,0
129157,-100,4,3,2,60,0,0
131184,-100,4,3,1,60,0,0
131346,-100,4,3,2,60,0,0
133697,-100,4,3,4,60,0,0
134021,-100,4,3,1,60,0,0
134346,-100,4,3,2,60,0,0
136373,-100,4,3,1,60,0,0
136535,-100,4,3,2,60,0,0
138238,-100,4,3,4,60,0,0
138562,-100,4,3,2,60,0,0
139211,-100,4,3,1,60,0,0
139535,-100,4,3,2,60,0,0
141562,-100,4,3,1,60,0,0
141724,-100,4,3,2,60,0,0
144076,-100,4,3,4,60,0,0
144319,-100,4,3,1,60,0,0
144724,-100,4,3,2,60,0,0
146670,-100,4,3,4,60,0,0
147481,-100,4,3,2,60,0,0
148130,-100,4,3,1,60,0,0
155103,-100,4,3,2,60,0,0
156076,-100,4,3,1,60,0,0
156400,-100,4,3,2,60,0,0
157049,-100,4,3,4,60,0,0
159805,-90.9090909090909,4,3,1,70,0,1
160130,-90.9090909090909,4,3,2,70,0,1
162400,-90.9090909090909,4,3,1,70,0,1
162724,-90.9090909090909,4,3,2,70,0,1
164994,-90.9090909090909,4,3,1,70,0,1
165319,-90.9090909090909,4,3,2,70,0,1
166292,-90.9090909090909,4,3,1,70,0,1
166616,-90.9090909090909,4,3,2,70,0,1
167589,-90.9090909090909,4,3,1,70,0,1
167913,-90.9090909090909,4,3,2,70,0,1
168724,-90.9090909090909,4,3,4,70,0,1
170184,-90.9090909090909,4,3,1,70,0,1
170508,-90.9090909090909,4,3,3,70,0,1
172292,-90.9090909090909,4,3,2,70,0,1
172778,-90.9090909090909,4,3,1,70,0,1
173103,-90.9090909090909,4,3,3,70,0,1
174562,-90.9090909090909,4,3,4,70,0,1
175049,-90.9090909090909,4,3,1,70,0,1
175697,-90.9090909090909,4,3,2,70,0,1
176670,-90.9090909090909,4,3,1,70,0,1
176994,-90.9090909090909,4,3,2,70,0,1
177967,-90.9090909090909,4,3,1,70,0,1
178292,-90.9090909090909,4,3,2,70,0,1
179103,-90.9090909090909,4,3,4,70,0,1
180561,-83.3333333333333,4,3,1,70,0,1
180805,-100,4,3,2,60,0,0
183157,-100,4,3,1,60,0,0
183400,-100,4,3,2,60,0,0
184616,-100,4,3,1,60,0,0
184778,-100,4,3,2,60,0,0
185751,-100,4,3,1,60,0,0
186076,-100,4,3,4,60,0,0
188346,-100,4,3,1,60,0,0
188670,-100,4,3,4,60,0,0
189157,-100,4,3,2,60,0,0
189643,-100,4,3,1,60,0,0
189967,-100,4,3,4,60,0,0
190940,-100,4,3,1,60,0,0
192237,-100,4,3,1,5,0,0
192399,-133.333333333333,4,3,1,60,0,0
198238,-133.333333333333,4,3,4,60,0,0
198562,-133.333333333333,4,3,0,60,0,0
198886,-133.333333333333,4,3,1,60,0,0
200832,-133.333333333333,4,3,4,60,0,0
200994,-133.333333333333,4,3,1,60,0,0
208616,-133.333333333333,4,3,4,60,0,0
209264,-105.263157894737,4,3,1,60,0,0
211211,-105.263157894737,4,3,4,60,0,0
212021,-105.263157894737,4,3,1,60,0,0
213481,-105.263157894737,4,3,4,60,0,0
214129,-200,4,3,1,60,0,0
215426,-100,4,3,1,60,0,0
216076,-100,4,3,2,60,0,0
220778,-100,4,3,1,60,0,0
221103,-100,4,3,2,60,0,0
224670,-100,4,3,1,60,0,0
225157,-100,4,3,2,60,0,0
225319,-100,4,3,1,60,0,0
226454,-100,4,3,2,60,0,0
231157,-100,4,3,1,60,0,0
231643,-100,4,3,2,60,0,0
233751,-100,4,3,1,60,0,0
234238,-100,4,3,2,60,0,0
234886,-100,4,3,4,60,0,0
236508,-100,4,3,1,60,0,0
236832,-100,4,3,2,60,0,0
239102,-90.9090909090909,4,3,1,60,0,0
239427,-90.9090909090909,4,3,2,60,0,0
241697,-90.9090909090909,4,3,1,60,0,0
242021,-90.9090909090909,4,3,2,60,0,0
242994,-90.9090909090909,4,3,1,60,0,0
243319,-90.9090909090909,4,3,2,60,0,0
243967,-90.9090909090909,4,3,4,60,0,0
245589,-90.9090909090909,4,3,2,60,0,0
246400,-90.9090909090909,4,3,2,60,0,0
246885,-100,4,3,1,60,0,0
247211,-100,4,3,2,60,0,0
248184,-100,4,3,1,60,0,0
248508,-100,4,3,2,60,0,0
249481,-100,4,3,1,60,0,0
249805,-100,4,3,2,60,0,0
250778,-100,4,3,1,60,0,0
251103,-100,4,3,4,60,0,0
251427,-100,4,3,2,60,0,0
252076,-100,4,3,1,60,0,0
252238,-100,4,3,3,60,0,0
253373,-100,4,3,1,60,0,0
254670,-100,4,3,4,60,0,0
255157,-100,4,3,1,60,0,0
256454,-100,4,3,4,60,0,0
256940,-100,4,3,1,60,0,0
258238,-100,4,3,4,60,0,0
258562,-100,4,3,2,60,0,0
258643,-100,4,3,1,60,0,0
258778,-100,4,3,0,60,0,0
259211,-100,4,3,2,60,0,0
260184,-100,4,3,1,60,0,0
261481,-100,4,3,4,60,0,0
262454,-100,4,3,1,60,0,0
262940,-100,4,3,4,60,0,0
264075,-100,4,3,1,60,0,0
265373,-100,4,3,2,60,0,0
266346,-100,4,3,1,60,0,0
266508,-100,4,3,2,60,0,0
267319,-100,4,3,4,60,0,0
270238,-100,4,3,1,60,0,0
270562,-100,4,3,2,60,0,0
271292,-100,4,3,1,60,0,0
271535,-100,4,3,2,60,0,0
271616,-100,4,3,1,60,0,0
271859,-100,4,3,4,60,0,0
272184,-100,4,3,1,60,0,0
272508,-100,4,3,2,60,0,0
274129,-95.2380952380952,4,3,1,60,0,0
274454,-95.2380952380952,4,3,2,60,0,0
275103,-95.2380952380952,4,3,4,60,0,0
275427,-95.2380952380952,4,3,2,60,0,0
276076,-95.2380952380952,4,3,1,60,0,0
276400,-95.2380952380952,4,3,4,60,0,0
278020,-95.2380952380952,4,3,1,60,0,0
279643,-95.2380952380952,4,3,4,60,0,0
279967,-95.2380952380952,4,3,1,60,0,0
281589,-95.2380952380952,4,3,4,60,0,0
281913,-80,4,3,1,60,0,0
283859,-80,4,3,4,60,0,0
285805,-80,4,3,1,60,0,0
286130,-80,4,3,4,60,0,0
287427,-80,4,3,1,60,0,0
288076,-80,4,3,4,60,0,0
289373,-80,4,3,1,60,0,0
293589,-100,4,3,1,70,0,1
293913,-100,4,3,2,70,0,1
296021,-100,4,3,1,70,0,1
296346,-100,4,3,2,70,0,1
298616,-100,4,3,1,70,0,1
298940,-100,4,3,2,70,0,1
299913,-100,4,3,1,70,0,1
300238,-100,4,3,2,70,0,1
301211,-100,4,3,1,70,0,1
301535,-100,4,3,2,70,0,1
302346,-100,4,3,4,70,0,1
303805,-100,4,3,1,70,0,1
304130,-100,4,3,3,70,0,1
305913,-100,4,3,2,70,0,1
306400,-100,4,3,1,70,0,1
306724,-100,4,3,3,70,0,1
308184,-100,4,3,4,70,0,1
308670,-100,4,3,1,70,0,1
309319,-100,4,3,2,70,0,1
310292,-90.9090909090909,4,3,1,70,0,1
310778,-90.9090909090909,4,3,2,70,0,1
311589,-83.3333333333333,4,3,1,70,0,1
311913,-83.3333333333333,4,3,2,70,0,1
312724,-83.3333333333333,4,3,4,70,0,1
314184,-71.4285714285714,4,3,1,60,0,0
314346,-90.9090909090909,4,3,1,60,0,0
314670,-90.9090909090909,4,3,2,60,0,0
316778,-90.9090909090909,4,3,1,60,0,0
317265,-90.9090909090909,4,3,2,60,0,0
318238,-90.9090909090909,4,3,1,60,0,0
318562,-90.9090909090909,4,3,2,60,0,0
319373,-90.9090909090909,4,3,1,60,0,0
319859,-90.9090909090909,4,3,4,60,0,0
321967,-90.9090909090909,4,3,1,60,0,0
322454,-90.9090909090909,4,3,4,60,0,0
324562,-90.9090909090909,4,3,1,60,0,0
334940,-100,4,3,1,60,0,0
335427,-100,4,3,2,60,0,0
337535,-100,4,3,1,60,0,0
337859,-100,4,3,2,60,0,0
338994,-100,4,3,1,60,0,0
339319,-100,4,3,2,60,0,0
340129,-100,4,3,1,60,0,0
340616,-100,4,3,2,60,0,0
342724,-100,4,3,1,60,0,0
343049,-100,4,3,2,60,0,0
343859,-100,4,3,4,60,0,0
345319,-100,4,3,1,60,0,0
349697,-100,4,3,4,60,0,0
350508,-90.9090909090909,4,3,1,60,0,0
353589,-90.9090909090909,4,3,4,60,0,0
354562,-90.9090909090909,4,3,1,60,0,0
354886,-90.9090909090909,4,3,4,60,0,0
355697,-90.9090909090909,4,3,2,60,0,0

[Colours]
Combo1 : 0,99,198
Combo2 : 255,117,51
Combo3 : 230,186,13
Combo4 : 126,126,126
Combo5 : 0,126,140
Combo6 : 159,0,0

[HitObjects]
140,152,378,5,2,0:0:0:0:
232,152,713,1,0,0:0:0:0:
184,76,1048,1,0,0:0:0:0:
272,76,1383,1,0,0:0:0:0:
316,152,1718,1,0,0:0:0:0:
272,232,2053,1,0,0:0:0:0:
360,76,2389,5,2,0:0:0:0:
404,152,2717,1,0,0:0:0:0:
360,232,3046,1,0,0:0:0:0:
452,232,3374,1,0,0:0:0:0:
408,308,3703,1,0,0:0:0:0:
316,308,4031,1,0,0:0:0:0:
404,152,4360,69,2,0:0:0:0:
360,232,4688,1,0,0:0:0:0:
316,152,5016,1,0,0:0:0:0:
272,232,5344,1,0,0:0:0:0:
316,308,5672,1,0,0:0:0:0:
360,232,6001,1,0,0:0:0:0:
228,308,6329,5,2,0:0:0:0:
184,228,6657,1,0,0:0:0:0:
232,152,6985,1,0,0:0:0:0:
140,308,7313,69,2,0:0:0:0:
96,228,7641,1,0,0:0:0:0:
142,152,7970,1,0,0:0:0:0:
56,308,8298,5,2,0:0:0:0:
96,228,8627,2,0,L|192:228,1,90
232,152,9287,2,0,L|136:152,1,90
96,228,9946,1,0,0:0:0:0:
232,152,10276,70,0,L|324:152,1,90,2|0,0:0|0:0,0:0:0:0:
360,232,10934,1,0,0:0:0:0:
360,232,11263,2,0,L|456:232,2,90
404,152,12251,5,2,0:0:0:0:
360,76,12581,1,0,0:0:0:0:
272,76,12911,1,0,0:0:0:0:
316,152,13242,1,0,0:0:0:0:
360,232,13572,1,0,0:0:0:0:
274,228,13902,1,0,0:0:0:0:
404,152,14233,69,2,0:0:0:0:
448,232,14563,1,0,0:0:0:0:
407,308,14893,1,0,0:0:0:0:
496,152,15223,5,2,0:0:0:0:
448,232,15553,1,0,0:0:0:0:
360,232,15883,1,0,0:0:0:0:
496,304,16213,69,2,0:0:0:0:
407,308,16541,1,0,0:0:0:0:
360,232,16870,1,0,0:0:0:0:
316,308,17198,2,0,B|272:340|272:340|204:356,2,90
272,232,18184,5,2,0:0:0:0:
316,152,18512,1,0,0:0:0:0:
232,152,18841,1,0,0:0:0:0:
184,228,19170,2,0,L|184:340,2,90
142,152,20157,69,2,0:0:0:0:
186,72,20486,1,0,0:0:0:0:
232,152,20815,1,0,0:0:0:0:
96,72,21144,2,0,B|56:52|56:52|24:8,2,90
232,152,22132,5,2,0:0:0:0:
184,228,22462,1,0,0:0:0:0:
96,228,22792,1,0,0:0:0:0:
272,232,23122,69,2,0:0:0:0:
184,228,23452,1,0,0:0:0:0:
142,152,23782,1,0,0:0:0:0:
272,232,24112,6,0,L|368:232,2,90,2|0|0,0:0|0:0|0:0,0:0:0:0:
232,152,25107,2,0,B|216:108|216:108|184:72,2,90
142,152,26103,69,2,0:0:0:0:
196,244,26451,1,0,0:0:0:0:
304,224,26800,1,0,0:0:0:0:
256,320,27149,2,0,L|156:320,2,90
304,224,28239,5,2,0:0:0:0:
360,316,28597,1,0,0:0:0:0:
420,228,28955,1,0,0:0:0:0:
304,224,29314,1,0,0:0:0:0:
364,136,29708,2,0,P|420:120|472:136,1,90
256,120,30498,69,2,0:0:0:0:
140,192,30947,1,0,0:0:0:0:
256,260,31396,1,0,0:0:0:0:
136,324,31845,1,0,0:0:0:0:
140,192,32303,1,0,0:0:0:0:
128,160,33023,21,2,0:0:0:0:
128,160,33317,2,0,L|108:128,2,30
384,224,34199,5,2,0:0:0:0:
212,104,35375,69,2,0:0:0:0:
256,192,38670,37,6,0:0:0:0:
256,176,40454,70,0,B|308:176|308:176|384:192|384:192|440:192,1,180,6|2,0:0|0:0,0:0:0:0:
476,136,40859,1,2,0:0:0:0:
476,136,40940,1,14,0:0:0:0:
228,108,41103,1,2,0:0:0:0:
228,108,41184,1,2,0:0:0:0:
228,108,41265,2,0,P|188:160|192:212,1,90,6|0,0:0|0:0,0:0:0:0:
300,116,41589,2,0,P|340:64|336:12,1,90,14|2,0:0|0:0,0:0:0:0:
268,48,41832,1,2,0:0:0:0:
268,48,41913,5,6,0:0:0:0:
404,128,42075,1,2,0:0:0:0:
228,108,42238,2,0,L|136:108,1,90,14|2,0:0|0:0,0:0:0:0:
100,48,42481,1,2,0:0:0:0:
100,48,42562,1,6,0:0:0:0:
256,176,42724,1,6,0:0:0:0:
72,116,42886,1,8,0:0:0:0:
228,240,43048,54,0,B|280:240|280:240|352:256|352:256|408:256,1,180,6|2,0:0|0:0,0:0:0:0:
444,200,43454,1,2,0:0:0:0:
444,200,43535,1,14,0:0:0:0:
256,176,43697,1,2,0:0:0:0:
256,176,43778,1,2,0:0:0:0:
256,176,43859,2,0,P|200:176|168:204,1,90,6|2,0:0|0:0,0:0:0:0:
320,204,44184,2,0,P|322:148|296:114,1,90,14|2,0:0|0:0,0:0:0:0:
256,56,44427,1,2,0:0:0:0:
256,56,44508,6,0,L|352:56,1,90,6|2,0:0|0:0,0:0:0:0:
220,116,44832,2,0,L|128:116,1,90,14|2,0:0|0:0,0:0:0:0:
88,168,45075,1,2,0:0:0:0:
88,168,45157,1,6,0:0:0:0:
188,52,45319,1,2,0:0:0:0:
188,52,45400,1,2,0:0:0:0:
188,52,45481,1,14,0:0:0:0:
124,232,45643,6,0,B|143:289|143:289|209:272|241:347,1,180,6|2,0:0|0:0,0:0:0:0:
164,361,46048,1,2,0:0:0:0:
164,361,46130,1,14,0:0:0:0:
196,216,46292,1,2,0:0:0:0:
196,216,46373,1,2,0:0:0:0:
196,216,46454,2,0,B|240:224|240:224|276:256,1,90,4|2,0:0|0:0,0:0:0:0:
156,156,46778,2,0,B|159:111|159:111|192:68,1,90,14|2,0:0|0:0,0:0:0:0:
232,20,47021,1,2,0:0:0:0:
232,20,47102,54,0,L|136:20,1,90,6|2,0:0|0:0,0:0:0:0:
264,188,47427,2,0,L|360:188,1,90,14|2,0:0|0:0,0:0:0:0:
400,136,47670,1,2,0:0:0:0:
400,136,47751,1,6,0:0:0:0:
296,256,47913,1,6,0:0:0:0:
360,72,48075,1,8,0:0:0:0:
328,324,48238,6,0,B|240:336|240:268|144:300,1,180,6|2,0:0|0:0,0:0:0:0:
100,336,48643,1,2,0:0:0:0:
100,336,48724,1,14,0:0:0:0:
296,256,48886,1,2,0:0:0:0:
296,256,48967,1,2,0:0:0:0:
296,256,49048,2,0,P|332:216|336:172,1,90,6|2,0:0|0:0,0:0:0:0:
264,168,49292,1,2,0:0:0:0:
236,188,49373,1,14,0:0:0:0:
360,72,49535,5,2,0:0:0:0:
364,56,49616,1,2,0:0:0:0:
368,40,49697,2,0,P|340:24|316:20,1,45,8|2,0:0|0:0,0:0:0:0:
280,92,49859,2,0,P|258:85|239:73,1,45,2|2,0:0|0:0,0:0:0:0:
424,116,50021,1,10,0:0:0:0:
424,116,50102,1,10,0:0:0:0:
424,116,50184,2,0,L|440:164,1,45,2|2,0:0|0:0,0:0:0:0:
296,256,50346,53,8,0:0:0:0:
253,268,50427,1,8,0:0:0:0:
209,260,50508,1,2,0:0:0:0:
173,233,50589,1,2,0:0:0:0:
153,193,50670,2,0,P|152:180|172:124,1,45,2|2,0:0|0:0,0:0:0:0:
216,332,50832,6,0,B|160:332|160:332|88:308|88:308|40:308,1,180,6|2,0:0|0:0,0:0:0:0:
28,240,51238,1,2,0:0:0:0:
28,240,51319,1,14,0:0:0:0:
253,268,51481,1,2,0:0:0:0:
253,268,51562,1,2,0:0:0:0:
253,268,51643,2,0,P|284:312|284:360,1,90,6|2,0:0|0:0,0:0:0:0:
240,200,51967,2,0,P|246:155|276:124,1,90,14|2,0:0|0:0,0:0:0:0:
344,64,52211,1,2,0:0:0:0:
344,64,52292,6,0,L|244:64,1,90,6|2,0:0|0:0,0:0:0:0:
308,192,52616,2,0,L|408:192,1,90,14|2,0:0|0:0,0:0:0:0:
456,148,52859,1,2,0:0:0:0:
456,148,52940,1,6,0:0:0:0:
240,200,53102,1,12,0:0:0:0:
392,132,53265,1,6,0:0:0:0:
190,149,53427,54,0,P|170:213|262:265,1,180,6|2,0:0|0:0,0:0:0:0:
320,260,53832,1,2,0:0:0:0:
320,260,53913,1,14,0:0:0:0:
208,80,54075,1,2,0:0:0:0:
208,80,54157,1,2,0:0:0:0:
208,80,54238,2,0,P|152:88|120:124,1,90,6|2,0:0|0:0,0:0:0:0:
280,72,54562,2,0,P|336:64|368:28,1,90,14|2,0:0|0:0,0:0:0:0:
256,136,54805,1,2,0:0:0:0:
256,136,54886,6,0,P|280:200|316:212,1,90,6|2,0:0|0:0,0:0:0:0:
190,149,55130,1,2,0:0:0:0:
190,149,55211,2,0,P|152:184|144:232,1,90,14|2,0:0|0:0,0:0:0:0:
168,284,55454,1,2,0:0:0:0:
168,284,55535,1,8,0:0:0:0:
304,272,55697,1,8,0:0:0:0:
428,320,55859,1,10,0:0:0:0:
280,72,56021,6,0,B|220:72|220:72|160:88|160:88|92:88,1,180,6|2,0:0|0:0,0:0:0:0:
48,44,56427,1,2,0:0:0:0:
48,44,56508,1,14,0:0:0:0:
256,136,56670,1,2,0:0:0:0:
256,136,56751,1,2,0:0:0:0:
256,136,56832,2,0,L|348:136,1,90,6|2,0:0|0:0,0:0:0:0:
190,149,57157,2,0,L|138:225,1,90,14|2,0:0|0:0,0:0:0:0:
168,284,57400,1,2,0:0:0:0:
168,284,57481,54,0,B|212:296|212:296|272:288,1,90,6|2,0:0|0:0,0:0:0:0:
212,80,57805,2,0,B|168:68|168:68|108:76,1,90,14|2,0:0|0:0,0:0:0:0:
68,116,58048,1,2,0:0:0:0:
68,116,58130,1,6,0:0:0:0:
280,70,58292,1,6,0:0:0:0:
48,44,58454,1,8,0:0:0:0:
256,136,58616,6,0,B|344:180|344:108|448:164,1,180,6|2,0:0|0:0,0:0:0:0:
472,208,59021,1,2,0:0:0:0:
472,208,59102,1,14,0:0:0:0:
190,149,59265,1,2,0:0:0:0:
190,149,59346,1,2,0:0:0:0:
190,149,59427,2,0,P|200:96|236:68,1,90,6|2,0:0|0:0,0:0:0:0:
232,200,59670,1,2,0:0:0:0:
232,200,59751,2,0,P|192:216|176:216,1,45,14|2,0:0|0:0,0:0:0:0:
300,192,59913,2,0,P|337:212|348:224,1,45,8|8,0:0|0:0,0:0:0:0:
132,192,60075,5,10,0:0:0:0:
105,156,60157,1,2,0:0:0:0:
100,112,60238,1,2,0:0:0:0:
119,71,60319,1,2,0:0:0:0:
156,46,60400,53,2,0:0:0:0:
140,88,60481,1,2,0:0:0:0:
100,112,60562,1,2,0:0:0:0:
56,116,60643,1,2,0:0:0:0:
16,100,60724,5,2,0:0:0:0:
18,144,60805,1,2,0:0:0:0:
33,187,60886,1,2,0:0:0:0:
57,224,60967,1,2,0:0:0:0:
91,254,61048,1,2,0:0:0:0:
132,274,61130,1,2,0:0:0:0:
176,282,61211,1,2,0:0:0:0:
220,278,61292,1,2,0:0:0:0:
262,263,61373,5,6,3:3:0:0:
286,266,61697,1,4,2:3:0:0:
308,269,62021,1,4,2:3:0:0:
331,273,62346,1,4,2:3:0:0:
256,54,62670,5,6,0:0:0:0:
256,200,62832,1,2,0:0:0:0:
256,200,62994,1,2,0:0:0:0:
170,82,63157,1,2,0:0:0:0:
308,127,63319,1,2,0:0:0:0:
308,127,63481,1,2,0:0:0:0:
170,172,63643,1,2,0:0:0:0:
256,54,63805,1,2,0:0:0:0:
188,264,63967,53,6,0:0:0:0:
165,265,64048,1,2,0:0:0:0:
143,262,64130,1,2,0:0:0:0:
122,253,64211,1,2,0:0:0:0:
104,240,64292,1,14,0:0:0:0:
89,224,64373,1,2,0:0:0:0:
78,204,64454,1,2,0:0:0:0:
76,184,64778,5,2,0:0:0:0:
62,180,64859,1,2,0:0:0:0:
50,176,64940,1,14,0:0:0:0:
38,172,65021,1,2,0:0:0:0:
26,168,65102,1,2,0:0:0:0:
16,164,65427,5,2,0:0:0:0:
21,142,65508,1,2,0:0:0:0:
31,121,65589,1,14,0:0:0:0:
44,103,65670,1,2,0:0:0:0:
60,88,65751,1,2,0:0:0:0:
79,76,65832,1,2,0:0:0:0:
100,68,65913,2,0,P|136:68|164:80,1,45,6|2,0:0|0:0,0:0:0:0:
216,140,66075,2,0,P|192:156|164:156,1,45,2|2,0:0|0:0,0:0:0:0:
224,68,66238,2,0,B|280:68|280:68|312:100|380:80,1,135,14|0,0:0|2:2,0:0:0:0:
432,64,66562,53,6,0:0:0:0:
441,84,66643,1,2,0:0:0:0:
446,106,66724,1,2,0:0:0:0:
447,128,66805,1,2,0:0:0:0:
444,150,66886,1,14,0:0:0:0:
436,171,66967,1,2,0:0:0:0:
424,190,67048,1,2,0:0:0:0:
412,200,67373,5,2,0:0:0:0:
421,206,67454,1,2,0:0:0:0:
430,213,67535,1,14,0:0:0:0:
439,220,67616,1,2,0:0:0:0:
448,227,67697,1,2,0:0:0:0:
456,236,68021,5,2,0:0:0:0:
447,256,68102,1,2,0:0:0:0:
435,275,68184,1,14,0:0:0:0:
420,292,68265,1,2,0:0:0:0:
401,304,68346,1,2,0:0:0:0:
381,313,68427,1,2,0:0:0:0:
360,319,68508,2,0,P|324:319|296:303,1,45,6|2,0:0|0:0,0:0:0:0:
248,212,68670,2,0,B|240:192|240:192|240:176,2,30,2|2|2,0:0|0:0|0:0,0:0:0:0:
220,216,68832,2,0,P|180:220|112:152,1,135,12|0,0:0|2:0,0:0:0:0:
144,76,69157,53,6,0:0:0:0:
166,76,69238,1,2,0:0:0:0:
189,76,69319,1,2,0:0:0:0:
211,76,69400,1,2,0:0:0:0:
234,76,69481,1,14,0:0:0:0:
256,76,69562,1,2,0:0:0:0:
279,76,69643,1,2,0:0:0:0:
296,76,69967,5,2,0:0:0:0:
301,85,70048,1,2,0:0:0:0:
308,94,70130,1,14,0:0:0:0:
317,101,70211,1,2,0:0:0:0:
327,107,70292,1,2,0:0:0:0:
339,107,70616,5,2,0:0:0:0:
361,107,70697,1,2,0:0:0:0:
384,107,70778,1,14,0:0:0:0:
406,107,70859,1,2,0:0:0:0:
429,107,70940,1,2,0:0:0:0:
451,107,71021,1,2,0:0:0:0:
473,108,71102,2,0,L|501:68,1,45,6|2,0:0|0:0,0:0:0:0:
421,176,71265,2,0,L|473:176,1,45,2|2,0:0|0:0,0:0:0:0:
388,44,71427,2,0,B|352:36|352:36|324:48|324:48|292:36|240:48,1,135,14|0,0:0|2:0,0:0:0:0:
164,96,71751,53,6,0:0:0:0:
149,113,71832,1,2,0:0:0:0:
134,130,71913,1,2,0:0:0:0:
120,147,71994,1,2,0:0:0:0:
105,164,72075,1,14,0:0:0:0:
91,181,72157,1,2,0:0:0:0:
76,198,72238,1,2,0:0:0:0:
64,212,72562,5,2,0:0:0:0:
71,220,72643,1,2,0:0:0:0:
79,227,72724,1,14,0:0:0:0:
90,232,72805,1,2,0:0:0:0:
101,234,72886,1,2,0:0:0:0:
116,232,73211,5,2,0:0:0:0:
128,250,73292,1,2,0:0:0:0:
141,269,73373,1,14,0:0:0:0:
154,287,73454,1,2,0:0:0:0:
167,306,73535,1,2,0:0:0:0:
179,324,73616,1,2,0:0:0:0:
192,343,73697,1,6,0:0:0:0:
256,164,73859,1,6,0:0:0:0:
52,276,74021,53,8,0:0:0:0:
23,241,74102,1,8,0:0:0:0:
10,198,74184,1,2,0:0:0:0:
15,154,74265,1,2,0:0:0:0:
37,115,74346,5,6,0:0:0:0:
65,124,74427,1,2,0:0:0:0:
94,122,74508,1,2,0:0:0:0:
120,108,74589,1,2,0:0:0:0:
138,84,74670,1,14,0:0:0:0:
145,55,74751,1,2,0:0:0:0:
139,25,74832,1,2,0:0:0:0:
162,25,75157,5,2,0:0:0:0:
184,25,75238,1,2,0:0:0:0:
207,25,75319,1,14,0:0:0:0:
229,25,75400,1,2,0:0:0:0:
252,25,75481,1,2,0:0:0:0:
272,25,75805,53,2,0:0:0:0:
266,54,75886,1,2,0:0:0:0:
272,83,75967,1,14,0:0:0:0:
290,107,76048,1,2,0:0:0:0:
316,121,76130,1,2,0:0:0:0:
346,124,76211,1,2,0:0:0:0:
374,114,76292,2,0,P|395:92|403:72,1,45,6|2,0:0|0:0,0:0:0:0:
327,188,76454,2,0,P|327:218|336:238,1,45,2|2,0:0|0:0,0:0:0:0:
247,107,76616,2,0,B|211:99|211:99|183:111|183:111|151:99|99:111,1,135,14|0,0:0|2:0,0:0:0:0:
76,168,76940,5,6,0:0:0:0:
71,197,77021,1,2,0:0:0:0:
66,227,77102,1,2,0:0:0:0:
62,256,77184,1,2,0:0:0:0:
57,286,77265,1,14,0:0:0:0:
53,316,77346,1,2,0:0:0:0:
48,345,77427,1,2,0:0:0:0:
76,336,77751,5,2,0:0:0:0:
96,348,77832,1,2,0:0:0:0:
117,354,77913,1,14,0:0:0:0:
140,354,77994,1,2,0:0:0:0:
162,348,78075,1,2,0:0:0:0:
176,340,78400,53,2,0:0:0:0:
201,323,78481,1,2,0:0:0:0:
226,307,78562,1,14,0:0:0:0:
251,291,78643,1,2,0:0:0:0:
277,275,78724,1,2,0:0:0:0:
302,259,78805,1,2,0:0:0:0:
327,242,78886,2,0,B|339:226|339:226|346:197,1,45,6|2,0:0|0:0,0:0:0:0:
312,116,79048,2,0,L|324:80,2,30,2|2|2,0:0|0:0|0:0,0:0:0:0:
256,112,79211,2,0,P|216:108|176:24,1,135,12|0,0:0|2:0,0:0:0:0:
248,40,79535,5,6,0:0:0:0:
228,62,79616,1,2,0:0:0:0:
208,84,79697,1,2,0:0:0:0:
188,107,79778,1,2,0:0:0:0:
168,129,79859,1,14,0:0:0:0:
148,152,79940,1,2,0:0:0:0:
128,174,80021,1,2,0:0:0:0:
112,192,80346,5,2,0:0:0:0:
129,207,80427,1,2,0:0:0:0:
149,217,80508,1,14,0:0:0:0:
171,220,80589,1,2,0:0:0:0:
193,216,80670,1,2,0:0:0:0:
212,208,80994,53,2,0:0:0:0:
193,231,81075,1,2,0:0:0:0:
175,255,81157,1,14,0:0:0:0:
157,279,81238,1,2,0:0:0:0:
139,303,81319,1,2,0:0:0:0:
120,327,81400,1,2,0:0:0:0:
102,350,81481,2,0,P|74:358|54:358,1,45,6|2,0:0|0:0,0:0:0:0:
28,224,81643,2,0,P|20:208|16:188,2,30,2|2|2,0:0|0:0|0:0,0:0:0:0:
80,188,81805,2,0,B|112:188|112:188|163:207|163:207|212:208,1,135,12|0,0:0|2:0,0:0:0:0:
272,284,82130,5,6,0:0:0:0:
283,264,82211,1,2,0:0:0:0:
290,243,82292,1,2,0:0:0:0:
292,220,82373,1,2,0:0:0:0:
290,198,82454,1,14,0:0:0:0:
283,177,82535,1,2,0:0:0:0:
272,160,82616,6,0,P|328:140|340:48,1,135,2|0,0:0|2:0,0:0:0:0:
284,92,82940,2,0,L|392:184,1,135,2|2,3:0|3:0,0:0:0:0:
451,238,83265,54,0,B|403:267|403:267|370:258|370:258|338:278|275:262,1,180,2|2,3:0|0:0,0:0:0:0:
216,240,83670,1,2,0:0:0:0:
200,224,83751,2,0,B|184:188|184:188|184:152,2,60,14|2|2,0:0|0:0|0:0,0:0:0:0:
184,312,84075,2,0,B|152:335|152:335|116:348,2,60,2|2|2,0:0|0:0|0:0,0:0:0:0:
264,308,84400,2,0,B|303:312|303:312|336:328,2,60,2|2|2,0:0|0:0|0:0,0:0:0:0:
140,252,84724,6,0,B|124:232|124:232|124:208|124:208|108:184|116:152,1,90,6|0,0:0|0:0,0:0:0:0:
184,312,85048,1,2,0:0:0:0:
184,160,85211,1,2,0:0:0:0:
336,160,85373,1,2,0:0:0:0:
340,312,85535,1,2,0:0:0:0:
260,180,85697,1,2,0:0:0:0:
412,180,85859,1,2,0:0:0:0:
184,312,86021,6,0,P|132:324|84:304,1,90,6|2,0:0|0:0,0:0:0:0:
296,244,86346,2,0,P|348:232|396:252,1,90,12|2,0:0|0:0,0:0:0:0:
432,300,86589,1,2,0:0:0:0:
432,300,86670,1,10,0:0:0:0:
412,180,86832,1,10,0:0:0:0:
468,76,86994,1,2,0:0:0:0:
445,76,87075,1,2,0:0:0:0:
423,76,87157,1,2,0:0:0:0:
400,76,87238,1,2,0:0:0:0:
378,76,87319,53,10,0:0:0:0:
364,92,87400,1,2,0:0:0:0:
344,104,87481,2,0,P|308:108|280:88,1,45,2|2,0:0|0:0,0:0:0:0:
208,40,87643,1,2,0:0:0:0:
208,40,87724,1,2,0:0:0:0:
208,40,87805,2,0,L|184:88,1,45,8|2,0:0|0:0,0:0:0:0:
232,184,87967,6,0,P|256:200|276:204,1,45,8|2,0:0|0:0,0:0:0:0:
160,152,88130,2,0,P|152:184|156:204,1,45,2|2,0:0|0:0,0:0:0:0:
168,312,88292,1,2,0:0:0:0:
211,323,88373,1,2,0:0:0:0:
255,318,88454,1,2,0:0:0:0:
294,296,88535,1,2,0:0:0:0:
322,261,88616,6,0,L|320:204,1,45,8|2,0:0|0:0,0:0:0:0:
232,184,88778,2,0,L|220:128,1,45,2|2,0:0|0:0,0:0:0:0:
116,242,88940,1,2,0:0:0:0:
120,264,89021,1,2,0:0:0:0:
132,285,89102,2,0,P|152:305|172:313,1,45,8|2,0:0|0:0,0:0:0:0:
400,272,89265,53,2,0:0:0:0:
415,229,89346,1,2,0:0:0:0:
431,187,89427,1,2,0:0:0:0:
447,145,89508,1,2,0:0:0:0:
462,103,89589,2,0,P|388:108|336:44,1,135,12|0,0:0|2:0,0:0:0:0:
416,40,89913,6,0,L|388:128,1,90,6|2,0:0|0:0,0:0:0:0:
415,229,90238,1,14,0:0:0:0:
268,124,90400,2,0,L|168:124,1,90,2|6,0:0|3:0,0:0:0:0:
84,176,90724,1,2,0:0:0:0:
232,276,90886,2,0,L|336:276,1,90,12|0,0:0|0:0,0:0:0:0:
160,24,91211,6,0,P|112:40|84:80,1,90,6|2,0:0|0:0,0:0:0:0:
84,176,91535,1,12,0:0:0:0:
268,124,91697,2,0,P|284:88|280:32,1,90,2|6,0:0|0:0,0:0:0:0:
160,24,92021,1,2,0:0:0:0:
252,200,92184,2,0,B|284:212|284:212|312:204|312:204|352:220|384:204,1,135,14|0,0:0|2:0,0:0:0:0:
444,140,92508,53,6,0:0:0:0:
360,72,92670,1,10,0:0:0:0:
268,124,92832,1,8,0:0:0:0:
184,60,92994,1,10,0:0:0:0:
100,128,93157,1,8,0:0:0:0:
184,192,93319,1,10,0:0:0:0:
268,124,93481,1,8,0:0:0:0:
352,192,93643,1,8,0:0:0:0:
268,260,93805,5,10,0:0:0:0:
268,260,93886,1,2,0:0:0:0:
268,260,93967,2,0,L|248:312,1,45,2|2,0:0|0:0,0:0:0:0:
356,312,94130,1,10,0:0:0:0:
356,312,94211,1,2,0:0:0:0:
356,312,94292,2,0,L|376:360,1,45,2|2,0:0|0:0,0:0:0:0:
434,254,94454,5,10,0:0:0:0:
448,227,94535,1,2,0:0:0:0:
454,198,94616,1,2,0:0:0:0:
453,168,94697,1,2,0:0:0:0:
444,140,94778,1,10,0:0:0:0:
428,115,94859,1,2,0:0:0:0:
406,95,94940,54,0,B|360:60|360:60|324:72|324:72|272:48|208:72,1,198.000006042481,6|2,0:0|0:0,0:0:0:0:
172,120,95346,1,2,0:0:0:0:
172,120,95427,1,14,0:0:0:0:
352,192,95589,1,2,0:0:0:0:
352,192,95670,1,2,0:0:0:0:
352,192,95751,2,0,L|352:300,1,99.0000030212403,6|2,0:0|0:0,0:0:0:0:
284,192,95994,1,2,0:0:0:0:
284,192,96075,2,0,P|316:136|356:124,1,99.0000030212403,14|2,0:0|0:0,0:0:0:0:
284,260,96319,1,2,0:0:0:0:
284,260,96400,6,0,L|176:260,1,99.0000030212403,6|2,0:0|0:0,0:0:0:0:
352,260,96643,1,2,0:0:0:0:
352,260,96724,2,0,L|460:260,1,99.0000030212403,14|2,0:0|0:0,0:0:0:0:
472,332,96967,1,2,0:0:0:0:
472,332,97048,1,6,0:0:0:0:
352,192,97211,1,6,0:0:0:0:
464,160,97373,1,8,0:0:0:0:
280,328,97535,6,0,B|244:340|244:340|208:324|208:324|148:356|80:328,1,198.000006042481,6|2,0:0|0:0,0:0:0:0:
44,276,97940,1,2,0:0:0:0:
44,276,98021,1,14,0:0:0:0:
284,256,98184,1,2,0:0:0:0:
284,256,98265,1,2,0:0:0:0:
284,256,98346,2,0,P|232:232|224:168,1,99.0000030212403,6|2,0:0|0:0,0:0:0:0:
248,128,98589,1,2,0:0:0:0:
248,128,98670,2,0,L|140:128,1,99.0000030212403,14|2,0:0|0:0,0:0:0:0:
300,176,98913,1,2,0:0:0:0:
300,176,98994,54,0,P|316:124|296:72,1,99.0000030212403,6|2,0:0|0:0,0:0:0:0:
240,56,99238,1,2,0:0:0:0:
240,56,99319,1,14,0:0:0:0:
360,232,99481,1,2,0:0:0:0:
360,232,99562,1,2,0:0:0:0:
360,232,99643,1,6,0:0:0:0:
184,100,99805,1,6,0:0:0:0:
303,82,99967,1,8,0:0:0:0:
152,280,100130,6,0,B|104:288|104:288|20:248|80:144,1,198.000006042481,6|2,0:0|0:0,0:0:0:0:
108,100,100535,1,2,0:0:0:0:
108,100,100616,1,14,0:0:0:0:
224,280,100778,1,2,0:0:0:0:
224,280,100859,1,2,0:0:0:0:
224,280,100940,2,0,P|196:336|156:352,1,99.0000030212403,6|2,0:0|0:0,0:0:0:0:
224,208,101184,1,2,0:0:0:0:
224,208,101265,2,0,L|280:184,1,49.5000015106202,10|0,0:0|0:0,0:0:0:0:
108,100,101427,6,0,B|60:192|148:192|88:304,1,198.000006042481,6|2,0:0|0:0,0:0:0:0:
52,344,101832,1,2,0:0:0:0:
52,344,101913,1,14,0:0:0:0:
224,140,102075,1,2,0:0:0:0:
224,140,102157,1,2,0:0:0:0:
224,140,102238,1,6,0:0:0:0:
144,340,102400,1,6,0:0:0:0:
284,176,102562,1,8,0:0:0:0:
212,332,102724,54,0,B|216:364|216:364|300:320|384:356,1,198.000006042481,6|2,0:0|0:0,0:0:0:0:
444,360,103130,1,2,0:0:0:0:
444,360,103211,1,14,0:0:0:0:
224,208,103373,1,2,0:0:0:0:
224,208,103454,1,2,0:0:0:0:
224,208,103535,2,0,P|172:184|160:128,1,99.0000030212403,6|2,0:0|0:0,0:0:0:0:
284,108,103778,1,2,0:0:0:0:
284,108,103859,1,14,0:0:0:0:
212,332,104021,5,2,0:0:0:0:
212,332,104102,1,2,0:0:0:0:
212,332,104184,2,0,L|152:352,1,49.5000015106202,10|2,0:0|0:0,0:0:0:0:
128,260,104346,1,8,0:0:0:0:
128,260,104427,1,8,0:0:0:0:
128,260,104508,2,0,L|64:240,1,49.5000015106202,2|2,0:0|0:0,0:0:0:0:
56,152,104670,1,8,0:0:0:0:
56,140,104751,1,8,0:0:0:0:
56,128,104832,5,10,0:0:0:0:
94,140,104913,1,2,0:0:0:0:
135,139,104994,1,2,0:0:0:0:
174,124,105075,1,2,0:0:0:0:
204,96,105157,1,2,0:0:0:0:
223,60,105238,1,2,0:0:0:0:
229,19,105319,54,0,B|176:20|176:20|88:52|88:52|36:52,1,198.000006042481,6|6,0:0|0:0,0:0:0:0:
36,52,105724,1,2,0:0:0:0:
36,52,105805,1,10,0:0:0:0:
284,108,105967,1,6,0:0:0:0:
288,120,106048,1,2,0:0:0:0:
292,132,106130,2,0,B|320:132|320:132|368:144|368:144|396:144,1,99.0000030212403,2|6,0:0|0:0,0:0:0:0:
472,176,106373,1,2,0:0:0:0:
480,184,106454,1,10,0:0:0:0:
344,296,106616,5,6,0:0:0:0:
340,304,106697,1,2,0:0:0:0:
336,312,106778,2,0,B|300:320|300:320|268:312|268:312|232:320|200:300,1,99.0000030212403,2|6,0:0|0:0,0:0:0:0:
164,328,107021,1,2,0:0:0:0:
156,336,107102,1,10,0:0:0:0:
212,168,107265,1,2,0:0:0:0:
212,168,107346,1,2,0:0:0:0:
212,168,107427,5,6,0:0:0:0:
171,193,107508,1,2,0:0:0:0:
167,240,107589,1,2,0:0:0:0:
204,271,107670,1,2,0:0:0:0:
250,261,107751,1,8,0:0:0:0:
208,48,107913,54,0,B|128:24|100:120|100:120|40:52,1,198.000006042481,6|6,0:0|0:0,0:0:0:0:
67,83,108319,1,2,0:0:0:0:
67,83,108400,1,10,0:0:0:0:
177,109,108562,1,6,0:0:0:0:
177,109,108643,1,2,0:0:0:0:
177,109,108724,2,0,L|289:109,1,99.0000030212403,2|6,0:0|0:0,0:0:0:0:
352,60,108967,1,2,0:0:0:0:
352,60,109048,2,0,L|352:164,1,99.0000030212403,10|6,0:0|0:0,0:0:0:0:
392,240,109292,1,2,0:0:0:0:
392,240,109373,6,0,B|364:252|364:252|340:248|340:248|296:264|276:244,1,99.0000030212403,2|6,0:0|0:0,0:0:0:0:
236,184,109616,1,2,0:0:0:0:
212,168,109697,1,12,0:0:0:0:
436,176,109859,1,2,0:0:0:0:
436,176,109940,1,2,0:0:0:0:
436,176,110021,1,8,0:0:0:0:
184,236,110184,1,4,0:0:0:0:
416,104,110346,1,8,0:0:0:0:
228,296,110508,6,0,B|168:328|124:280|124:280|28:280,1,198.000006042481,6|2,0:0|0:0,0:0:0:0:
28,208,110913,1,2,0:0:0:0:
28,208,110994,1,14,0:0:0:0:
256,228,111157,1,2,0:0:0:0:
256,228,111238,1,2,0:0:0:0:
256,228,111319,1,6,0:0:0:0:
41,280,111481,1,6,0:0:0:0:
52,72,111643,1,8,0:0:0:0:
228,296,111805,54,0,P|276:296|296:168,1,198.000006042481,6|2,0:0|0:0,0:0:0:0:
212,164,112211,1,2,0:0:0:0:
212,164,112292,1,14,0:0:0:0:
376,332,112454,1,2,0:0:0:0:
376,332,112535,1,2,0:0:0:0:
376,332,112616,1,6,0:0:0:0:
184,236,112778,1,6,0:0:0:0:
303,174,112940,1,8,0:0:0:0:
156,304,113102,6,0,B|112:288|112:288|96:244|96:244|48:208|56:140,1,198.000006042481,6|2,0:0|0:0,0:0:0:0:
52,72,113508,1,2,0:0:0:0:
52,72,113589,1,14,0:0:0:0:
228,296,113751,1,2,0:0:0:0:
236,312,113832,1,2,0:0:0:0:
244,328,113913,1,6,0:0:0:0:
176,68,114075,1,2,0:0:0:0:
176,68,114157,1,2,0:0:0:0:
176,68,114238,2,0,P|200:56|224:56,1,49.5000015106202,12|0,0:0|0:0,0:0:0:0:
360,112,114400,1,8,0:0:0:0:
368,120,114481,1,8,0:0:0:0:
376,128,114562,5,2,0:0:0:0:
343,145,114643,1,2,0:0:0:0:
324,177,114724,1,2,0:0:0:0:
324,213,114805,1,2,0:0:0:0:
341,245,114886,53,2,0:0:0:0:
299,221,114967,1,2,0:0:0:0:
250,215,115048,1,2,0:0:0:0:
203,230,115130,1,2,0:0:0:0:
166,262,115211,5,2,0:0:0:0:
165,205,115292,1,2,0:0:0:0:
182,150,115373,1,2,0:0:0:0:
215,102,115454,1,2,0:0:0:0:
260,67,115535,1,2,0:0:0:0:
314,48,115616,1,2,0:0:0:0:
372,46,115697,6,0,B|428:60|428:60|428:116|476:148|476:148|456:212,1,215.999993408203,6|2,0:0|0:0,0:0:0:0:
428,320,116102,1,2,0:0:0:0:
428,320,116184,1,6,0:0:0:0:
215,102,116346,2,0,L|212:44,2,45,2|2|14,0:0|0:0|0:0,0:0:0:0:
48,356,116670,1,2,0:0:0:0:
48,356,116751,1,2,0:0:0:0:
48,356,116832,1,6,0:0:0:0:
384,309,116994,54,0,L|432:321,2,45,2|2|6,0:0|0:0|0:0,0:0:0:0:
240,20,117319,1,2,0:0:0:0:
240,20,117400,1,2,0:0:0:0:
240,20,117481,1,6,0:0:0:0:
24,232,117643,5,2,0:0:0:0:
24,232,117724,1,2,0:0:0:0:
24,232,117805,1,14,0:0:0:0:
328,216,117967,1,6,0:0:0:0:
76,40,118130,1,6,0:0:0:0:
172,328,118292,6,0,B|220:328|220:328|292:304|292:304|356:304,1,180,6|2,0:0|0:0,0:0:0:0:
424,304,118697,1,2,0:0:0:0:
424,304,118778,1,6,0:0:0:0:
240,104,118940,2,0,L|240:56,2,45,2|2|14,0:0|0:0|0:0,0:0:0:0:
100,336,119265,1,2,0:0:0:0:
100,336,119346,1,2,0:0:0:0:
100,336,119427,1,6,0:0:0:0:
372,176,119589,53,2,0:0:0:0:
372,176,119670,1,2,0:0:0:0:
372,176,119751,2,0,B|344:184|344:184|316:180|316:180|284:192|252:184,1,90,6|2,0:0|0:0,0:0:0:0:
192,184,119994,1,2,0:0:0:0:
192,184,120075,1,6,0:0:0:0:
320,112,120238,1,2,0:0:0:0:
324,104,120319,1,2,0:0:0:0:
328,96,120400,5,8,0:0:0:0:
285,112,120481,1,8,0:0:0:0:
240,104,120562,1,8,0:0:0:0:
208,72,120643,1,8,0:0:0:0:
204,32,120724,2,0,P|216:18|244:10,1,45,10|2,0:0|0:0,0:0:0:0:
284,186,120886,6,0,P|240:256|132:268,1,180,6|2,0:0|0:0,0:0:0:0:
96,196,121292,1,2,0:0:0:0:
96,196,121373,1,14,0:0:0:0:
372,176,121535,1,2,0:0:0:0:
372,176,121616,1,2,0:0:0:0:
372,176,121697,2,0,P|376:232|368:284,1,90,6|2,0:0|0:0,0:0:0:0:
320,112,121940,1,2,0:0:0:0:
320,112,122021,2,0,P|360:104|428:104,1,90,6|2,0:0|0:0,0:0:0:0:
284,186,122265,1,2,0:0:0:0:
284,186,122346,54,0,P|244:194|176:194,1,90,6|2,0:0|0:0,0:0:0:0:
144,120,122589,1,2,0:0:0:0:
144,120,122670,1,14,0:0:0:0:
336,252,122832,1,2,0:0:0:0:
336,252,122913,1,2,0:0:0:0:
336,252,122994,1,6,0:0:0:0:
236,120,123157,1,4,0:0:0:0:
400,104,123319,1,8,0:0:0:0:
256,264,123481,6,0,B|172:300|172:224|76:268,1,180,6|2,0:0|0:0,0:0:0:0:
36,316,123886,1,2,0:0:0:0:
36,316,123967,2,0,L|32:216,1,90,12|2,0:0|0:0,0:0:0:0:
68,168,124211,1,2,0:0:0:0:
68,168,124292,1,6,0:0:0:0:
304,320,124454,1,6,0:0:0:0:
304,320,124535,1,6,0:0:0:0:
304,320,124616,1,8,0:0:0:0:
144,120,124778,6,0,B|128:72|128:72|156:20|220:32|220:32|256:48,1,180,6|2,0:0|0:0,0:0:0:0:
304,84,125184,1,2,0:0:0:0:
304,84,125265,1,14,0:0:0:0:
148,204,125427,1,2,0:0:0:0:
148,204,125508,1,2,0:0:0:0:
148,204,125589,1,10,0:0:0:0:
352,156,125751,1,2,0:0:0:0:
144,120,125913,1,10,0:0:0:0:
304,320,126075,53,6,0:0:0:0:
256,192,126157,12,0,127373,2:0:0:0:
224,240,127535,5,10,0:0:0:0:
224,240,127616,1,2,0:0:0:0:
224,240,127697,2,0,L|200:184,1,45,2|2,0:0|0:0,0:0:0:0:
256,120,127859,1,2,0:0:0:0:
283,101,127940,1,2,0:0:0:0:
316,92,128021,1,2,0:0:0:0:
349,93,128102,1,2,0:0:0:0:
381,105,128184,5,2,0:0:0:0:
356,142,128265,1,2,0:0:0:0:
353,186,128346,1,2,0:0:0:0:
371,227,128427,1,2,0:0:0:0:
406,255,128508,1,12,0:0:0:0:
448,260,128832,53,6,0:0:0:0:
439,280,128913,1,2,0:0:0:0:
426,299,128994,1,2,0:0:0:0:
409,313,129075,1,2,0:0:0:0:
388,322,129157,1,14,0:0:0:0:
366,325,129238,1,2,0:0:0:0:
344,322,129319,1,2,0:0:0:0:
328,312,129643,5,2,0:0:0:0:
316,321,129724,1,2,0:0:0:0:
304,330,129805,1,14,0:0:0:0:
292,339,129886,1,2,0:0:0:0:
280,348,129967,1,2,0:0:0:0:
268,356,130292,5,2,0:0:0:0:
245,360,130373,1,2,0:0:0:0:
223,358,130454,1,14,0:0:0:0:
202,352,130535,1,2,0:0:0:0:
182,340,130616,1,2,0:0:0:0:
236,272,130778,1,6,0:0:0:0:
116,272,130940,2,0,P|112:288|112:308,2,30,2|2|2,0:0|0:0|0:0,0:0:0:0:
96,244,131102,2,0,P|68:200|112:112,1,135,14|0,0:0|2:0,0:0:0:0:
176,112,131427,5,6,0:0:0:0:
198,112,131508,1,2,0:0:0:0:
221,112,131589,1,2,0:0:0:0:
243,112,131670,1,2,0:0:0:0:
266,112,131751,1,14,0:0:0:0:
288,112,131832,1,2,0:0:0:0:
311,112,131913,1,2,0:0:0:0:
328,112,132238,5,2,0:0:0:0:
329,126,132319,1,2,0:0:0:0:
335,140,132400,1,14,0:0:0:0:
343,153,132481,1,2,0:0:0:0:
354,163,132562,1,2,0:0:0:0:
364,168,132886,53,2,0:0:0:0:
350,186,132967,1,2,0:0:0:0:
337,204,133048,1,14,0:0:0:0:
324,222,133130,1,2,0:0:0:0:
310,240,133211,1,2,0:0:0:0:
297,258,133292,1,2,0:0:0:0:
283,276,133373,2,0,P|251:284|223:276,1,45,6|0,0:0|0:0,0:0:0:0:
128,168,133535,2,0,P|120:144|124:124,2,30,2|2|2,0:0|0:0|0:0,0:0:0:0:
92,168,133697,2,0,L|48:296,1,135,12|0,0:0|2:0,0:0:0:0:
112,340,134021,5,6,0:0:0:0:
131,350,134102,1,2,0:0:0:0:
153,357,134184,1,2,0:0:0:0:
175,359,134265,1,2,0:0:0:0:
198,358,134346,1,14,0:0:0:0:
219,353,134427,1,2,0:0:0:0:
240,343,134508,1,2,0:0:0:0:
252,332,134832,5,2,0:0:0:0:
267,332,134913,1,2,0:0:0:0:
282,332,134994,1,14,0:0:0:0:
297,332,135075,1,2,0:0:0:0:
312,332,135157,1,2,0:0:0:0:
328,332,135481,53,2,0:0:0:0:
340,312,135562,1,2,0:0:0:0:
344,290,135643,1,14,0:0:0:0:
342,268,135724,1,2,0:0:0:0:
333,247,135805,1,2,0:0:0:0:
408,344,135967,1,6,0:0:0:0:
200,280,136130,2,0,P|176:272|168:264,2,30,2|2|2,0:0|0:0|0:0,0:0:0:0:
204,228,136292,2,0,B|248:176|248:176|320:152,1,135,14|0,0:0|0:0,0:0:0:0:
360,208,136616,5,6,0:0:0:0:
371,188,136697,1,2,0:0:0:0:
383,169,136778,1,2,0:0:0:0:
394,150,136859,1,2,0:0:0:0:
406,130,136940,1,14,0:0:0:0:
417,111,137021,1,2,0:0:0:0:
429,92,137102,1,2,0:0:0:0:
436,76,137427,53,2,0:0:0:0:
414,81,137508,1,2,0:0:0:0:
392,80,137589,1,14,0:0:0:0:
370,74,137670,1,2,0:0:0:0:
350,63,137751,1,2,0:0:0:0:
340,48,138075,5,2,0:0:0:0:
327,66,138157,1,2,0:0:0:0:
315,85,138238,1,14,0:0:0:0:
302,104,138319,1,2,0:0:0:0:
290,122,138400,1,2,0:0:0:0:
277,141,138481,1,2,0:0:0:0:
265,160,138562,1,6,0:0:0:0:
208,72,138724,1,2,0:0:0:0:
148,192,138886,1,2,0:0:0:0:
84,72,139048,1,2,0:0:0:0:
32,196,139211,5,6,0:0:0:0:
32,225,139292,1,2,0:0:0:0:
41,254,139373,1,2,0:0:0:0:
58,279,139454,1,2,0:0:0:0:
81,297,139535,1,14,0:0:0:0:
108,309,139616,1,2,0:0:0:0:
138,312,139697,1,2,0:0:0:0:
164,304,140021,53,2,0:0:0:0:
187,304,140102,1,2,0:0:0:0:
209,304,140184,1,14,0:0:0:0:
232,304,140265,1,2,0:0:0:0:
254,304,140346,1,2,0:0:0:0:
272,304,140670,5,2,0:0:0:0:
271,281,140751,1,2,0:0:0:0:
278,260,140832,1,14,0:0:0:0:
290,241,140913,1,2,0:0:0:0:
307,227,140994,1,2,0:0:0:0:
344,292,141157,1,6,0:0:0:0:
184,252,141319,2,0,P|176:276|176:288,2,30,2|2|2,0:0|0:0|0:0,0:0:0:0:
164,220,141481,2,0,P|188:168|272:132,1,135,12|0,0:0|2:0,0:0:0:0:
332,176,141805,53,6,0:0:0:0:
351,152,141886,1,2,0:0:0:0:
370,129,141967,1,2,0:0:0:0:
389,106,142048,1,2,0:0:0:0:
408,83,142130,1,14,0:0:0:0:
428,60,142211,1,2,0:0:0:0:
447,37,142292,1,2,0:0:0:0:
464,16,142616,5,2,0:0:0:0:
443,24,142697,1,2,0:0:0:0:
421,27,142778,1,14,0:0:0:0:
398,23,142859,1,2,0:0:0:0:
378,14,142940,1,2,0:0:0:0:
360,0,143265,5,2,0:0:0:0:
339,21,143346,1,2,0:0:0:0:
318,43,143427,1,14,0:0:0:0:
298,65,143508,1,2,0:0:0:0:
277,87,143589,1,2,0:0:0:0:
257,109,143670,1,2,0:0:0:0:
236,131,143751,2,0,P|211:133|183:125,1,45,6|0,0:0|0:0,0:0:0:0:
92,72,143913,2,0,P|80:52|80:28,2,30,2|2|2,0:0|0:0|0:0,0:0:0:0:
56,80,144076,2,0,L|24:216,1,135,12|0,0:0|2:0,0:0:0:0:
64,300,144400,53,6,0:0:0:0:
88,316,144481,1,2,0:0:0:0:
116,327,144562,1,2,0:0:0:0:
146,332,144643,1,2,0:0:0:0:
176,329,144724,1,14,0:0:0:0:
204,321,144805,1,2,0:0:0:0:
230,306,144886,1,2,0:0:0:0:
248,284,145211,5,2,0:0:0:0:
271,284,145292,1,2,0:0:0:0:
293,285,145373,1,14,0:0:0:0:
316,285,145454,1,2,0:0:0:0:
338,285,145535,1,2,0:0:0:0:
356,284,145859,5,2,0:0:0:0:
340,268,145940,1,2,0:0:0:0:
328,248,146021,2,0,P|320:224|320:200,1,45,12|0,0:0|0:0,0:0:0:0:
328,84,146184,1,2,0:0:0:0:
304,84,146265,1,2,0:0:0:0:
280,84,146346,1,6,0:0:0:0:
384,196,146508,1,2,0:0:0:0:
400,212,146589,1,2,0:0:0:0:
416,228,146670,1,12,0:0:0:0:
196,184,146832,2,0,P|176:176|148:152,1,45,2|2,0:0|0:0,0:0:0:0:
288,188,146994,53,10,0:0:0:0:
180,264,147157,2,0,L|164:296,3,30,8|8|8|8,0:0|0:0|0:0|0:0,0:0:0:0:
432,112,147481,1,6,0:0:0:0:
120,204,147805,1,6,0:0:0:0:
472,176,148130,6,0,P|488:232|404:308,1,180,6|2,0:0|0:0,0:0:0:0:
320,296,148535,1,2,0:0:0:0:
320,296,148616,2,0,B|296:316|296:316|280:348,2,60,10|8|8,0:0|0:0|0:0,0:0:0:0:
372,228,148940,2,0,B|376:200|376:200|392:172,2,60,2|2|2,0:0|0:0|0:0,0:0:0:0:
408,307,149265,2,0,B|423:334|423:334|446:351,2,60,2|2|2,0:0|0:0|0:0,0:0:0:0:
284,216,149589,6,0,P|242:204|186:220,1,90,6|2,0:0|0:0,0:0:0:0:
320,296,149913,1,2,0:0:0:0:
372,228,150075,1,2,0:0:0:0:
336,144,150238,1,2,0:0:0:0:
424,152,150400,2,0,L|456:156,1,22.5,2|2,0:0|0:0,0:0:0:0:
388,68,150562,1,2,0:0:0:0:
300,60,150724,1,2,0:0:0:0:
372,228,150886,54,0,P|432:240|464:236,1,90,6|2,0:0|0:0,0:0:0:0:
248,140,151211,1,12,0:0:0:0:
320,296,151373,1,2,0:0:0:0:
320,296,151454,1,2,0:0:0:0:
320,296,151535,1,10,0:0:0:0:
236,244,151697,1,10,0:0:0:0:
144,284,151859,1,10,0:0:0:0:
64,240,152021,1,2,0:0:0:0:
68,228,152102,1,2,0:0:0:0:
72,216,152184,5,14,0:0:0:0:
65,186,152265,1,2,0:0:0:0:
66,156,152346,1,2,0:0:0:0:
75,128,152427,1,2,0:0:0:0:
91,103,152508,1,2,0:0:0:0:
113,82,152589,1,2,0:0:0:0:
136,40,152670,5,14,0:0:0:0:
161,58,152751,1,2,0:0:0:0:
189,71,152832,1,2,0:0:0:0:
220,76,152913,1,2,0:0:0:0:
252,73,152994,1,2,0:0:0:0:
282,63,153075,1,2,0:0:0:0:
308,44,153157,54,0,L|288:104,1,45,12|2,0:0|0:0,0:0:0:0:
176,188,153319,1,2,0:0:0:0:
176,188,153400,1,2,0:0:0:0:
176,188,153481,2,0,L|204:152,1,45,12|2,0:0|0:0,0:0:0:0:
356,212,153643,1,2,0:0:0:0:
356,212,153724,1,2,0:0:0:0:
356,212,153805,2,0,L|312:211,1,45,14|2,0:0|0:0,0:0:0:0:
300,68,153967,1,2,0:0:0:0:
304,56,154048,1,2,0:0:0:0:
308,44,154130,5,8,0:0:0:0:
331,81,154211,1,8,0:0:0:0:
371,100,154292,1,8,0:0:0:0:
415,96,154373,1,8,0:0:0:0:
451,69,154454,5,2,0:0:0:0:
440,113,154535,1,2,0:0:0:0:
430,156,154616,1,2,0:0:0:0:
420,200,154697,1,2,0:0:0:0:
410,244,154778,53,6,0:0:0:0:
268,136,154940,1,2,0:0:0:0:
268,136,155102,1,14,0:0:0:0:
325,278,155265,1,2,0:0:0:0:
184,168,155427,1,6,0:0:0:0:
184,168,155589,1,2,0:0:0:0:
240,320,155751,2,0,P|196:328|140:300,1,90,14|2,0:0|0:0,0:0:0:0:
232,64,156075,6,0,P|276:56|332:84,1,90,6|2,0:0|3:0,0:0:0:0:
336,184,156400,1,14,0:0:0:0:
420,200,156562,1,2,0:0:0:0:
364,264,156724,1,6,0:0:0:0:
448,280,156886,1,2,0:0:0:0:
208,224,157048,2,0,P|180:172|200:92,1,135,12|0,0:0|2:0,0:0:0:0:
292,92,157373,5,10,0:0:0:0:
292,92,157454,1,10,0:0:0:0:
292,92,157535,2,0,P|316:84|348:88,1,45,2|2,0:0|0:0,0:0:0:0:
336,184,157697,1,2,0:0:0:0:
336,184,157778,1,2,0:0:0:0:
336,184,157859,2,0,P|312:192|280:188,1,45,10|2,0:0|0:0,0:0:0:0:
112,128,158021,53,2,0:0:0:0:
87,104,158102,1,2,0:0:0:0:
72,74,158184,1,2,0:0:0:0:
68,41,158265,1,2,0:0:0:0:
75,8,158346,1,2,0:0:0:0:
53,34,158427,1,2,0:0:0:0:
39,64,158508,1,2,0:0:0:0:
34,97,158589,1,2,0:0:0:0:
38,131,158670,5,12,0:0:0:0:
384,112,158994,1,0,2:2:0:0:
48,216,159319,1,0,2:2:0:0:
144,48,159481,1,0,2:0:0:0:
144,48,159805,6,0,B|200:48|200:48|268:28|268:28|344:28,1,198.000006042481,6|2,0:0|0:0,0:0:0:0:
428,16,160211,1,2,0:0:0:0:
428,16,160292,1,14,0:0:0:0:
332,208,160454,1,2,0:0:0:0:
332,208,160535,1,2,0:0:0:0:
332,208,160616,2,0,L|224:208,1,99.0000030212403,6|2,0:0|0:0,0:0:0:0:
188,132,160859,1,2,0:0:0:0:
188,132,160940,1,14,0:0:0:0:
384,112,161102,53,2,0:0:0:0:
384,112,161184,1,2,0:0:0:0:
384,112,161265,2,0,P|424:152|436:224,1,99.0000030212403,6|2,0:0|0:0,0:0:0:0:
404,280,161508,1,2,0:0:0:0:
404,280,161589,2,0,L|508:280,1,99.0000030212403,14|2,0:0|0:0,0:0:0:0:
488,352,161832,1,2,0:0:0:0:
488,352,161913,1,6,0:0:0:0:
304,300,162075,1,6,0:0:0:0:
437,191,162238,1,8,0:0:0:0:
232,236,162400,6,0,B|184:244|184:244|152:228|152:228|92:240|44:196,1,198.000006042481,6|2,0:0|0:0,0:0:0:0:
80,136,162805,1,2,0:0:0:0:
80,136,162886,1,14,0:0:0:0:
297,133,163048,1,2,0:0:0:0:
297,133,163130,1,2,0:0:0:0:
297,133,163211,2,0,L|297:248,1,99.0000030212403,6|2,0:0|0:0,0:0:0:0:
228,128,163454,1,2,0:0:0:0:
228,128,163535,2,0,P|260:72|300:60,1,99.0000030212403,14|2,0:0|0:0,0:0:0:0:
232,236,163778,1,2,0:0:0:0:
232,236,163859,6,0,L|124:236,1,99.0000030212403,6|2,0:0|0:0,0:0:0:0:
304,300,164102,1,2,0:0:0:0:
304,300,164184,2,0,L|412:300,1,99.0000030212403,14|2,0:0|0:0,0:0:0:0:
485,372,164427,1,2,0:0:0:0:
485,372,164508,1,6,0:0:0:0:
365,232,164670,1,6,0:0:0:0:
477,200,164832,1,8,0:0:0:0:
293,368,164994,54,0,B|232:368|232:368|160:352|160:352|96:352,1,198.000006042481,6|2,0:0|0:0,0:0:0:0:
52,276,165400,1,2,0:0:0:0:
52,276,165481,1,14,0:0:0:0:
304,300,165643,1,2,0:0:0:0:
304,300,165724,1,2,0:0:0:0:
304,300,165805,2,0,P|252:276|244:212,1,99.0000030212403,6|2,0:0|0:0,0:0:0:0:
261,168,166048,1,2,0:0:0:0:
261,168,166130,2,0,L|208:168,1,49.5000015106202,8|0,0:0|0:0,0:0:0:0:
304,88,166292,6,0,B|340:72|340:72|376:88|376:88|440:60|504:112,1,198.000006042481,6|2,0:0|0:0,0:0:0:0:
424,152,166697,1,2,0:0:0:0:
424,152,166778,1,14,0:0:0:0:
220,88,166940,1,2,0:0:0:0:
220,88,167021,1,2,0:0:0:0:
220,88,167102,1,6,0:0:0:0:
424,228,167265,1,6,0:0:0:0:
264,16,167427,1,8,0:0:0:0:
312,232,167589,6,0,P|260:292|132:276,1,198.000006042481,6|2,0:0|0:0,0:0:0:0:
144,208,167994,1,2,0:0:0:0:
144,208,168075,1,14,0:0:0:0:
304,88,168238,1,2,0:0:0:0:
304,88,168319,1,2,0:0:0:0:
304,88,168400,2,0,B|352:88|352:88|408:68,1,99.0000030212403,6|2,0:0|0:0,0:0:0:0:
480,32,168643,1,2,0:0:0:0:
496,24,168724,1,12,0:0:0:0:
464,156,168886,1,2,0:0:0:0:
464,172,168967,1,2,0:0:0:0:
464,188,169048,54,0,P|452:220|432:236,1,49.5000015106202,8|8,0:0|0:0,0:0:0:0:
209,217,169211,1,8,0:0:0:0:
195,209,169292,1,8,0:0:0:0:
181,200,169373,2,0,P|159:173|155:148,1,49.5000015106202,10|2,0:0|0:0,0:0:0:0:
388,148,169535,1,8,0:0:0:0:
392,164,169616,1,8,0:0:0:0:
396,180,169697,5,10,0:0:0:0:
355,187,169778,1,2,0:0:0:0:
323,212,169859,1,2,0:0:0:0:
304,248,169940,1,2,0:0:0:0:
303,289,170021,1,2,0:0:0:0:
321,326,170102,1,2,0:0:0:0:
376,268,170184,6,0,B|232:280|232:280|172:308,1,198.000006042481,6|6,0:0|0:0,0:0:0:0:
116,360,170589,1,2,0:0:0:0:
116,360,170670,1,10,0:0:0:0:
264,132,170832,1,6,0:0:0:0:
264,132,170913,1,2,0:0:0:0:
264,132,170994,1,2,0:0:0:0:
84,288,171157,2,0,B|64:296|64:296|32:300,2,49.5000015106202,6|2|10,0:0|0:0|0:0,0:0:0:0:
376,268,171481,69,6,0:0:0:0:
376,268,171562,1,2,0:0:0:0:
376,268,171643,2,0,B|392:248|392:248|388:220|388:220|404:196|392:152,1,99.0000030212403,2|6,0:0|0:0,0:0:0:0:
360,64,171886,1,2,0:0:0:0:
360,64,171967,1,10,0:0:0:0:
172,136,172130,1,6,0:0:0:0:
168,140,172211,1,2,0:0:0:0:
164,144,172292,5,6,0:0:0:0:
158,168,172373,1,2,0:0:0:0:
158,192,172454,1,2,0:0:0:0:
163,217,172535,1,2,0:0:0:0:
173,239,172616,1,8,0:0:0:0:
232,76,172778,54,0,B|140:20|140:104|36:52,1,198.000006042481,6|6,0:0|0:0,0:0:0:0:
32,44,173184,1,2,0:0:0:0:
24,32,173265,1,10,0:0:0:0:
252,160,173427,1,6,0:0:0:0:
252,160,173508,1,2,0:0:0:0:
252,160,173589,2,0,P|300:132|316:84,1,99.0000030212403,2|6,0:0|0:0,0:0:0:0:
232,76,173832,1,2,0:0:0:0:
232,76,173913,1,10,0:0:0:0:
173,239,174075,5,6,0:0:0:0:
172,252,174157,1,2,0:0:0:0:
172,264,174238,2,0,B|196:316|196:316|248:352,1,99.0000030212403,2|6,0:0|0:0,0:0:0:0:
156,164,174481,1,2,0:0:0:0:
156,164,174562,2,0,B|96:164|96:164|56:184,1,99.0000030212403,14|2,0:0|0:0,0:0:0:0:
224,188,174805,1,2,0:0:0:0:
224,188,174886,1,10,0:0:0:0:
100,256,175048,1,6,0:0:0:0:
152,44,175211,1,2,0:0:0:0:
172,264,175373,54,0,B|224:296|240:344|240:344|272:308|328:308,1,198.000006042481,6|2,0:0|0:0,0:0:0:0:
408,316,175778,1,2,0:0:0:0:
408,316,175859,1,14,0:0:0:0:
208,112,176021,1,2,0:0:0:0:
208,112,176102,1,2,0:0:0:0:
208,112,176184,1,6,0:0:0:0:
128,320,176346,1,6,0:0:0:0:
56,172,176508,1,8,0:0:0:0:
256,192,176670,6,0,B|308:192|308:192|396:216|396:216|452:216,1,198.000006042481,6|2,0:0|0:0,0:0:0:0:
476,128,177075,1,2,0:0:0:0:
476,128,177157,1,14,0:0:0:0:
300,112,177319,1,2,0:0:0:0:
300,112,177400,1,2,0:0:0:0:
300,112,177481,1,6,0:0:0:0:
450,216,177643,1,6,0:0:0:0:
448,44,177805,1,8,0:0:0:0:
300,268,177967,70,0,B|212:304|212:224|108:272,1,198.000006042481,6|2,0:0|0:0,0:0:0:0:
44,336,178373,1,2,0:0:0:0:
44,336,178454,1,14,0:0:0:0:
72,140,178616,1,2,0:0:0:0:
72,140,178697,1,2,0:0:0:0:
72,140,178778,1,6,0:0:0:0:
220,272,178940,1,2,0:0:0:0:
220,272,179021,1,2,0:0:0:0:
220,272,179102,1,12,0:0:0:0:
244,76,179265,1,8,0:0:0:0:
248,64,179346,1,8,0:0:0:0:
252,52,179427,5,10,0:0:0:0:
274,80,179508,1,2,0:0:0:0:
307,98,179589,1,2,0:0:0:0:
343,101,179670,1,2,0:0:0:0:
378,88,179751,69,2,0:0:0:0:
356,132,179832,1,2,0:0:0:0:
353,181,179913,1,2,0:0:0:0:
369,227,179994,1,2,0:0:0:0:
403,263,180075,5,2,0:0:0:0:
350,295,180157,1,2,0:0:0:0:
289,301,180238,1,2,0:0:0:0:
231,280,180319,1,2,0:0:0:0:
188,236,180400,2,0,P|176:212|172:172,1,49.5000015106202,2|2,0:0|0:0,0:0:0:0:
328,24,180562,6,0,P|404:16|440:152,1,215.999993408203,6|2,0:0|0:0,0:0:0:0:
432,200,180967,1,2,0:0:0:0:
432,200,181048,1,6,0:0:0:0:
168,60,181211,2,0,L|136:24,2,45,2|2|14,0:0|0:0|0:0,0:0:0:0:
350,295,181535,1,2,0:0:0:0:
350,295,181616,1,2,0:0:0:0:
350,295,181697,1,6,0:0:0:0:
319,68,181859,54,0,L|327:24,2,45,2|2|6,0:0|0:0|0:0,0:0:0:0:
140,256,182184,1,2,0:0:0:0:
140,256,182265,1,2,0:0:0:0:
140,256,182346,1,6,0:0:0:0:
432,200,182508,1,2,0:0:0:0:
432,200,182589,1,2,0:0:0:0:
432,200,182670,1,14,0:0:0:0:
168,60,182832,1,6,0:0:0:0:
350,295,182994,1,6,0:0:0:0:
240,40,183157,6,0,P|160:16|88:72,1,180,6|2,0:0|0:0,0:0:0:0:
68,156,183562,1,2,0:0:0:0:
68,156,183643,1,6,0:0:0:0:
280,104,183805,1,2,0:0:0:0:
280,104,183886,1,2,0:0:0:0:
280,104,183967,1,14,0:0:0:0:
96,240,184130,2,0,P|80:272|80:292,2,45,2|2|6,0:0|0:0|0:0,0:0:0:0:
316,36,184454,5,2,0:0:0:0:
316,36,184535,1,2,0:0:0:0:
316,36,184616,2,0,B|344:48|344:48|368:48|368:48|392:68|416:68,1,90,6|2,0:0|0:0,0:0:0:0:
484,40,184859,1,2,0:0:0:0:
484,40,184940,1,6,0:0:0:0:
304,176,185102,1,2,0:0:0:0:
296,184,185184,1,2,0:0:0:0:
288,192,185265,53,8,0:0:0:0:
322,205,185346,1,8,0:0:0:0:
349,231,185427,1,8,0:0:0:0:
363,265,185508,1,8,0:0:0:0:
362,303,185589,1,8,0:0:0:0:
345,336,185670,1,8,0:0:0:0:
292,280,185751,6,0,B|412:248|412:248|468:256,1,180,6|2,0:0|0:0,0:0:0:0:
480,260,186157,1,2,0:0:0:0:
492,264,186238,1,14,0:0:0:0:
288,192,186400,1,2,0:0:0:0:
276,188,186481,1,2,0:0:0:0:
264,184,186562,2,0,B|228:160|228:160|200:112,1,90,6|2,0:0|0:0,0:0:0:0:
360,148,186805,1,2,0:0:0:0:
360,148,186886,2,0,B|400:180|400:180|428:228,1,90,14|2,0:0|0:0,0:0:0:0:
292,112,187130,1,2,0:0:0:0:
292,112,187211,6,0,B|316:72|316:72|368:48,1,90,6|2,0:0|0:0,0:0:0:0:
349,231,187454,1,2,0:0:0:0:
349,231,187535,2,0,B|320:272|320:272|268:300,1,90,14|2,0:0|0:0,0:0:0:0:
208,316,187778,1,2,0:0:0:0:
196,320,187859,1,6,0:0:0:0:
204,119,188021,1,2,0:0:0:0:
204,119,188102,1,2,0:0:0:0:
204,119,188184,1,10,0:0:0:0:
284,290,188346,54,0,P|336:314|436:228,1,180,6|0,0:0|0:0,0:0:0:0:
404,176,188751,1,2,0:0:0:0:
400,164,188832,1,14,0:0:0:0:
224,240,188994,1,2,0:0:0:0:
224,240,189075,1,2,0:0:0:0:
224,240,189157,1,6,0:0:0:0:
356,92,189319,1,6,0:0:0:0:
360,84,189400,1,2,0:0:0:0:
364,76,189481,1,10,0:0:0:0:
164,188,189643,6,0,P|128:140|192:36,1,180,6|2,0:0|0:0,0:0:0:0:
256,28,190048,1,2,0:0:0:0:
272,24,190130,1,14,0:0:0:0:
152,264,190292,1,2,0:0:0:0:
152,264,190373,1,2,0:0:0:0:
152,264,190454,1,10,0:0:0:0:
240,160,190616,1,8,0:0:0:0:
284,290,190778,1,8,0:0:0:0:
100,136,190940,5,6,0:0:0:0:
256,192,191021,12,0,192238,0:0:0:0:
284,290,192400,53,10,0:0:0:0:
284,71,192562,1,8,0:0:0:0:
155,248,192724,1,10,0:0:0:0:
363,180,192886,1,8,0:0:0:0:
155,113,193048,5,10,0:0:0:0:
284,290,193211,1,8,0:0:0:0:
284,71,193373,1,10,0:0:0:0:
155,248,193535,1,8,0:0:0:0:
363,180,193697,5,6,0:0:0:0:
363,180,193859,2,0,L|364:272,1,67.5000025749208,2|0,0:0|2:0,0:0:0:0:
155,113,194184,1,2,0:0:0:0:
155,113,194346,2,0,L|301:66,1,135.000005149842,14|0,0:0|2:0,0:0:0:0:
155,248,194832,53,2,0:0:0:0:
155,248,195157,1,2,0:0:0:0:
363,180,195319,1,2,0:0:0:0:
155,113,195481,1,2,0:0:0:0:
284,290,195643,1,14,0:0:0:0:
284,71,195805,2,0,B|312:48|312:48|364:48|400:96|400:96|444:84,1,168.750006437302,2|0,0:0|2:0,0:0:0:0:
492,56,196292,5,6,0:0:0:0:
492,56,196454,2,0,L|492:144,1,67.5000025749208,2|0,0:0|2:0,0:0:0:0:
284,290,196778,1,2,0:0:0:0:
284,290,196940,2,0,B|236:288|236:288|188:308|188:308|128:308,1,135.000005149842,14|0,0:0|2:0,0:0:0:0:
155,113,197427,5,2,0:0:0:0:
155,113,197751,1,2,0:0:0:0:
344,252,197913,2,0,P|352:304|332:340,1,67.5000025749208,2|0,0:0|0:0,0:0:0:0:
256,184,198238,1,14,0:0:0:0:
360,144,198400,1,2,0:0:0:0:
153,308,198562,1,8,0:0:0:0:
153,308,198886,53,6,0:0:0:0:
88,204,199048,2,0,L|56:124,1,67.5000025749208,2|0,0:0|2:0,0:0:0:0:
84,68,199373,1,2,0:0:0:0:
176,196,199535,2,0,B|220:260|220:260|220:344,1,135.000005149842,14|0,0:0|0:0,0:0:0:0:
256,184,200021,5,2,0:0:0:0:
260,172,200346,1,2,0:0:0:0:
88,204,200508,1,2,0:0:0:0:
216,88,200670,1,0,2:0:0:0:
96,216,200832,1,12,0:0:0:0:
84,68,200994,2,0,B|92:44|92:44|248:20,1,168.750006437302,6|0,0:0|2:0,0:0:0:0:
308,24,201481,5,6,0:0:0:0:
376,56,201643,2,0,L|384:144,1,67.5000025749208,2|0,0:0|2:0,0:0:0:0:
332,180,201967,1,2,0:0:0:0:
396,208,202130,2,0,B|408:280|408:280|408:352,1,135.000005149842,10|0,0:0|2:0,0:0:0:0:
456,164,202616,54,0,B|476:272|476:272|476:304,1,135.000005149842,2|8,0:0|0:0,0:0:0:0:
284,232,203102,2,0,B|248:224|248:224|216:208,1,67.5000025749208,6|2,0:0|0:0,0:0:0:0:
208,188,203346,1,8,0:0:0:0:
208,188,203427,1,8,0:0:0:0:
444,92,203589,1,10,0:0:0:0:
444,92,203751,1,10,0:0:0:0:
444,92,203913,1,10,0:0:0:0:
256,52,204075,5,6,0:0:0:0:
256,52,204238,2,0,L|224:124,1,67.5000025749208,2|0,0:0|2:0,0:0:0:0:
336,180,204562,1,2,0:0:0:0:
236,288,204724,2,0,B|212:296|212:296|180:284|180:284|140:296|104:284,1,135.000005149842,14|0,0:0|2:0,0:0:0:0:
284,232,205211,5,2,0:0:0:0:
284,232,205535,1,2,0:0:0:0:
180,172,205697,1,2,0:0:0:0:
288,112,205859,1,2,0:0:0:0:
236,288,206021,1,8,0:0:0:0:
108,204,206184,2,0,B|116:176|116:176|108:144|108:144|144:84|216:104,1,168.750006437302,2|0,0:0|2:0,0:0:0:0:
288,112,206670,53,6,0:0:0:0:
352,152,206832,2,0,L|360:224,1,67.5000025749208,2|0,0:0|2:0,0:0:0:0:
352,76,207157,1,2,0:0:0:0:
288,40,207319,2,0,B|256:24|256:24|244:36|248:56|248:56|192:20|132:64,1,168.750006437302,10|0,0:0|2:0,0:0:0:0:
196,116,207805,5,2,0:0:0:0:
196,116,208130,1,8,0:0:0:0:
352,76,208292,1,0,2:0:0:0:
236,184,208454,1,2,0:0:0:0:
288,40,208616,1,12,0:0:0:0:
304,213,208778,1,2,0:0:0:0:
208,36,208940,1,8,0:0:0:0:
208,36,209102,1,8,0:0:0:0:
376,196,209265,5,6,0:0:0:0:
236,184,209427,2,0,L|112:184,1,85.4999977169037,2|0,0:0|2:0,0:0:0:0:
288,40,209751,1,2,0:0:0:0:
304,213,209913,2,0,B|292:252|292:252|248:268|248:268|212:332|136:320,1,213.749994292259,10|0,0:0|2:0,0:0:0:0:
168,244,210400,53,2,0:0:0:0:
168,244,210724,1,2,0:0:0:0:
124,124,210886,1,2,0:0:0:0:
52,192,211048,1,2,0:0:0:0:
236,184,211211,1,12,0:0:0:0:
124,52,211373,1,2,0:0:0:0:
240,192,211535,1,12,0:0:0:0:
128,40,211697,2,0,L|124:8,3,28.4999992389679,2|2|2|2,0:0|0:0|0:0|0:0,0:0:0:0:
168,244,212021,6,0,P|220:300|328:292,1,170.999995433807,12|2,0:0|0:0,0:0:0:0:
304,213,212427,1,2,0:0:0:0:
304,213,212508,2,0,P|312:165|408:101,1,170.999995433807,12|2,0:0|0:0,0:0:0:0:
496,108,212913,1,2,0:0:0:0:
496,108,212994,2,0,P|456:180|496:256,1,170.999995433807,12|2,0:0|0:0,0:0:0:0:
464,344,213400,1,2,0:0:0:0:
464,344,213481,2,0,L|376:344,1,85.4999977169037,12|2,0:0|0:0,0:0:0:0:
176,185,213805,5,10,0:0:0:0:
176,185,213967,1,10,0:0:0:0:
176,185,214130,38,2,B|202:134|202:134|177:88|177:88|195:11|128:-15|54:24|71:157,1,360,2|2,3:3|3:3,3:3:0:0:
375,138,215589,6,0,B|331:126|331:126|295:138|295:138|251:114|195:138,1,180,6|2,0:0|3:0,0:0:0:0:
272,300,216075,1,14,0:0:0:0:
416,192,216238,2,0,P|440:144|428:88,1,90,0|6,2:0|0:0,0:0:0:0:
328,248,216562,1,2,0:0:0:0:
324,260,216643,1,0,2:0:0:0:
320,272,216724,5,14,0:0:0:0:
286,267,216805,1,0,2:0:0:0:
254,276,216886,1,2,0:0:0:0:
228,297,216967,1,0,2:0:0:0:
208,336,217048,5,4,3:0:0:0:
163,336,217130,1,0,2:0:0:0:
123,317,217211,1,2,0:0:0:0:
95,282,217292,1,0,2:0:0:0:
124,244,217373,53,14,0:0:0:0:
128,199,217454,1,0,2:0:0:0:
114,157,217535,1,2,0:0:0:0:
83,125,217616,1,0,2:0:0:0:
41,108,217697,5,6,0:0:0:0:
75,103,217778,1,0,2:0:0:0:
108,97,217859,1,2,0:0:0:0:
141,91,217940,1,0,2:0:0:0:
175,86,218021,5,14,0:0:0:0:
197,89,218102,1,0,2:0:0:0:
217,99,218184,1,2,0:0:0:0:
234,114,218265,1,0,2:0:0:0:
245,133,218346,53,4,3:0:0:0:
247,155,218427,1,0,2:0:0:0:
257,175,218508,1,2,3:0:0:0:
272,192,218589,1,0,2:0:0:0:
292,202,218670,5,14,0:0:0:0:
313,209,218751,1,0,2:0:0:0:
336,208,218832,1,2,0:0:0:0:
357,200,218913,1,0,2:0:0:0:
374,187,218994,6,0,P|380:168|380:140,1,45,6|0,0:0|2:0,0:0:0:0:
372,68,219157,2,0,P|368:48|348:24,1,45,2|0,0:0|2:0,0:0:0:0:
312,120,219319,2,0,P|304:100|280:72,1,45,14|0,0:0|2:0,0:0:0:0:
236,32,219481,2,0,P|216:24|192:20,1,45,2|0,0:0|2:0,0:0:0:0:
108,148,219643,53,4,3:0:0:0:
89,188,219724,1,0,2:0:0:0:
89,233,219805,1,2,0:0:0:0:
109,272,219886,1,0,2:0:0:0:
145,299,219967,2,0,P|164:304|192:300,1,45,14|0,0:0|2:0,0:0:0:0:
260,264,220130,2,0,P|276:248|288:224,1,45,2|0,0:0|2:0,0:0:0:0:
304,332,220292,5,6,0:0:0:0:
347,344,220373,1,0,2:0:0:0:
391,338,220454,1,2,0:0:0:0:
429,315,220535,1,0,2:0:0:0:
456,279,220616,2,0,P|460:260|456:232,1,45,8|0,0:0|2:0,0:0:0:0:
312,120,220778,6,0,B|228:72|228:152|132:92,1,180,6|2,0:0|0:0,0:0:0:0:
260,176,221265,1,14,0:0:0:0:
196,40,221427,1,0,2:0:0:0:
368,68,221589,2,0,P|384:120|372:168,1,90,6|2,0:0|0:0,0:0:0:0:
300,48,221913,1,14,0:0:0:0:
332,192,222075,54,0,P|268:248|192:204,1,180,2|2,0:0|0:0,0:0:0:0:
312,120,222562,2,0,P|360:124|408:172,1,90,14|2,0:0|0:0,0:0:0:0:
260,176,222886,1,6,0:0:0:0:
404,208,223048,1,2,0:0:0:0:
300,48,223211,1,14,0:0:0:0:
356,260,223373,6,0,P|344:308|216:328,1,180,2|2,0:0|0:0,0:0:0:0:
404,208,223859,2,0,P|424:260|408:308,1,90,14|0,0:0|2:0,0:0:0:0:
260,176,224184,1,6,0:0:0:0:
448,156,224346,1,2,0:0:0:0:
300,48,224508,1,14,0:0:0:0:
356,260,224670,5,6,0:0:0:0:
356,260,224994,1,2,0:0:0:0:
280,112,225157,1,14,0:0:0:0:
492,104,225319,1,6,0:0:0:0:
468,220,225481,2,0,L|464:324,1,90,0|2,2:0|0:0,0:0:0:0:
448,156,225805,1,8,0:0:0:0:
308,308,225967,54,0,P|240:336|156:272,1,180,6|2,0:0|0:0,0:0:0:0:
356,260,226454,2,0,P|376:308|356:360,1,90,14|0,0:0|2:0,0:0:0:0:
184,152,226778,2,0,P|232:144|292:160,1,90,6|2,0:0|3:0,0:0:0:0:
340,140,227021,2,0,P|328:192|264:224,1,90,2|2,2:0|2:0,0:0:0:0:
236,216,227265,1,2,3:0:0:0:
256,12,227427,6,0,P|304:4|364:20,1,90,6|2,0:0|3:0,0:0:0:0:
412,0,227670,2,0,P|400:52|336:84,1,90,2|2,2:0|2:0,0:0:0:0:
308,76,227913,1,2,3:0:0:0:
440,144,228075,2,0,B|456:192|456:192|444:228|444:228|456:260|456:260|440:296|448:336,1,180,2|8,0:0|0:0,0:0:0:0:
236,216,228562,6,0,P|208:196|200:180,1,45,2|0,0:0|2:0,0:0:0:0:
200,116,228724,2,0,P|148:136|124:196,1,90,4|2,3:0|0:0,0:0:0:0:
148,232,228967,2,0,P|120:272|72:288,1,90,2|2,2:0|2:0,0:0:0:0:
80,216,229211,1,2,2:0:0:0:
204,292,229373,2,0,B|232:300|232:300|256:300|256:300|272:312|272:312|304:312,1,90,6|2,0:0|0:0,0:0:0:0:
380,308,229697,1,14,0:0:0:0:
240,48,229859,54,0,B|196:32|160:52|160:52|120:40|120:40|64:68,2,180,2|2|2,0:0|0:0|0:0,0:0:0:0:
328,216,230670,1,6,0:0:0:0:
204,148,230832,1,6,0:0:0:0:
204,292,230994,1,8,0:0:0:0:
408,216,231157,6,0,B|420:184|420:184|404:148|404:148|436:92|392:40,1,180,6|2,0:0|0:0,0:0:0:0:
328,216,231643,1,14,0:0:0:0:
328,216,231805,1,0,2:0:0:0:
240,48,231967,1,6,0:0:0:0:
240,48,232130,1,2,0:0:0:0:
116,196,232292,1,14,0:0:0:0:
116,196,232454,1,2,0:0:0:0:
204,364,232616,6,0,B|224:372|224:372|248:364|248:364|272:372|304:360,1,90,6|2,0:0|0:0,0:0:0:0:
116,196,232940,2,0,B|96:188|96:188|72:196|72:196|48:188|16:200,1,90,14|2,0:0|3:0,0:0:0:0:
272,128,233265,1,6,0:0:0:0:
140,36,233427,1,6,0:0:0:0:
116,196,233589,1,8,0:0:0:0:
344,168,233751,54,0,P|344:88|256:40,1,180,6|2,0:0|0:0,0:0:0:0:
276,208,234238,1,14,0:0:0:0:
276,208,234319,1,0,2:0:0:0:
276,208,234400,2,0,L|248:272,1,45,2|0,0:0|2:0,0:0:0:0:
348,248,234562,5,6,0:0:0:0:
380,238,234643,1,0,2:0:0:0:
406,217,234724,1,2,0:0:0:0:
421,187,234805,1,0,0:0:0:0:
424,154,234886,5,12,0:0:0:0:
450,175,234967,1,0,2:0:0:0:
466,204,235048,1,2,0:0:0:0:
471,237,235130,1,2,0:0:0:0:
464,270,235211,53,8,0:0:0:0:
444,296,235292,1,8,0:0:0:0:
416,312,235373,2,0,P|376:320|348:316,1,45,10|2,0:0|0:0,0:0:0:0:
256,296,235535,2,0,P|224:280|204:264,1,45,2|2,0:0|0:0,0:0:0:0:
276,208,235697,5,8,0:0:0:0:
268,180,235778,1,8,0:0:0:0:
268,148,235859,2,0,P|272:128|284:100,1,45,8|2,0:0|0:0,0:0:0:0:
348,248,236021,1,2,0:0:0:0:
345,292,236102,1,2,0:0:0:0:
326,333,236184,1,2,0:0:0:0:
293,363,236265,1,2,0:0:0:0:
251,378,236346,1,2,0:0:0:0:
208,376,236427,1,2,0:0:0:0:
165,359,236508,6,0,P|148:336|140:316,3,45,6|0|2|0,3:3|2:2|3:3|2:2,2:2:0:0:
184,244,236832,2,0,P|183:214|188:193,3,45,14|0|2|0,3:3|2:3|3:3|2:0,3:3:0:0:
276,208,237157,2,0,P|289:181|303:165,3,45,6|0|2|0,3:3|2:3|3:3|2:3,3:3:0:0:
348,248,237481,2,0,P|372:231|392:223,3,45,14|0|2|0,3:3|2:3|3:3|2:3,3:3:0:0:
326,333,237805,53,6,3:3:0:0:
281,329,237886,1,0,2:3:0:0:
240,312,237967,1,2,3:3:0:0:
206,282,238048,1,0,2:3:0:0:
184,244,238130,5,14,3:3:0:0:
196,200,238211,1,0,2:3:0:0:
190,156,238292,1,2,3:3:0:0:
167,118,238373,1,0,2:3:0:0:
130,92,238454,5,4,3:3:0:0:
148,136,238535,1,0,2:3:0:0:
190,156,238616,1,2,3:3:0:0:
236,156,238697,1,0,3:3:0:0:
276,136,238778,1,14,3:3:0:0:
288,92,238859,1,0,2:3:0:0:
280,48,238940,1,0,2:3:0:0:
244,24,239021,1,0,2:3:0:0:
200,24,239103,54,0,P|172:48|164:64,3,49.5000015106202,4|0|2|0,3:0|2:0|3:0|2:0,3:0:0:0:
236,156,239427,2,0,P|240:192|248:208,3,49.5000015106202,14|0|2|0,3:0|2:0|3:0|2:0,3:0:0:0:
364,188,239751,2,0,P|393:209|410:213,3,49.5000015106202,4|0|2|0,3:0|2:0|3:0|2:0,3:0:0:0:
460,104,240075,2,0,P|495:96|510:86,3,49.5000015106202,14|0|2|0,3:0|2:0|3:0|2:0,3:0:0:0:
484,188,240400,5,6,3:0:0:0:
480,236,240481,1,0,2:0:0:0:
452,276,240562,1,2,3:0:0:0:
407,295,240643,1,0,2:0:0:0:
360,280,240724,5,14,3:0:0:0:
318,254,240805,1,0,2:0:0:0:
269,247,240886,1,2,3:0:0:0:
222,260,240967,1,0,2:0:0:0:
176,280,241048,53,4,3:0:0:0:
128,268,241130,1,0,2:0:0:0:
88,239,241211,1,2,3:0:0:0:
62,197,241292,1,0,2:0:0:0:
55,148,241373,1,14,3:0:0:0:
66,101,241454,1,0,2:0:0:0:
95,61,241535,1,2,3:0:0:0:
137,35,241616,1,0,2:0:0:0:
185,35,241697,6,0,P|208:44|232:68,1,49.5000015106202,6|0,3:0|2:0,3:0:0:0:
276,124,241859,2,0,P|291:143|299:176,1,49.5000015106202,0|0,2:0|2:0,3:0:0:0:
308,44,242021,2,0,P|331:53|355:77,1,49.5000015106202,14|0,3:0|2:0,3:0:0:0:
384,144,242184,2,0,P|399:163|407:196,1,49.5000015106202,2|0,3:0|2:0,3:0:0:0:
318,254,242346,2,0,P|300:283|272:299,3,49.5000015106202,4|0|2|0,3:0|2:0|3:0|2:0,3:0:0:0:
216,204,242670,2,0,P|188:200|160:184,3,49.5000015106202,14|0|2|0,3:0|2:0|3:0|2:0,3:0:0:0:
318,254,242994,6,0,B|341:264|341:264|369:260|369:260|397:276|429:264,1,99.0000030212403,6|2,3:0|3:0,3:0:0:0:
384,144,243319,1,14,3:0:0:0:
240,276,243481,2,0,P|276:320|316:336,1,99.0000030212403,2|4,3:0|3:0,3:0:0:0:
232,136,243805,2,0,B|208:124|180:136|180:136|152:124|152:124|112:136,2,99.0000030212403,2|12|0,3:0|3:0|2:0,3:0:0:0:
460,248,244292,53,2,3:0:0:0:
471,269,244373,1,2,3:0:0:0:
476,293,244454,1,2,3:0:0:0:
473,318,244535,1,2,3:0:0:0:
462,340,244616,5,8,3:0:0:0:
427,327,244697,1,8,3:0:0:0:
390,323,244778,1,8,0:0:0:0:
354,327,244859,1,8,0:0:0:0:
319,340,244940,5,0,0:0:0:0:
276,333,245021,1,0,0:0:0:0:
237,316,245102,1,0,0:0:0:0:
202,290,245184,1,0,0:0:0:0:
175,256,245265,1,0,0:0:0:0:
157,217,245346,1,0,0:0:0:0:
148,175,245427,1,0,0:0:0:0:
150,132,245508,1,0,0:0:0:0:
161,90,245589,54,0,P|176:72|204:56,3,49.5000015106202,8|2|2|2,0:0|0:0|0:0|0:0,0:0:0:0:
264,116,245913,2,0,P|287:114|317:125,1,49.5000015106202,2|2,0:0|0:0,0:0:0:0:
304,212,246075,2,0,P|320:229|331:259,3,49.5000015106202,8|0|0|0,0:0|0:0|0:0|0:0,0:0:0:0:
276,333,246400,2,0,P|256:364|236:376,1,49.5000015106202,0|2,0:0|0:0,0:0:0:0:
62,325,246562,1,8,0:0:0:0:
54,276,246643,1,8,0:0:0:0:
69,229,246724,1,8,0:0:0:0:
102,193,246805,1,8,0:0:0:0:
148,175,246886,6,0,B|180:175|180:175|220:191|220:191|256:191,1,90,6|2,0:0|0:0,0:0:0:0:
304,212,247130,1,2,0:0:0:0:
304,212,247211,1,14,0:0:0:0:
96,120,247373,1,2,0:0:0:0:
96,120,247454,1,2,0:0:0:0:
96,120,247535,2,0,B|84:128|84:128|42:140|42:140|16:159,1,90,6|2,0:0|0:0,0:0:0:0:
69,229,247778,1,2,0:0:0:0:
69,229,247859,1,14,0:0:0:0:
168,104,248021,5,2,0:0:0:0:
168,88,248102,1,2,0:0:0:0:
164,72,248184,2,0,P|128:40|76:40,1,90,6|2,0:0|0:0,0:0:0:0:
148,175,248427,1,2,0:0:0:0:
148,175,248508,2,0,P|192:174|227:147,1,90,14|2,0:0|0:0,0:0:0:0:
136,244,248751,1,2,0:0:0:0:
136,244,248832,2,0,P|152:288|200:316,1,90,6|2,0:0|0:0,0:0:0:0:
69,229,249075,1,2,0:0:0:0:
69,229,249157,2,0,P|40:260|32:320,1,90,14|2,0:0|0:0,0:0:0:0:
84,164,249400,1,2,0:0:0:0:
84,164,249481,54,0,L|16:100,1,90,6|2,0:0|0:0,0:0:0:0:
52,28,249724,1,2,0:0:0:0:
52,28,249805,1,14,0:0:0:0:
148,175,249967,1,2,0:0:0:0:
148,175,250048,1,2,0:0:0:0:
148,175,250130,2,0,B|172:184|172:184|192:180|192:180|216:192|244:188,1,90,6|2,0:0|0:0,0:0:0:0:
344,80,250373,1,2,0:0:0:0:
344,80,250454,2,0,B|355:102|355:102|354:123|354:123|369:145|368:173,1,90,14|2,0:0|0:0,0:0:0:0:
228,112,250697,1,2,0:0:0:0:
228,112,250778,6,0,P|236:56|264:24,1,90,6|2,0:0|0:0,0:0:0:0:
300,168,251021,1,2,0:0:0:0:
300,168,251102,1,14,0:0:0:0:
148,175,251265,1,2,0:0:0:0:
136,184,251346,1,2,0:0:0:0:
124,192,251427,5,4,0:0:0:0:
162,188,251508,1,2,3:0:0:0:
199,203,251589,1,8,0:0:0:0:
225,232,251670,1,8,0:0:0:0:
235,269,251751,1,8,0:0:0:0:
228,308,251832,1,8,0:0:0:0:
204,339,251913,1,8,0:0:0:0:
170,356,251994,1,8,0:0:0:0:
131,356,252075,54,0,B|112:336|112:336|112:316|112:316|92:296|88:264,1,90,6|6,0:0|0:0,0:0:0:0:
40,208,252319,1,2,0:0:0:0:
40,208,252400,1,10,0:0:0:0:
228,308,252562,1,6,0:0:0:0:
228,308,252643,1,2,0:0:0:0:
228,308,252724,1,6,0:0:0:0:
224,96,252886,1,6,0:0:0:0:
224,96,252967,1,2,0:0:0:0:
224,96,253048,2,0,L|320:96,1,90,10|6,0:0|0:0,0:0:0:0:
224,172,253292,1,2,0:0:0:0:
224,172,253373,6,0,P|172:152|148:112,1,90,4|2,0:0|0:0,0:0:0:0:
300,172,253616,1,2,0:0:0:0:
300,172,253697,1,10,0:0:0:0:
144,116,253859,1,2,0:0:0:0:
136,107,253940,1,2,0:0:0:0:
128,99,254021,5,6,0:0:0:0:
116,118,254102,1,8,0:0:0:0:
98,131,254184,1,8,0:0:0:0:
76,137,254265,1,8,0:0:0:0:
56,135,254346,53,2,0:0:0:0:
49,156,254427,1,2,0:0:0:0:
47,179,254508,1,2,0:0:0:0:
50,201,254589,1,2,0:0:0:0:
58,221,254670,5,14,0:0:0:0:
87,222,254751,1,2,0:0:0:0:
116,230,254832,1,2,0:0:0:0:
143,244,254913,1,2,0:0:0:0:
165,264,254994,1,2,0:0:0:0:
183,287,255075,1,2,0:0:0:0:
216,320,255157,5,14,0:0:0:0:
245,325,255238,1,2,0:0:0:0:
275,325,255319,1,2,0:0:0:0:
304,319,255400,1,2,0:0:0:0:
332,308,255481,1,2,0:0:0:0:
358,292,255562,1,2,0:0:0:0:
384,256,255643,53,14,0:0:0:0:
377,234,255724,1,2,0:0:0:0:
375,212,255805,1,2,0:0:0:0:
377,189,255886,1,2,0:0:0:0:
391,147,255967,5,14,0:0:0:0:
361,124,256048,1,2,0:0:0:0:
327,109,256130,1,2,0:0:0:0:
290,103,256211,1,2,0:0:0:0:
252,108,256292,1,2,0:0:0:0:
218,121,256373,1,2,0:0:0:0:
184,152,256454,5,14,0:0:0:0:
188,114,256535,1,2,0:0:0:0:
203,80,256616,1,2,0:0:0:0:
228,53,256697,1,2,0:0:0:0:
261,34,256778,1,2,0:0:0:0:
297,27,256859,1,2,0:0:0:0:
342,33,256940,53,14,0:0:0:0:
312,49,257021,1,2,0:0:0:0:
280,57,257102,1,2,0:0:0:0:
246,57,257184,1,2,0:0:0:0:
192,48,257265,5,14,0:0:0:0:
149,61,257346,1,2,0:0:0:0:
114,89,257427,1,2,0:0:0:0:
92,128,257508,1,2,0:0:0:0:
86,172,257589,1,2,0:0:0:0:
97,216,257670,1,2,0:0:0:0:
132,258,257751,5,14,0:0:0:0:
172,238,257832,1,2,0:0:0:0:
216,228,257913,1,2,0:0:0:0:
260,228,257994,1,2,0:0:0:0:
304,238,258075,1,2,0:0:0:0:
345,258,258157,1,2,0:0:0:0:
384,296,258238,53,14,0:0:0:0:
406,256,258319,1,2,0:0:0:0:
418,213,258400,1,2,0:0:0:0:
421,169,258481,1,2,0:0:0:0:
416,123,258562,6,0,B|398:98|398:98|360:88|360:88|344:60|304:48,1,120,12|8,0:0|0:0,0:0:0:0:
384,296,258994,1,8,0:0:0:0:
256,92,259211,1,2,0:0:0:0:
128,296,259427,1,2,0:0:0:0:
8,88,259643,1,2,0:0:0:0:
8,84,259697,1,2,0:0:0:0:
8,80,259751,6,0,L|24:52,2,30,2|2|2,0:0|0:0|0:0,0:0:0:0:
456,296,260184,54,0,P|496:248|484:112,1,180,6|0,0:0|2:0,0:0:0:0:
68,72,260670,2,0,P|28:120|40:256,1,180,6|0,0:0|2:0,0:0:0:0:
400,200,261157,5,2,0:0:0:0:
403,195,261238,1,2,0:0:0:0:
407,191,261319,1,2,0:0:0:0:
410,187,261400,1,2,0:0:0:0:
414,182,261481,1,14,0:0:0:0:
160,220,261643,5,2,0:0:0:0:
154,220,261724,1,2,0:0:0:0:
148,221,261805,1,2,0:0:0:0:
143,222,261886,1,2,0:0:0:0:
137,223,261967,1,14,0:0:0:0:
320,72,262130,53,2,0:0:0:0:
293,51,262211,1,2,0:0:0:0:
261,40,262292,1,2,0:0:0:0:
228,38,262373,1,2,0:0:0:0:
195,47,262454,5,14,0:0:0:0:
195,76,262535,1,2,0:0:0:0:
187,105,262616,1,2,0:0:0:0:
169,129,262697,1,2,0:0:0:0:
145,146,262778,1,2,0:0:0:0:
116,154,262859,1,2,0:0:0:0:
86,152,262940,5,14,0:0:0:0:
112,137,263021,1,2,0:0:0:0:
140,128,263102,1,2,0:0:0:0:
170,128,263184,1,2,0:0:0:0:
199,137,263265,1,2,0:0:0:0:
225,152,263346,1,2,0:0:0:0:
245,174,263427,53,14,0:0:0:0:
241,207,263508,1,2,0:0:0:0:
252,239,263589,1,2,0:0:0:0:
276,262,263670,1,2,0:0:0:0:
308,272,263751,6,0,P|328:272|356:256,1,45,14|0,0:0|2:0,0:0:0:0:
408,176,263913,1,2,0:0:0:0:
408,176,263994,1,2,0:0:0:0:
408,176,264075,2,0,P|416:140|408:108,1,45,14|0,0:0|2:0,0:0:0:0:
388,32,264238,1,2,0:0:0:0:
380,28,264319,1,2,0:0:0:0:
372,24,264400,5,8,0:0:0:0:
343,58,264481,1,8,0:0:0:0:
303,77,264562,1,8,0:0:0:0:
258,75,264643,1,8,0:0:0:0:
219,54,264724,1,2,0:0:0:0:
181,31,264805,1,2,0:0:0:0:
136,27,264886,1,2,0:0:0:0:
95,43,264967,1,2,0:0:0:0:
65,76,265048,54,0,L|52:176,1,90,6|2,0:0|0:0,0:0:0:0:
40,280,265373,1,14,0:0:0:0:
200,196,265535,2,0,L|284:140,1,90,2|6,0:0|3:0,0:0:0:0:
343,58,265859,1,2,0:0:0:0:
152,140,266021,2,0,P|128:192|144:244,1,90,14|2,0:0|0:0,0:0:0:0:
219,54,266346,6,0,P|176:32|104:30,1,90,6|2,0:0|0:0,0:0:0:0:
65,76,266670,1,14,0:0:0:0:
296,132,266832,2,0,P|328:100|344:48,1,90,2|6,0:0|0:0,0:0:0:0:
219,54,267157,1,2,0:0:0:0:
252,284,267319,2,0,P|308:296|344:288,1,90,12|2,0:0|0:0,0:0:0:0:
152,212,267643,6,0,B|191:212|191:212|247:184,1,90,2|2,0:0|0:0,0:0:0:0:
284,175,267886,1,2,0:0:0:0:
284,175,267967,2,0,B|296:136|296:136|295:102,3,45,2|2|2|2,0:0|0:0|0:0|0:0,0:0:0:0:
252,284,268292,1,2,0:0:0:0:
265,293,268373,1,2,0:0:0:0:
280,301,268454,1,2,0:0:0:0:
296,306,268535,1,2,0:0:0:0:
313,309,268616,1,2,0:0:0:0:
330,309,268697,1,2,0:0:0:0:
347,308,268778,1,2,0:0:0:0:
363,303,268859,1,2,0:0:0:0:
378,297,268940,54,0,P|404:272|412:244,1,45,10|2,0:0|0:0,0:0:0:0:
428,168,269102,2,0,P|424:140|396:108,1,45,10|2,0:0|0:0,0:0:0:0:
340,64,269265,2,0,P|324:56|304:52,5,30,2|2|2|2|2|2,0:0|0:0|0:0|0:0|0:0|0:0,0:0:0:0:
312,88,269589,5,8,0:0:0:0:
291,114,269670,1,8,0:0:0:0:
265,135,269751,1,8,0:0:0:0:
233,147,269832,1,8,0:0:0:0:
200,151,269913,1,8,0:0:0:0:
167,146,269994,1,8,0:0:0:0:
136,132,270075,1,8,0:0:0:0:
110,111,270157,1,8,0:0:0:0:
91,83,270238,6,0,P|88:64|96:32,3,45,6|2|2|2,0:0|0:0|0:0|0:0,0:0:0:0:
204,64,270562,2,0,P|210:45|233:21,3,45,14|2|2|2,0:0|0:0|0:0|0:0,0:0:0:0:
312,88,270886,2,0,P|327:75|358:66,3,45,6|2|2|2,0:0|0:0|0:0|0:0,0:0:0:0:
360,172,271211,2,0,P|336:224|240:232,1,135,14|0,0:0|2:0,0:0:0:0:
224,184,271535,2,0,P|196:232|232:308,1,135,6|0,0:0|2:0,0:0:0:0:
292,172,271859,2,0,P|248:120|176:132,1,135,12|0,0:0|2:0,0:0:0:0:
152,192,272184,53,6,0:0:0:0:
125,172,272265,1,2,0:0:0:0:
110,142,272346,1,2,0:0:0:0:
111,108,272427,1,2,0:0:0:0:
127,79,272508,5,14,0:0:0:0:
94,87,272589,1,2,0:0:0:0:
67,107,272670,1,2,0:0:0:0:
51,136,272751,1,2,0:0:0:0:
48,169,272832,5,6,0:0:0:0:
63,200,272913,1,2,0:0:0:0:
68,233,272994,1,2,0:0:0:0:
61,266,273075,1,2,0:0:0:0:
44,295,273157,53,14,0:0:0:0:
70,316,273238,1,2,0:0:0:0:
101,330,273319,1,2,0:0:0:0:
134,335,273400,1,2,0:0:0:0:
168,330,273481,5,6,0:0:0:0:
176,298,273562,1,2,0:0:0:0:
196,271,273643,1,2,0:0:0:0:
225,253,273724,1,2,0:0:0:0:
258,247,273805,5,14,0:0:0:0:
301,240,273886,1,2,0:0:0:0:
335,212,273967,1,2,0:0:0:0:
348,169,274048,1,2,0:0:0:0:
337,126,274130,54,0,P|324:104|292:88,3,47.2499985580445,6|2|2|2,0:0|0:0|0:0|0:0,0:0:0:0:
232,152,274454,2,0,P|208:139|173:141,3,47.2499985580445,14|2|2|2,0:0|0:0|0:0|0:0,0:0:0:0:
335,212,274778,2,0,P|358:224|393:222,3,47.2499985580445,6|2|2|2,0:0|0:0|0:0|0:0,0:0:0:0:
316,32,275102,5,14,0:0:0:0:
288,31,275184,1,2,0:0:0:0:
261,35,275265,1,2,0:0:0:0:
235,43,275346,1,2,0:0:0:0:
210,56,275427,1,6,0:0:0:0:
187,71,275508,1,2,0:0:0:0:
164,86,275589,1,2,0:0:0:0:
140,100,275670,1,2,0:0:0:0:
114,110,275751,1,14,0:0:0:0:
87,114,275832,1,2,0:0:0:0:
60,113,275913,1,2,0:0:0:0:
33,108,275994,1,2,0:0:0:0:
6,100,276075,5,14,0:0:0:0:
8,88,276157,1,2,0:0:0:0:
12,76,276238,2,0,P|44:64|60:64,1,47.2499985580445,2|2,0:0|0:0,0:0:0:0:
144,224,276400,1,14,0:0:0:0:
132,224,276481,1,2,0:0:0:0:
120,224,276562,2,0,P|112:196|120:160,1,47.2499985580445,2|2,0:0|0:0,0:0:0:0:
288,232,276724,1,14,0:0:0:0:
288,244,276805,1,2,0:0:0:0:
288,256,276886,2,0,P|256:256|228:244,1,47.2499985580445,2|2,0:0|0:0,0:0:0:0:
416,40,277048,53,10,0:0:0:0:
430,78,277130,1,8,0:0:0:0:
436,119,277211,1,8,0:0:0:0:
430,160,277292,1,8,0:0:0:0:
416,198,277373,1,10,0:0:0:0:
404,238,277454,1,8,0:0:0:0:
403,279,277535,1,8,0:0:0:0:
412,319,277616,1,8,0:0:0:0:
428,357,277697,5,10,0:0:0:0:
452,304,277778,1,8,0:0:0:0:
448,248,277859,1,8,0:0:0:0:
416,198,277940,1,8,0:0:0:0:
368,168,278021,5,14,0:0:0:0:
212,332,278184,1,2,0:0:0:0:
236,108,278346,1,12,0:0:0:0:
344,304,278508,1,2,0:0:0:0:
344,304,278589,1,2,0:0:0:0:
344,304,278670,1,6,0:0:0:0:
144,204,278832,1,2,0:0:0:0:
360,144,278994,53,12,0:0:0:0:
244,336,279157,1,2,0:0:0:0:
204,116,279319,1,6,0:0:0:0:
356,280,279481,1,2,0:0:0:0:
356,280,279562,1,2,0:0:0:0:
356,280,279643,1,12,0:0:0:0:
144,204,279805,1,2,0:0:0:0:
404,92,279967,5,6,0:0:0:0:
280,280,280130,1,2,0:0:0:0:
256,56,280292,1,12,0:0:0:0:
404,216,280454,1,2,0:0:0:0:
404,216,280535,1,2,0:0:0:0:
404,216,280616,1,6,0:0:0:0:
184,172,280778,1,2,0:0:0:0:
388,80,280940,5,14,0:0:0:0:
264,268,281102,1,2,0:0:0:0:
244,44,281265,1,6,0:0:0:0:
412,192,281427,1,2,0:0:0:0:
412,192,281508,1,2,0:0:0:0:
412,192,281589,1,12,0:0:0:0:
192,148,281751,1,2,0:0:0:0:
496,112,281913,54,0,P|504:176|496:236,1,112.5,6|2,0:0|0:0,0:0:0:0:
432,284,282157,1,2,0:0:0:0:
432,284,282238,1,14,0:0:0:0:
388,80,282400,1,2,0:0:0:0:
388,80,282481,1,2,0:0:0:0:
388,80,282562,2,0,P|452:48|500:40,1,112.5,2|2,0:0|0:0,0:0:0:0:
294,191,282886,6,0,P|229:171|182:139,1,112.5,12|2,0:0|0:0,0:0:0:0:
184,56,283130,1,2,0:0:0:0:
184,56,283211,1,6,0:0:0:0:
352,144,283373,1,2,0:0:0:0:
352,144,283454,1,2,0:0:0:0:
352,144,283535,2,0,P|360:200|332:264,1,112.5,12|2,0:0|0:0,0:0:0:0:
331,80,283859,6,0,L|399:80,1,56.25,12|2,0:0|0:0,0:0:0:0:
408,144,284021,2,0,L|352:144,1,56.25,12|2,0:0|0:0,0:0:0:0:
192,148,284184,53,2,0:0:0:0:
192,148,284265,1,2,0:0:0:0:
192,148,284346,2,0,L|132:148,1,56.25,12|2,0:0|0:0,0:0:0:0:
119,212,284508,2,0,L|176:212,1,56.25,12|2,0:0|0:0,0:0:0:0:
341,251,284670,1,2,0:0:0:0:
352,256,284751,1,2,0:0:0:0:
364,260,284832,5,8,0:0:0:0:
403,246,284913,1,8,0:0:0:0:
435,219,284994,1,8,0:0:0:0:
455,182,285075,1,8,0:0:0:0:
460,141,285157,5,2,0:0:0:0:
410,164,285238,1,2,0:0:0:0:
354,165,285319,1,2,0:0:0:0:
302,144,285400,1,2,0:0:0:0:
264,104,285481,53,2,0:0:0:0:
201,73,285562,1,2,0:0:0:0:
132,79,285643,1,2,0:0:0:0:
77,121,285724,1,2,0:0:0:0:
51,185,285805,5,6,0:0:0:0:
341,251,285967,1,2,0:0:0:0:
341,251,286048,1,2,0:0:0:0:
341,251,286130,1,12,0:0:0:0:
201,73,286292,2,0,B|210:44|210:44|234:16,2,56.25,2|2|12,0:0|0:0|0:0,0:0:0:0:
148,292,286616,1,2,0:0:0:0:
148,292,286697,1,2,0:0:0:0:
148,292,286778,1,12,0:0:0:0:
328,156,286940,2,0,B|348:140|348:140|368:104,2,56.25,2|2|12,0:0|0:0|0:0,0:0:0:0:
108,100,287265,1,2,0:0:0:0:
108,100,287346,1,2,0:0:0:0:
108,100,287427,1,12,0:0:0:0:
248,276,287589,5,2,0:0:0:0:
248,276,287670,1,2,0:0:0:0:
248,276,287751,2,0,P|280:324|352:344,1,112.5,12|2,0:0|0:0,0:0:0:0:
284,204,287994,1,2,0:0:0:0:
284,204,288076,2,0,P|226:198|165:242,1,112.5,12|0,0:0|0:0,0:0:0:0:
324,268,288319,1,2,0:0:0:0:
324,268,288400,2,0,P|351:217|335:144,1,112.5,12|2,0:0|0:0,0:0:0:0:
179,224,288643,1,2,0:0:0:0:
179,224,288724,54,0,P|161:279|191:347,1,112.5,12|2,0:0|0:0,0:0:0:0:
284,204,288967,1,2,0:0:0:0:
284,204,289048,2,0,P|260:151|193:118,1,112.5,12|2,0:0|0:0,0:0:0:0:
248,276,289292,1,2,0:0:0:0:
248,276,289373,2,0,P|280:324|352:344,1,112.5,12|2,0:0|0:0,0:0:0:0:
440,332,289616,1,2,0:0:0:0:
456,328,289697,5,14,0:0:0:0:
467,302,289778,1,2,0:0:0:0:
471,274,289859,1,2,0:0:0:0:
469,246,289940,1,2,0:0:0:0:
448,204,290021,5,14,0:0:0:0:
420,201,290102,1,2,0:0:0:0:
394,190,290184,1,2,0:0:0:0:
373,171,290265,1,2,0:0:0:0:
368,124,290346,53,14,3:3:0:0:
344,107,290427,1,2,3:3:0:0:
318,99,290508,1,2,3:3:0:0:
290,100,290589,1,2,3:3:0:0:
252,128,290670,5,14,0:0:0:0:
225,136,290751,1,2,0:0:0:0:
197,136,290832,1,2,0:0:0:0:
171,127,290913,1,2,0:0:0:0:
136,96,290994,5,14,0:0:0:0:
116,116,291075,1,2,0:0:0:0:
104,141,291157,1,2,0:0:0:0:
101,169,291238,1,2,0:0:0:0:
116,216,291319,53,14,0:0:0:0:
119,243,291400,1,2,0:0:0:0:
115,271,291481,1,2,0:0:0:0:
106,298,291562,1,2,0:0:0:0:
90,321,291643,5,14,0:0:0:0:
84,300,292616,5,6,0:0:0:0:
68,320,293427,54,0,B|140:320|140:320|180:340|224:360|292:328,1,225,6|2,0:0|0:0,0:0:0:0:
340,276,293832,1,2,0:0:0:0:
344,268,293913,1,14,0:0:0:0:
216,176,294076,1,2,0:0:0:0:
210,170,294157,1,2,0:0:0:0:
212,163,294238,1,6,0:0:0:0:
360,116,294400,1,2,0:0:0:0:
362,123,294481,1,2,0:0:0:0:
357,129,294562,1,14,0:0:0:0:
240,28,294724,1,2,0:0:0:0:
240,20,294805,1,2,0:0:0:0:
248,16,294886,6,0,L|348:16,1,90,6|2,0:0|0:0,0:0:0:0:
412,52,295130,1,2,0:0:0:0:
416,60,295211,1,14,0:0:0:0:
153,87,295373,1,2,0:0:0:0:
151,94,295454,1,2,0:0:0:0:
156,100,295535,1,6,0:0:0:0:
300,188,295697,1,6,0:0:0:0:
338,16,295859,1,8,0:0:0:0:
216,176,296021,6,0,B|180:192|180:192|144:180|144:180|92:232|20:200,1,180,6|2,0:0|0:0,0:0:0:0:
80,140,296427,1,2,0:0:0:0:
80,140,296508,1,14,0:0:0:0:
268,112,296670,1,2,0:0:0:0:
268,112,296751,1,2,0:0:0:0:
268,112,296832,1,6,0:0:0:0:
196,288,296994,1,2,0:0:0:0:
196,288,297076,1,2,0:0:0:0:
196,288,297157,1,14,0:0:0:0:
156,100,297319,53,2,0:0:0:0:
156,100,297400,1,2,0:0:0:0:
156,100,297481,2,0,P|124:64|72:48,1,90,6|2,0:0|0:0,0:0:0:0:
216,176,297724,1,2,0:0:0:0:
216,176,297805,2,0,P|260:194|314:185,1,90,14|2,0:0|0:0,0:0:0:0:
120,188,298049,1,2,0:0:0:0:
120,188,298130,1,6,0:0:0:0:
204,20,298292,1,6,0:0:0:0:
180,260,298454,1,8,0:0:0:0:
264,92,298616,6,0,B|300:72|300:72|340:84|340:84|384:64|440:92,1,180,6|2,0:0|0:0,0:0:0:0:
380,156,299021,1,2,0:0:0:0:
380,156,299103,1,14,0:0:0:0:
204,20,299265,2,0,P|176:12|144:16,2,45,2|2|6,0:0|0:0|0:0,0:0:0:0:
180,260,299589,1,2,0:0:0:0:
180,260,299670,1,2,0:0:0:0:
180,260,299751,1,14,0:0:0:0:
264,92,299913,6,0,B|300:76|300:76|340:84|340:84|384:64|440:92,1,180,6|2,0:0|0:0,0:0:0:0:
380,156,300319,1,2,0:0:0:0:
380,156,300400,1,14,0:0:0:0:
156,100,300562,1,2,0:0:0:0:
156,100,300643,1,2,0:0:0:0:
156,100,300724,1,6,0:0:0:0:
180,260,300886,1,6,0:0:0:0:
264,92,301049,1,8,0:0:0:0:
108,216,301211,54,0,P|116:300|208:344,1,180,6|2,0:0|0:0,0:0:0:0:
256,296,301616,1,2,0:0:0:0:
256,296,301697,1,14,0:0:0:0:
36,164,301859,1,2,0:0:0:0:
36,164,301940,1,2,0:0:0:0:
36,164,302021,1,6,0:0:0:0:
252,208,302184,1,2,0:0:0:0:
252,208,302265,1,2,0:0:0:0:
252,208,302346,2,0,P|276:212|304:204,1,45,12|2,0:0|0:0,0:0:0:0:
156,100,302508,5,8,0:0:0:0:
140,100,302589,1,8,0:0:0:0:
124,100,302670,2,0,P|96:108|80:124,1,45,2|2,0:0|0:0,0:0:0:0:
248,136,302832,1,8,0:0:0:0:
254,119,302913,1,8,0:0:0:0:
256,102,302994,2,0,P|248:66|230:48,1,45,2|2,0:0|0:0,0:0:0:0:
148,196,303157,1,8,0:0:0:0:
144,212,303238,1,8,0:0:0:0:
140,228,303319,5,2,0:0:0:0:
179,207,303400,1,2,0:0:0:0:
224,203,303481,1,2,0:0:0:0:
267,215,303562,1,2,0:0:0:0:
302,243,303643,1,2,0:0:0:0:
325,281,303724,1,2,0:0:0:0:
331,325,303805,54,0,P|288:284|328:160,1,180,6|6,0:0|0:0,0:0:0:0:
376,132,304211,1,2,0:0:0:0:
376,132,304292,1,10,0:0:0:0:
140,228,304454,1,6,0:0:0:0:
140,228,304535,1,2,0:0:0:0:
140,228,304616,2,0,P|88:196|80:136,1,90,2|6,0:0|0:0,0:0:0:0:
92,84,304940,1,8,0:0:0:0:
212,268,305103,6,0,P|152:312|60:244,1,180,6|6,0:0|0:0,0:0:0:0:
28,196,305508,1,2,0:0:0:0:
28,196,305589,1,10,0:0:0:0:
272,140,305751,1,6,0:0:0:0:
276,144,305832,1,2,0:0:0:0:
280,148,305913,5,6,0:0:0:0:
289,168,305994,1,2,0:0:0:0:
295,189,306075,1,2,0:0:0:0:
296,212,306156,1,2,0:0:0:0:
293,234,306237,1,10,0:0:0:0:
228,48,306400,54,0,B|280:48|280:48|352:68|352:68|412:68,1,180,6|4,0:0|0:0,0:0:0:0:
488,68,306805,1,2,0:0:0:0:
488,68,306886,1,10,0:0:0:0:
216,204,307049,1,6,0:0:0:0:
216,204,307130,1,2,0:0:0:0:
216,204,307211,2,0,P|168:208|112:176,1,90,2|6,0:0|0:0,0:0:0:0:
92,84,307535,1,10,0:0:0:0:
293,234,307697,6,0,P|258:294|145:315,1,180,6|6,0:0|0:0,0:0:0:0:
60,232,308103,1,2,0:0:0:0:
52,224,308184,1,14,0:0:0:0:
280,152,308346,1,2,0:0:0:0:
280,152,308427,1,2,0:0:0:0:
280,152,308508,1,8,0:0:0:0:
92,84,308670,1,6,0:0:0:0:
44,216,308832,1,2,0:0:0:0:
293,235,308994,6,0,P|344:192|324:80,1,180,6|2,0:0|0:0,0:0:0:0:
256,72,309400,1,2,0:0:0:0:
256,72,309481,1,14,0:0:0:0:
240,296,309643,1,2,0:0:0:0:
240,296,309724,1,2,0:0:0:0:
240,296,309805,2,0,P|292:320|340:304,1,90,6|6,0:0|0:0,0:0:0:0:
72,280,310130,1,8,0:0:0:0:
293,235,310292,54,0,P|344:192|320:64,1,198.000006042481,6|2,0:0|0:0,0:0:0:0:
192,32,310697,1,2,0:0:0:0:
192,32,310778,1,14,0:0:0:0:
240,296,310940,1,2,0:0:0:0:
240,296,311021,1,2,0:0:0:0:
240,296,311103,2,0,P|292:320|348:296,1,99.0000030212403,6|6,0:0|0:0,0:0:0:0:
36,280,311427,1,8,0:0:0:0:
293,235,311589,6,0,P|344:192|312:48,1,215.999993408203,6|2,0:0|0:0,0:0:0:0:
108,40,311994,1,2,0:0:0:0:
108,40,312076,1,14,0:0:0:0:
240,296,312238,1,2,0:0:0:0:
240,296,312319,1,2,0:0:0:0:
240,296,312400,2,0,P|292:320|356:288,1,107.999996704102,6|2,0:0|0:0,0:0:0:0:
293,235,312643,1,2,0:0:0:0:
281,223,312724,1,12,0:0:0:0:
436,288,312886,1,2,0:0:0:0:
444,284,312967,1,2,0:0:0:0:
452,280,313049,5,8,0:0:0:0:
414,264,313130,1,8,0:0:0:0:
387,235,313211,1,2,0:0:0:0:
375,197,313292,1,2,0:0:0:0:
379,157,313373,53,2,0:0:0:0:
406,111,313454,1,2,0:0:0:0:
399,58,313535,1,2,0:0:0:0:
363,20,313616,1,2,0:0:0:0:
310,11,313697,5,2,0:0:0:0:
291,70,313778,1,2,0:0:0:0:
248,116,313859,1,2,0:0:0:0:
190,139,313940,1,2,0:0:0:0:
128,135,314021,1,2,0:0:0:0:
73,105,314102,1,2,0:0:0:0:
36,55,314184,6,0,P|148:56|236:180,1,251.999992309571,6|2,0:0|0:0,0:0:0:0:
224,272,314589,1,2,0:0:0:0:
224,272,314670,1,6,0:0:0:0:
399,58,314832,1,2,0:0:0:0:
399,58,314913,1,2,0:0:0:0:
399,58,314994,1,14,0:0:0:0:
159,172,315157,2,0,P|136:149|127:135,2,49.5000015106202,2|2|6,0:0|0:0|0:0,0:0:0:0:
464,152,315481,53,2,0:0:0:0:
464,152,315562,1,2,0:0:0:0:
464,152,315643,1,6,0:0:0:0:
224,272,315805,2,0,P|191:272|176:268,2,49.5000015106202,2|2|6,0:0|0:0|0:0,0:0:0:0:
512,244,316130,1,2,0:0:0:0:
512,244,316211,1,2,0:0:0:0:
512,244,316292,1,14,0:0:0:0:
356,160,316454,1,6,0:0:0:0:
444,316,316616,1,2,0:0:0:0:
399,58,316778,6,0,B|332:16|268:124|203:58,1,198.000006042481,6|2,0:0|0:0,0:0:0:0:
128,16,317184,1,2,0:0:0:0:
128,16,317265,1,6,0:0:0:0:
132,196,317427,1,2,0:0:0:0:
132,196,317508,1,2,0:0:0:0:
132,196,317589,1,14,0:0:0:0:
252,12,317751,1,2,0:0:0:0:
252,12,317832,1,2,0:0:0:0:
252,12,317913,1,6,0:0:0:0:
252,200,318076,5,2,0:0:0:0:
252,200,318157,1,2,0:0:0:0:
252,200,318238,2,0,B|288:220|324:204|324:204|360:232|360:232|404:204|448:224,1,198.000006042481,6|6,0:0|0:0,0:0:0:0:
216,276,318724,1,2,0:0:0:0:
204,284,318805,1,2,0:0:0:0:
192,292,318886,53,8,0:0:0:0:
143,300,318967,1,8,0:0:0:0:
95,290,319048,1,8,0:0:0:0:
55,262,319129,1,8,0:0:0:0:
28,220,319210,1,8,0:0:0:0:
19,172,319291,1,8,0:0:0:0:
28,124,319373,6,0,B|131:76|131:168|239:108,1,198.000006042481,6|2,0:0|0:0,0:0:0:0:
280,52,319778,1,2,0:0:0:0:
280,52,319859,2,0,P|280:28|264:0,1,49.5000015106202,12|0,0:0|0:0,0:0:0:0:
300,144,320021,1,2,0:0:0:0:
300,144,320103,1,2,0:0:0:0:
300,144,320184,2,0,P|328:156|352:152,1,49.5000015106202,6|0,0:0|0:0,0:0:0:0:
232,200,320346,1,2,0:0:0:0:
232,200,320427,1,2,0:0:0:0:
232,200,320508,2,0,P|220:224|224:256,1,49.5000015106202,12|0,0:0|0:0,0:0:0:0:
220,117,320670,5,2,0:0:0:0:
220,117,320751,1,2,0:0:0:0:
220,117,320832,2,0,P|196:112|160:120,1,49.5000015106202,6|0,0:0|0:0,0:0:0:0:
316,232,320994,1,2,0:0:0:0:
316,232,321076,1,2,0:0:0:0:
316,232,321157,2,0,P|340:240|368:236,1,49.5000015106202,12|0,0:0|0:0,0:0:0:0:
156,176,321319,1,2,0:0:0:0:
156,176,321400,1,2,0:0:0:0:
156,176,321481,2,0,P|144:204|144:232,1,49.5000015106202,6|0,0:0|0:0,0:0:0:0:
300,144,321643,2,0,P|312:116|312:88,1,49.5000015106202,2|2,0:0|0:0,0:0:0:0:
232,200,321805,2,0,P|232:240|240:264,1,49.5000015106202,10|0,0:0|0:0,0:0:0:0:
240,32,321967,54,0,P|176:32|92:132,1,198.000006042481,6|2,0:0|0:0,0:0:0:0:
92,216,322373,1,2,0:0:0:0:
92,232,322454,1,12,0:0:0:0:
300,144,322616,1,2,0:0:0:0:
300,128,322697,1,2,0:0:0:0:
300,112,322778,1,12,0:0:0:0:
92,248,322940,1,2,0:0:0:0:
92,264,323021,1,2,0:0:0:0:
92,280,323103,1,14,0:0:0:0:
300,96,323265,5,8,0:0:0:0:
300,80,323346,1,8,0:0:0:0:
300,64,323427,5,10,0:0:0:0:
256,87,323508,1,2,0:0:0:0:
227,126,323589,1,2,0:0:0:0:
216,174,323670,1,2,0:0:0:0:
225,222,323751,53,10,0:0:0:0:
178,207,323832,1,2,0:0:0:0:
145,172,323913,1,2,0:0:0:0:
133,124,323994,1,2,0:0:0:0:
146,77,324075,5,2,0:0:0:0:
100,95,324157,1,2,0:0:0:0:
65,128,324238,1,2,0:0:0:0:
44,173,324319,1,2,0:0:0:0:
43,222,324400,1,2,0:0:0:0:
60,268,324481,1,2,0:0:0:0:
93,304,324562,6,0,B|156:305|156:305|226:327|226:327|293:327,1,198.000006042481,6|2,0:0|0:0,0:0:0:0:
376,304,324967,1,2,0:0:0:0:
388,289,325048,1,14,0:0:0:0:
398,273,325129,1,2,0:0:0:0:
402,254,325210,1,2,0:0:0:0:
402,235,325291,1,2,0:0:0:0:
400,217,325372,1,14,0:0:0:0:
396,198,325453,1,2,0:0:0:0:
393,179,325534,1,2,0:0:0:0:
391,160,325615,1,2,0:0:0:0:
391,141,325696,1,14,0:0:0:0:
396,123,325777,1,2,0:0:0:0:
404,106,325858,1,2,0:0:0:0:
416,91,325939,1,2,0:0:0:0:
431,78,326021,53,14,0:0:0:0:
428,96,326102,1,2,0:0:0:0:
423,115,326183,1,2,0:0:0:0:
415,132,326264,1,2,0:0:0:0:
404,148,326345,1,14,0:0:0:0:
391,161,326426,1,2,0:0:0:0:
376,173,326507,1,2,0:0:0:0:
359,181,326588,1,2,0:0:0:0:
341,187,326669,1,14,0:0:0:0:
322,189,326750,1,2,0:0:0:0:
304,188,326832,2,0,P|272:176|244:144,1,49.5000015106202,2|2,0:0|0:0,0:0:0:0:
216,76,326994,2,0,P|200:56|172:36,1,49.5000015106202,14|0,0:0|0:0,0:0:0:0:
84,20,327157,1,2,0:0:0:0:
84,20,327238,1,2,0:0:0:0:
84,20,327318,5,10,0:0:0:0:
65,25,327399,1,2,0:0:0:0:
48,33,327480,1,2,0:0:0:0:
33,44,327561,1,2,0:0:0:0:
21,59,327642,1,14,0:0:0:0:
12,76,327723,1,2,0:0:0:0:
6,94,327804,1,2,0:0:0:0:
5,113,327885,1,2,0:0:0:0:
7,134,327967,5,14,0:0:0:0:
29,139,328048,1,2,0:0:0:0:
49,150,328129,1,2,0:0:0:0:
65,165,328210,1,2,0:0:0:0:
78,184,328291,1,14,0:0:0:0:
86,206,328372,1,2,0:0:0:0:
88,229,328453,1,2,0:0:0:0:
84,251,328534,1,2,0:0:0:0:
77,273,328616,53,14,0:0:0:0:
68,256,328697,1,2,0:0:0:0:
62,238,328778,1,2,0:0:0:0:
59,219,328859,1,2,0:0:0:0:
59,200,328940,1,14,0:0:0:0:
63,181,329021,1,2,0:0:0:0:
70,163,329102,1,2,0:0:0:0:
79,147,329183,1,2,0:0:0:0:
92,133,329264,5,10,0:0:0:0:
208,228,329427,1,2,0:0:0:0:
304,140,329589,1,2,0:0:0:0:
77,273,329751,69,6,0:0:0:0:
100,308,331049,5,6,0:0:0:0:
72,336,332346,5,6,0:0:0:0:
48,304,333643,53,6,0:0:0:0:
256,176,334940,6,0,B|308:176|308:176|384:192|384:192|440:192,1,180,6|2,0:0|0:0,0:0:0:0:
476,136,335345,1,2,0:0:0:0:
476,136,335426,1,14,0:0:0:0:
228,108,335589,1,2,0:0:0:0:
228,108,335670,1,2,0:0:0:0:
228,108,335751,2,0,P|188:160|192:212,1,90,6|2,0:0|0:0,0:0:0:0:
300,116,335994,1,2,0:0:0:0:
300,116,336075,2,0,P|340:64|336:12,1,90,14|2,0:0|0:0,0:0:0:0:
268,48,336318,1,2,0:0:0:0:
268,48,336399,5,6,0:0:0:0:
404,128,336561,1,2,0:0:0:0:
228,108,336724,2,0,L|136:108,1,90,14|2,0:0|0:0,0:0:0:0:
100,48,336967,1,2,0:0:0:0:
100,48,337048,1,6,0:0:0:0:
256,176,337210,1,6,0:0:0:0:
72,116,337372,1,8,0:0:0:0:
228,240,337534,54,0,B|280:240|280:240|352:256|352:256|408:256,1,180,6|2,0:0|0:0,0:0:0:0:
444,200,337940,1,2,0:0:0:0:
444,200,338021,1,14,0:0:0:0:
256,176,338183,1,2,0:0:0:0:
256,176,338264,1,2,0:0:0:0:
256,176,338345,2,0,P|200:176|168:204,1,90,6|2,0:0|0:0,0:0:0:0:
320,204,338589,1,2,0:0:0:0:
320,204,338670,2,0,P|322:148|296:114,1,90,14|2,0:0|0:0,0:0:0:0:
256,56,338913,1,2,0:0:0:0:
256,56,338994,6,0,L|352:56,1,90,6|2,0:0|0:0,0:0:0:0:
220,116,339238,1,2,0:0:0:0:
220,116,339318,2,0,L|128:116,1,90,14|2,0:0|0:0,0:0:0:0:
88,168,339561,1,2,0:0:0:0:
88,168,339643,1,6,0:0:0:0:
188,52,339805,1,2,0:0:0:0:
188,52,339886,1,2,0:0:0:0:
188,52,339967,1,10,0:0:0:0:
124,232,340130,6,0,B|143:289|143:289|209:272|241:347,1,180,6|2,0:0|0:0,0:0:0:0:
168,360,340534,1,2,0:0:0:0:
168,360,340616,1,14,0:0:0:0:
196,216,340778,1,2,0:0:0:0:
196,216,340859,1,2,0:0:0:0:
196,216,340940,2,0,B|240:224|240:224|276:256,1,90,6|2,0:0|0:0,0:0:0:0:
156,156,341184,1,2,0:0:0:0:
156,156,341264,2,0,B|159:111|159:111|192:68,1,90,14|2,0:0|0:0,0:0:0:0:
232,20,341507,1,2,0:0:0:0:
232,20,341588,54,0,L|136:20,1,90,6|2,0:0|0:0,0:0:0:0:
264,188,341832,1,2,0:0:0:0:
264,188,341913,2,0,L|360:188,1,90,14|2,0:0|0:0,0:0:0:0:
400,136,342156,1,2,0:0:0:0:
400,136,342237,1,6,0:0:0:0:
296,256,342399,1,6,0:0:0:0:
360,72,342561,1,8,0:0:0:0:
328,324,342724,6,0,B|240:336|240:268|144:300,1,180,6|2,0:0|0:0,0:0:0:0:
100,336,343129,1,2,0:0:0:0:
100,336,343210,1,14,0:0:0:0:
296,256,343372,1,2,0:0:0:0:
296,256,343453,1,2,0:0:0:0:
296,256,343534,2,0,P|332:216|336:172,1,90,6|2,0:0|0:0,0:0:0:0:
264,188,343778,1,2,0:0:0:0:
236,188,343859,1,14,0:0:0:0:
360,72,344021,5,2,0:0:0:0:
364,56,344102,1,2,0:0:0:0:
368,40,344183,2,0,P|340:24|316:20,1,45,8|8,0:0|0:0,0:0:0:0:
280,92,344345,2,0,P|258:85|239:73,1,45,2|2,0:0|0:0,0:0:0:0:
424,116,344507,1,8,0:0:0:0:
424,116,344588,1,8,0:0:0:0:
424,116,344670,2,0,L|440:164,1,45,2|2,0:0|0:0,0:0:0:0:
296,256,344832,53,8,0:0:0:0:
253,268,344913,1,2,0:0:0:0:
209,260,344994,1,2,0:0:0:0:
173,233,345075,1,2,0:0:0:0:
153,193,345156,2,0,P|152:180|172:124,1,45,2|2,0:0|0:0,0:0:0:0:
216,332,345319,6,0,B|176:340|176:340|132:320|132:320|88:352|28:324,1,180,6|2,0:0|0:0,0:0:0:0:
28,240,345724,1,2,0:0:0:0:
28,240,345805,1,10,0:0:0:0:
253,268,345967,1,2,0:0:0:0:
253,268,346048,1,2,0:0:0:0:
253,268,346129,2,0,P|284:312|284:360,1,90,6|2,0:0|0:0,0:0:0:0:
240,200,346373,1,2,0:0:0:0:
240,200,346453,2,0,P|246:155|276:124,1,90,10|2,0:0|0:0,0:0:0:0:
344,64,346697,1,0,0:0:0:0:
344,64,346778,6,0,L|244:64,1,90,6|2,0:0|0:0,0:0:0:0:
308,192,347021,1,2,0:0:0:0:
308,192,347102,2,0,L|408:192,1,90,10|2,0:0|0:0,0:0:0:0:
456,148,347345,1,6,0:0:0:0:
456,148,347426,1,6,0:0:0:0:
240,200,347588,1,8,0:0:0:0:
392,132,347751,1,2,0:0:0:0:
190,149,347913,54,0,P|170:213|262:265,1,180,6|2,0:0|0:0,0:0:0:0:
320,260,348318,1,2,0:0:0:0:
320,260,348399,1,10,0:0:0:0:
208,80,348561,1,2,0:0:0:0:
208,80,348643,1,2,0:0:0:0:
208,80,348724,2,0,P|152:88|120:124,1,90,6|2,0:0|0:0,0:0:0:0:
280,72,348967,1,2,0:0:0:0:
280,72,349048,2,0,P|336:64|368:28,1,90,10|2,0:0|0:0,0:0:0:0:
256,136,349291,1,2,0:0:0:0:
256,136,349373,6,0,P|280:200|316:212,1,90,6|2,0:0|0:0,0:0:0:0:
190,149,349616,1,2,0:0:0:0:
190,149,349697,2,0,P|152:184|144:232,1,90,12|0,0:0|0:0,0:0:0:0:
168,284,349940,1,2,0:0:0:0:
176,300,350021,5,10,0:0:0:0:
216,320,350102,1,10,0:0:0:0:
260,328,350183,1,10,0:0:0:0:
304,323,350264,1,10,0:0:0:0:
346,306,350345,1,10,0:0:0:0:
381,278,350426,1,10,0:0:0:0:
408,236,350508,54,0,P|432:160|397:37,1,198.000006042481,6|2,0:0|0:0,0:0:0:0:
320,32,350913,1,2,0:0:0:0:
320,32,350994,1,10,0:0:0:0:
304,323,351157,1,2,0:0:0:0:
304,323,351238,1,2,0:0:0:0:
304,323,351319,2,0,P|349:353|425:357,1,99.0000030212403,6|2,0:0|0:0,0:0:0:0:
312,236,351562,1,2,0:0:0:0:
312,236,351643,2,0,P|263:245|223:273,1,99.0000030212403,10|2,0:0|0:0,0:0:0:0:
381,278,351886,1,2,0:0:0:0:
381,278,351967,6,0,P|401:218|393:154,1,99.0000030212403,6|2,0:0|0:0,0:0:0:0:
392,88,352211,1,2,0:0:0:0:
392,88,352292,1,10,0:0:0:0:
304,323,352454,1,2,0:0:0:0:
304,323,352535,1,2,0:0:0:0:
304,323,352616,1,6,0:0:0:0:
496,208,352778,1,6,0:0:0:0:
488,332,352940,1,8,0:0:0:0:
236,288,353103,6,0,P|228:212|320:136,1,198.000006042481,6|2,0:0|0:0,0:0:0:0:
400,182,353508,1,2,0:0:0:0:
400,182,353589,1,14,0:0:0:0:
104,112,353751,1,2,0:0:0:0:
104,112,353832,1,2,0:0:0:0:
104,112,353913,1,6,0:0:0:0:
288,348,354076,1,2,0:0:0:0:
288,348,354157,1,2,0:0:0:0:
288,348,354238,1,14,0:0:0:0:
280,32,354400,53,2,0:0:0:0:
280,32,354481,1,2,0:0:0:0:
280,32,354562,1,6,0:0:0:0:
112,288,354724,1,2,0:0:0:0:
112,288,354805,1,2,0:0:0:0:
112,288,354886,1,14,0:0:0:0:
400,182,355049,5,2,0:0:0:0:
400,182,355130,1,2,0:0:0:0:
400,182,355211,2,0,P|408:150|404:118,1,49.5000015106202,8|8,0:0|0:0,0:0:0:0:
104,112,355373,2,0,P|96:135|96:160,1,49.5000015106202,8|8,0:0|0:0,0:0:0:0:
420,168,355535,2,0,P|428:136|424:104,1,49.5000015106202,8|8,0:0|0:0,0:0:0:0:
80,124,355697,5,6,0:0:0:0:
