osu file format v14

[General]
AudioFilename: The Grimoire of Alice.mp3
AudioLeadIn: 1500
PreviewTime: 90924
Countdown: 0
SampleSet: Soft
StackLeniency: 0.7
Mode: 0
LetterboxInBreaks: 0
WidescreenStoryboard: 0

[Editor]
DistanceSpacing: 0.6
BeatDivisor: 4
GridSize: 4
TimelineZoom: 3.4

[Metadata]
Title:The Grimoire of Alice ~ Alice in Wonderland
TitleUnicode:The Grimoire of Alice ~ 不思議の国のアリス
Artist:Demetori
ArtistUnicode:Demetori
Creator:sjoy
Version:Lolis
Source:Touhou
Tags:le Grimoire De reve 東方怪綺談 ~ Mystic Square th05 ZUN
BeatmapID:628369
BeatmapSetID:277279

[Difficulty]
HPDrainRate:6.5
CircleSize:4.5
OverallDifficulty:8.5
ApproachRate:9
SliderMultiplier:2
SliderTickRate:2

[Events]
//Background and Video events
0,0,"bg.jpg",0,0
//Break Periods
//Storyboard Layer 0 (Background)
//Storyboard Layer 1 (Fail)
//Storyboard Layer 2 (Pass)
//Storyboard Layer 3 (Foreground)
//Storyboard Sound Samples

[TimingPoints]
410,342.857142857143,4,2,1,80,1,0
410,-100,4,2,1,65,0,0
11381,-100,4,2,2,75,0,0
22352,-100,4,2,2,60,0,0
55267,-100,4,2,1,70,0,0
60752,-100,4,2,2,70,0,0
64867,-100,4,2,2,50,0,0
65210,-100,4,2,2,60,0,0
65552,-100,4,2,2,70,0,0
65895,-100,4,2,2,80,0,0
66238,-100,4,2,2,70,0,0
89552,-100,4,2,1,70,0,0
90924,-90.9090909090909,4,2,2,75,0,1
112867,-133.333333333333,4,2,1,60,0,0
132067,-133.333333333333,4,2,1,50,0,0
132752,-133.333333333333,4,2,1,60,0,0
133438,-133.333333333333,4,2,1,70,0,0
134810,-100,4,2,2,70,0,0
156752,-133.333333333333,4,2,2,60,0,0
158467,-133.333333333333,4,2,2,5,0,0
158810,-133.333333333333,4,2,2,60,0,0
161210,-133.333333333333,4,2,2,5,0,0
161381,-133.333333333333,4,2,2,60,0,0
162752,-133.333333333333,4,2,2,50,0,0
165667,-133.333333333333,4,2,2,60,0,0
166010,-133.333333333333,4,2,2,70,0,0
167038,-133.333333333333,4,2,2,80,0,0
167724,-100,4,2,2,70,0,0
186924,-100,4,2,1,70,0,0
189667,-100,4,2,2,70,0,0
200638,-100,4,2,1,70,0,0
215724,-90.9090909090909,4,2,2,75,0,1
237667,-133.333333333333,4,2,1,65,0,0
239038,-133.333333333333,4,2,1,55,0,0
240410,-100,4,2,2,70,0,0
268867,-100,4,2,1,70,0,0
269038,-100,4,2,2,70,0,0
282924,-133.333333333333,4,2,1,70,0,0
283610,-100,4,2,1,70,0,0
284295,-100,4,2,1,65,0,0
295267,-100,4,2,2,70,0,0
302981,-80,4,2,2,70,0,0
303495,-100,4,2,2,70,0,0
304524,-80,4,2,2,70,0,0
304867,-100,4,2,2,70,0,0
306238,-100,4,2,2,60,0,0
307610,-100,4,2,2,80,0,0

[Colours]
Combo1 : 255,255,128
Combo2 : 140,255,100
Combo3 : 250,180,220
Combo4 : 172,251,253

[HitObjects]
36,135,410,6,0,P|121:91|228:119,1,200,12|8,0:0|0:0,0:0:0:0:
139,223,924,1,2,0:0:0:0:
139,223,1010,1,0,0:0:0:0:
139,223,1095,2,0,L|159:339,1,100,10|0,0:0|0:0,0:0:0:0:
299,205,1438,2,0,L|331:93,1,100,10|0,0:0|0:0,0:0:0:0:
266,301,1781,5,10,0:0:0:0:
262,314,1867,1,0,0:0:0:0:
259,327,1952,1,0,0:0:0:0:
349,272,2124,5,10,0:0:0:0:
345,285,2210,1,0,0:0:0:0:
342,298,2295,1,0,0:0:0:0:
429,245,2467,5,10,0:0:0:0:
425,258,2553,1,0,0:0:0:0:
422,271,2638,1,0,0:0:0:0:
512,216,2810,5,10,0:0:0:0:
508,229,2896,1,0,0:0:0:0:
505,242,2981,1,0,0:0:0:0:
367,137,3152,6,0,B|321:175|267:169|267:169|243:209|276:267,1,200,6|8,0:0|0:0,0:0:0:0:
119,283,3667,1,2,0:0:0:0:
110,272,3752,1,2,0:0:0:0:
100,261,3838,2,0,P|90:208|104:159,1,100,8|0,0:0|0:0,0:0:0:0:
211,18,4181,2,0,P|220:70|207:120,1,100,8|0,0:0|0:0,0:0:0:0:
329,63,4524,5,10,0:0:0:0:
340,57,4610,1,0,0:0:0:0:
352,51,4695,1,0,0:0:0:0:
483,126,4867,5,10,0:0:0:0:
471,120,4953,1,0,0:0:0:0:
460,114,5038,1,0,0:0:0:0:
343,193,5210,5,10,0:0:0:0:
355,187,5296,1,0,0:0:0:0:
366,181,5381,1,0,0:0:0:0:
497,256,5553,5,10,0:0:0:0:
485,250,5639,1,0,0:0:0:0:
474,244,5724,1,0,0:0:0:0:
265,252,5895,6,0,B|301:302|347:300|347:300|401:297|434:340,1,200,4|8,0:0|0:0,0:0:0:0:
246,363,6410,1,2,0:0:0:0:
201,201,6581,2,0,L|174:98,1,100,8|0,0:0|0:0,0:0:0:0:
366,181,6924,2,0,L|394:65,1,100,8|0,0:0|0:0,0:0:0:0:
259,29,7267,5,10,0:0:0:0:
246,34,7352,1,2,0:0:0:0:
276,142,7524,1,2,0:0:0:0:
289,147,7609,1,10,0:0:0:0:
128,87,7781,1,2,0:0:0:0:
201,201,7952,5,10,0:0:0:0:
214,206,8037,1,2,0:0:0:0:
181,316,8209,1,2,0:0:0:0:
168,321,8294,1,10,0:0:0:0:
332,259,8466,1,2,0:0:0:0:
134,251,8638,6,0,P|111:203|126:152,1,100,4|0,0:0|0:0,0:0:0:0:
246,50,8981,2,0,P|272:92|276:142,1,100,8|0,0:0|0:0,0:0:0:0:
244,268,9324,1,4,0:3:0:0:
276,142,9495,1,4,0:3:0:0:
404,169,9667,1,4,0:3:0:0:
373,294,9838,1,4,0:3:0:0:
244,268,10010,5,4,0:0:0:0:
138,110,10181,1,4,0:3:0:0:
301,11,10353,1,4,0:0:0:0:
404,169,10524,1,4,0:3:0:0:
276,142,10695,5,4,0:3:0:0:
254,142,10781,1,4,0:3:0:0:
232,146,10867,1,4,0:3:0:0:
214,159,10952,1,4,0:3:0:0:
198,174,11038,2,0,L|210:227,1,50,8|8,0:0|0:0,0:0:0:0:
289,294,11210,2,0,L|277:241,1,50,8|8,0:0|0:0,0:0:0:0:
204,360,11381,6,0,P|248:371|323:351,1,100,4|8,0:0|0:0,0:0:0:0:
450,319,11724,2,0,P|406:308|331:328,1,100,0|8,0:0|0:0,0:0:0:0:
162,244,12067,2,0,P|157:208|163:125,1,100,0|8,0:0|0:0,0:0:0:0:
43,277,12410,2,0,P|47:313|42:396,1,100,0|8,0:0|0:0,0:0:0:0:
162,244,12752,6,0,P|203:273|252:280,1,100,2|8,0:0|0:0,0:0:0:0:
261,280,13010,1,0,0:0:0:0:
270,279,13095,1,0,0:0:0:0:
363,219,13267,1,8,0:0:0:0:
268,165,13438,2,0,P|217:168|172:149,1,100,2|8,0:0|0:0,0:0:0:0:
164,143,13696,1,0,0:0:0:0:
156,136,13781,1,0,0:0:0:0:
163,26,13953,1,8,0:0:0:0:
27,164,14124,6,0,B|61:251|61:251|106:215|162:244,1,200,4|0,0:0|0:0,0:0:0:0:
324,277,14638,1,8,0:0:0:0:
324,277,14724,1,0,0:0:0:0:
324,277,14810,2,0,L|353:164,1,100,0|8,0:0|0:0,0:0:0:0:
264,28,15152,1,2,0:0:0:0:
250,30,15238,1,0,0:0:0:0:
236,31,15324,1,8,0:0:0:0:
223,36,15410,1,0,0:0:0:0:
213,46,15495,6,0,L|194:103,3,50,4|0|8|0,0:0|0:0|0:0|0:0,0:0:0:0:
80,104,15838,2,0,L|99:161,3,50,0|0|8|0,0:0|0:0|0:0|0:0,0:0:0:0:
160,208,16181,2,0,L|141:265,3,50,4|0|8|0,0:0|0:0|0:0|0:0,0:0:0:0:
227,170,16524,1,8,0:0:0:0:
262,165,16610,1,8,0:0:0:0:
297,171,16695,1,8,0:0:0:0:
327,190,16781,1,8,0:0:0:0:
342,222,16867,6,0,B|361:301|407:297|407:297|476:232,1,200,4|0,0:0|0:0,0:0:0:0:
236,322,17381,2,0,L|122:316,1,100,10|0,0:0|0:0,0:0:0:0:
20,308,17724,1,8,0:0:0:0:
158,210,17895,2,0,L|175:111,1,100,2|8,0:0|0:0,0:0:0:0:
43,26,18238,5,4,0:0:0:0:
175,112,18410,1,8,0:0:0:0:
175,112,18495,1,2,0:0:0:0:
175,112,18581,2,0,P|130:130|48:128,1,100,0|10,0:0|0:0,0:0:0:0:
259,69,18924,1,2,0:0:0:0:
385,154,19096,1,8,0:0:0:0:
385,154,19181,1,2,0:0:0:0:
385,154,19267,2,0,P|340:172|258:170,1,100,0|10,0:0|0:0,0:0:0:0:
158,210,19610,6,0,L|176:283,1,50,10|8,0:0|0:0,0:0:0:0:
266,293,19781,2,0,L|248:220,1,50,8|8,0:0|0:0,0:0:0:0:
362,228,19952,5,4,0:3:0:0:
384,226,20038,1,4,0:3:0:0:
406,221,20124,1,4,0:3:0:0:
426,210,20210,1,4,0:3:0:0:
441,193,20295,1,4,0:3:0:0:
450,172,20381,1,4,0:3:0:0:
453,149,20467,1,4,0:3:0:0:
446,127,20552,1,4,0:3:0:0:
435,108,20638,6,0,L|411:51,1,50,8|8,0:0|0:0,0:0:0:0:
312,33,20810,2,0,L|336:90,1,50,8|8,0:0|0:0,0:0:0:0:
231,113,20981,6,0,L|207:56,3,50,2|0|0|0,0:0|0:0|0:0|0:0,0:0:0:0:
121,155,21324,2,0,L|97:98,3,50
206,207,21667,1,0,0:0:0:0:
219,205,21752,1,0,0:0:0:0:
232,203,21838,1,0,0:0:0:0:
245,203,21924,1,0,0:0:0:0:
257,206,22010,1,4,0:3:0:0:
280,219,22095,1,4,0:3:0:0:
304,229,22181,1,4,0:3:0:0:
330,234,22267,1,4,0:3:0:0:
356,233,22352,6,0,B|415:219|462:248|462:248|436:335,1,200,4|0,0:0|0:0,0:0:0:0:
320,338,22867,1,10,0:0:0:0:
194,315,23038,1,2,0:0:0:0:
289,119,23210,1,8,0:0:0:0:
289,119,23295,1,0,0:0:0:0:
289,119,23381,2,0,L|280:219,1,100,2|8,0:0|0:0,0:0:0:0:
155,213,23724,6,0,B|131:132|131:132|67:108|17:164,1,200,2|0,0:0|0:0,0:0:0:0:
51,255,24238,1,10,0:0:0:0:
93,361,24410,1,2,0:0:0:0:
155,213,24581,1,8,0:0:0:0:
155,213,24667,1,0,0:0:0:0:
155,213,24752,1,2,0:0:0:0:
292,281,24924,1,8,0:0:0:0:
292,281,25010,1,0,0:0:0:0:
291,280,25095,6,0,P|341:289|390:281,1,100,2|8,0:0|0:0,0:0:0:0:
317,188,25438,2,0,P|271:179|219:186,1,100,0|10,0:0|0:0,0:0:0:0:
209,329,25781,1,2,0:0:0:0:
390,282,25952,1,8,0:0:0:0:
390,282,26038,1,2,0:0:0:0:
390,282,26124,2,0,P|427:250|447:194,1,100,0|8,0:0|0:0,0:0:0:0:
375,134,26467,5,2,0:0:0:0:
346,34,26638,1,8,0:0:0:0:
235,135,26810,1,2,0:0:0:0:
206,35,26981,1,8,0:0:0:0:
88,86,27152,5,2,0:0:0:0:
88,86,27210,1,0,0:0:0:0:
88,86,27267,2,0,L|96:129,1,33.3333333333333,0|8,0:0|0:0,0:0:0:0:
43,246,27495,1,2,0:0:0:0:
43,246,27553,1,0,0:0:0:0:
43,246,27610,2,0,L|31:193,1,33.3333333333333,0|8,0:0|0:0,0:0:0:0:
195,274,27838,6,0,P|292:298|390:282,1,200,4|0,0:0|0:0,0:0:0:0:
385,130,28352,1,10,0:0:0:0:
384,102,28438,1,0,0:0:0:0:
382,74,28524,2,0,P|330:70|275:86,1,100,2|8,0:0|0:0,0:0:0:0:
284,81,28781,1,0,0:0:0:0:
284,81,28867,1,2,0:0:0:0:
155,129,29038,1,8,0:0:0:0:
270,151,29210,6,0,P|234:218|111:236,1,200,2|0,0:0|0:0,0:0:0:0:
243,315,29724,1,8,0:0:0:0:
384,282,29896,2,0,P|436:278|484:285,1,100,2|8,0:0|0:0,0:0:0:0:
469,173,30238,1,2,0:0:0:0:
469,173,30295,1,0,0:0:0:0:
469,173,30352,2,0,L|461:118,1,33.3333333333333,0|8,0:0|0:0,0:0:0:0:
449,31,30581,6,0,B|391:38|391:38|343:75|380:182,1,200,4|0,0:0|0:0,0:0:0:0:
384,282,31095,1,10,0:0:0:0:
349,292,31181,1,0,0:0:0:0:
313,295,31267,1,0,0:0:0:0:
277,287,31352,1,0,0:0:0:0:
243,272,31438,1,8,0:0:0:0:
208,262,31524,1,0,0:0:0:0:
172,259,31610,1,2,0:0:0:0:
136,267,31695,1,0,0:0:0:0:
105,286,31781,1,8,0:0:0:0:
83,314,31867,1,0,0:0:0:0:
65,344,31952,6,0,B|30:299|39:250|39:250|81:243|136:267,1,200,4|0,0:0|0:0,0:0:0:0:
26,182,32467,2,0,L|-3:130,1,50,10|0,0:0|0:0,0:0:0:0:
76,101,32638,2,0,B|99:142|99:142|165:122,1,100,2|8,0:0|0:0,0:0:0:0:
184,202,32895,2,0,L|101:229,1,50,2|8,0:0|0:0,0:0:0:0:
213,141,33067,1,8,0:0:0:0:
249,125,33152,1,8,0:0:0:0:
288,131,33238,1,8,0:0:0:0:
322,151,33324,6,0,B|400:178|400:178|453:164|430:74,1,200,4|0,0:0|0:0,0:0:0:0:
348,291,33838,2,0,L|397:282,1,50,10|0,0:0|0:0,0:0:0:0:
266,308,34010,2,0,L|246:210,1,100,2|8,0:0|0:0,0:0:0:0:
166,228,34267,2,0,L|178:284,1,50,2|0,0:0|0:0,0:0:0:0:
347,291,34524,2,0,L|339:242,1,50,10|0,0:0|0:0,0:0:0:0:
322,151,34695,6,0,P|268:141|200:156,1,100,2|8,0:0|0:0,0:0:0:0:
67,224,35038,2,0,P|116:233|166:228,1,100,0|8,0:0|0:0,0:0:0:0:
322,151,35381,1,2,0:0:0:0:
209,13,35552,1,8,0:0:0:0:
209,13,35638,1,0,0:0:0:0:
209,13,35724,1,2,0:0:0:0:
232,194,35895,1,8,0:0:0:0:
261,65,36067,6,0,B|316:29|372:55|372:55|397:71|406:145,1,200,2|0,0:0|0:0,0:0:0:0:
403,129,36495,1,0,0:0:0:0:
403,129,36581,1,8,0:0:0:0:
267,155,36752,1,2,0:0:0:0:
398,232,36924,1,8,0:0:0:0:
398,232,37010,1,0,0:0:0:0:
398,232,37095,2,0,P|386:283|349:336,1,100,2|8,0:0|0:0,0:0:0:0:
469,320,37438,5,6,0:0:0:0:
469,320,37610,1,8,0:0:0:0:
302,244,37781,1,2,0:0:0:0:
302,244,37953,1,8,0:0:0:0:
445,172,38124,5,2,0:0:0:0:
445,172,38182,1,0,0:0:0:0:
445,172,38239,2,0,L|400:152,1,33.3333333333333,0|8,0:0|0:0,0:0:0:0:
345,25,38467,1,2,0:0:0:0:
345,25,38525,1,0,0:0:0:0:
345,25,38582,2,0,L|396:45,1,33.3333333333333,0|8,0:0|0:0,0:0:0:0:
213,73,38810,6,0,B|152:100|148:160|148:160|197:140|261:166,1,200,4|0,0:0|0:0,0:0:0:0:
100,250,39324,1,10,0:0:0:0:
72,249,39410,1,0,0:0:0:0:
44,247,39496,2,0,P|40:195|56:140,1,100,2|8,0:0|0:0,0:0:0:0:
130,172,39752,2,0,P|157:185|206:187,1,50,2|0,0:0|0:0,0:0:0:0:
295,340,40010,2,0,P|268:327|219:325,1,50,10|0,0:0|0:0,0:0:0:0:
319,277,40182,6,0,B|381:291|428:253|428:253|455:201|422:158,1,200,2|0,0:0|0:0,0:0:0:0:
291,178,40696,1,8,0:0:0:0:
413,90,40868,2,0,P|460:104|513:87,1,100,2|8,0:0|0:0,0:0:0:0:
501,210,41210,1,2,0:0:0:0:
501,210,41267,1,0,0:0:0:0:
501,210,41324,2,0,L|494:263,1,33.3333333333333,0|8,0:0|0:0,0:0:0:0:
389,296,41553,6,0,B|341:307|316:277|316:277|371:238|380:163,1,200,4|0,0:0|0:0,0:0:0:0:
231,217,42067,1,10,0:0:0:0:
191,209,42153,1,0,0:0:0:0:
158,185,42239,1,0,0:0:0:0:
134,152,42324,1,0,0:0:0:0:
127,112,42410,1,8,0:0:0:0:
138,73,42496,1,0,0:0:0:0:
168,46,42582,1,2,0:0:0:0:
207,41,42667,1,0,0:0:0:0:
245,51,42753,1,8,0:0:0:0:
275,76,42839,1,0,0:0:0:0:
285,114,42924,6,0,P|296:144|326:173,1,50,4|8,0:0|0:0,0:0:0:0:
387,181,43095,2,0,P|376:211|346:240,1,50,8|8,0:0|0:0,0:0:0:0:
269,218,43267,2,0,P|280:248|310:277,1,50,8|8,0:0|0:0,0:0:0:0:
379,300,43438,2,0,P|368:330|338:359,1,50,8|8,0:0|0:0,0:0:0:0:
238,319,43610,5,4,0:3:0:0:
213,313,43695,1,4,0:3:0:0:
188,306,43781,1,4,0:3:0:0:
164,298,43867,1,4,0:3:0:0:
139,293,43952,1,4,0:3:0:0:
114,287,44037,1,4,0:3:0:0:
89,280,44123,1,4,0:3:0:0:
65,272,44209,1,4,0:3:0:0:
40,265,44295,6,0,B|28:223|46:175|46:175|101:168|157:193,1,200,4|0,0:0|0:0,0:0:0:0:
269,218,44810,1,8,0:0:0:0:
148,112,44981,2,0,L|139:8,1,100,2|8,0:0|0:0,0:0:0:0:
328,37,45324,1,2,0:0:0:0:
353,34,45410,1,0,0:0:0:0:
377,36,45495,1,8,0:0:0:0:
401,41,45581,1,0,0:0:0:0:
421,55,45667,6,0,P|430:105|410:160,1,100,0|8,0:0|0:0,0:0:0:0:
472,337,46010,1,0,0:0:0:0:
447,340,46096,1,0,0:0:0:0:
423,338,46181,1,8,0:0:0:0:
399,333,46267,1,0,0:0:0:0:
379,319,46353,2,0,P|369:269|390:214,1,100,0|8,0:0|0:0,0:0:0:0:
248,281,46695,1,0,0:0:0:0:
115,228,46867,2,0,L|173:186,1,50,10|0,0:0|0:0,0:0:0:0:
105,127,47038,6,0,B|57:158|57:158|36:215,1,100,2|8,0:0|0:0,0:0:0:0:
182,133,47381,1,0,0:0:0:0:
206,137,47467,1,0,0:0:0:0:
230,137,47552,1,8,0:0:0:0:
254,133,47638,1,0,0:0:0:0:
278,128,47724,2,0,P|321:129|404:169,1,100,2|8,0:0|0:0,0:0:0:0:
511,314,48067,1,0,0:0:0:0:
487,318,48153,1,0,0:0:0:0:
463,318,48238,1,8,0:0:0:0:
439,314,48324,1,0,0:0:0:0:
415,309,48410,6,0,P|372:310|289:350,1,100,4|8,0:0|0:0,0:0:0:0:
163,333,48752,1,0,0:0:0:0:
143,316,48838,1,0,0:0:0:0:
122,300,48924,1,8,0:0:0:0:
103,283,49010,1,0,0:0:0:0:
82,268,49095,1,0,0:0:0:0:
208,217,49267,1,8,0:0:0:0:
52,179,49438,1,2,0:0:0:0:
183,127,49610,2,0,L|264:92,1,50,10|0,0:0|0:0,0:0:0:0:
318,71,49781,6,0,B|361:158|361:158|347:189|255:161,1,200,4|0,0:0|0:0,0:0:0:0:
362,245,50295,1,8,0:0:0:0:
362,245,50381,1,0,0:0:0:0:
362,245,50467,2,0,P|416:252|489:241,1,100,2|8,0:0|0:0,0:0:0:0:
422,155,50810,1,2,0:0:0:0:
396,341,50981,1,10,0:0:0:0:
396,341,51067,1,0,0:0:0:0:
396,341,51152,6,0,P|336:333|278:307,1,100,2|8,0:0|0:0,0:0:0:0:
182,235,51495,1,0,0:0:0:0:
157,230,51581,1,0,0:0:0:0:
132,235,51667,1,8,0:0:0:0:
112,250,51752,1,0,0:0:0:0:
97,270,51838,1,0,0:0:0:0:
86,369,52010,1,8,0:0:0:0:
50,199,52181,2,0,L|36:128,1,50,2|0,0:0|0:0,0:0:0:0:
126,152,52352,2,0,L|140:81,1,50,10|0,0:0|0:0,0:0:0:0:
210,173,52524,6,0,P|307:194|425:173,1,200,4|0,0:0|0:0,0:0:0:0:
491,112,53038,1,8,0:0:0:0:
320,71,53210,1,2,0:0:0:0:
320,71,53267,1,0,0:0:0:0:
320,71,53324,2,0,L|272:62,1,33.3333333333333,0|8,0:0|0:0,0:0:0:0:
133,31,53552,1,2,0:0:0:0:
133,31,53609,1,0,0:0:0:0:
133,31,53666,2,0,L|85:22,1,33.3333333333333,0|8,0:0|0:0,0:0:0:0:
50,123,53895,5,8,0:0:0:0:
55,147,53981,1,8,0:0:0:0:
60,171,54067,1,8,0:0:0:0:
64,195,54152,1,8,0:0:0:0:
107,199,54238,5,8,0:0:0:0:
102,223,54324,1,8,0:0:0:0:
97,247,54410,1,8,0:0:0:0:
93,271,54495,1,8,0:0:0:0:
122,265,54581,5,4,0:3:0:0:
151,262,54667,1,4,0:3:0:0:
180,264,54752,1,4,0:3:0:0:
208,274,54838,1,4,0:3:0:0:
235,285,54924,1,4,0:3:0:0:
264,292,55010,1,4,0:3:0:0:
293,291,55095,1,4,0:3:0:0:
322,288,55181,1,4,0:3:0:0:
351,282,55267,6,0,B|365:196|365:196|310:220|231:193,1,200,4|8,0:0|0:0,0:0:0:0:
76,81,55781,1,0,0:0:0:0:
76,81,55867,1,0,0:0:0:0:
76,81,55952,2,0,L|211:79,1,100,8|0,0:0|0:0,0:0:0:0:
306,124,56295,2,0,L|441:126,1,100,8|0,0:0|0:0,0:0:0:0:
489,273,56638,6,0,L|497:337,2,50,8|0|0,0:0|0:0|0:0,0:0:0:0:
304,361,56981,2,0,L|296:297,2,50,8|0|0,0:0|0:0|0:0,0:0:0:0:
120,258,57324,2,0,L|126:307,2,50,8|0|0,0:0|0:0|0:0,0:0:0:0:
312,173,57667,2,0,L|305:123,2,50,8|0|0,0:0|0:0|0:0,0:0:0:0:
103,108,58010,6,0,B|86:141|88:167|88:167|131:210|240:217,1,200,4|8,0:0|0:0,0:0:0:0:
396,218,58524,1,2,0:0:0:0:
424,207,58610,1,0,0:0:0:0:
449,191,58695,2,0,P|457:144|446:77,1,100,8|0,0:0|0:0,0:0:0:0:
333,241,59038,2,0,P|324:287|336:355,1,100,8|0,0:0|0:0,0:0:0:0:
202,314,59381,5,12,0:0:0:0:
178,295,59467,1,0,0:0:0:0:
159,271,59552,1,8,0:0:0:0:
147,243,59638,1,0,0:0:0:0:
143,213,59724,2,0,L|185:209,2,25,8|8|8,0:0|0:0|0:0,0:0:0:0:
114,221,59895,1,8,0:0:0:0:
84,217,59981,1,8,0:0:0:0:
59,199,60067,5,4,0:3:0:0:
37,178,60152,1,4,0:3:0:0:
27,149,60238,1,4,0:3:0:0:
29,119,60324,1,4,0:3:0:0:
40,91,60410,1,4,0:3:0:0:
68,99,60495,1,4,0:3:0:0:
97,102,60581,1,4,0:3:0:0:
127,102,60667,1,4,0:3:0:0:
156,96,60752,6,0,P|252:120|371:98,1,200,4|0,0:0|0:0,0:0:0:0:
433,48,61267,1,8,0:0:0:0:
512,184,61438,2,0,P|458:173|401:127,1,100,2|8,0:0|0:0,0:0:0:0:
259,36,61781,1,2,0:0:0:0:
234,33,61867,1,0,0:0:0:0:
209,32,61952,1,8,0:0:0:0:
184,35,62038,1,0,0:0:0:0:
160,43,62124,6,0,L|99:55,2,33.3333333333333,2|0|0,0:0|0:0|0:0,0:0:0:0:
130,104,62295,2,0,L|69:116,2,33.3333333333333,10|0|0,0:0|0:0|0:0,0:0:0:0:
102,161,62467,2,0,L|41:173,2,33.3333333333333,2|0|0,0:0|0:0|0:0,0:0:0:0:
72,222,62638,2,0,L|11:234,2,33.3333333333333,10|0|0,0:0|0:0|0:0,0:0:0:0:
121,277,62810,6,0,L|142:218,2,33.3333333333333,2|0|0,0:0|0:0|0:0,0:0:0:0:
185,256,62981,2,0,L|206:197,2,33.3333333333333,10|0|0,0:0|0:0|0:0,0:0:0:0:
246,238,63153,2,0,L|267:179,2,33.3333333333333,2|0|0,0:0|0:0|0:0,0:0:0:0:
310,218,63324,2,0,L|331:159,2,33.3333333333333,10|0|0,0:0|0:0|0:0,0:0:0:0:
371,247,63495,6,0,L|388:306,3,50,6|0|8|0,0:0|0:0|0:0|0:0,0:0:0:0:
462,216,63838,2,0,L|445:157,3,50,2|0|8|0,0:0|0:0|0:0|0:0,0:0:0:0:
355,125,64181,2,0,L|368:76,3,50,2|0|8|0,0:0|0:0|0:0|0:0,0:0:0:0:
256,69,64524,2,0,L|242:20,3,50,2|0|8|0,0:0|0:0|0:0|0:0,0:0:0:0:
136,109,64867,5,4,0:0:0:0:
105,124,64952,1,4,0:3:0:0:
73,139,65038,1,4,0:3:0:0:
42,156,65124,1,4,0:3:0:0:
38,195,65210,5,4,0:3:0:0:
74,178,65295,1,4,0:3:0:0:
111,163,65381,1,4,0:3:0:0:
147,145,65467,1,4,0:3:0:0:
161,187,65552,5,4,0:3:0:0:
122,210,65637,1,4,0:3:0:0:
82,231,65723,1,4,0:3:0:0:
41,250,65809,1,4,0:3:0:0:
40,300,65895,5,4,0:3:0:0:
86,281,65981,1,4,0:3:0:0:
132,261,66067,1,4,0:3:0:0:
177,242,66152,1,4,0:3:0:0:
222,220,66238,6,0,B|281:206|328:235|328:235|302:322,1,200,4|0,0:0|0:0,0:0:0:0:
181,327,66753,1,10,0:0:0:0:
161,187,66924,1,2,0:0:0:0:
306,121,67096,1,8,0:0:0:0:
306,121,67181,1,2,0:0:0:0:
306,121,67267,2,0,P|350:113|416:119,1,100,0|8,0:0|0:0,0:0:0:0:
256,31,67610,6,0,B|232:112|232:112|168:136|118:80,1,200,2|0,0:0|0:0,0:0:0:0:
47,17,68124,1,10,0:0:0:0:
92,194,68296,1,2,0:0:0:0:
261,160,68467,1,8,0:0:0:0:
261,160,68552,1,0,0:0:0:0:
261,160,68638,1,2,0:0:0:0:
73,107,68810,1,8,0:0:0:0:
194,251,68981,6,0,P|244:260|293:252,1,100,2|8,0:0|0:0,0:0:0:0:
133,323,69324,2,0,P|83:330|34:321,1,100,0|10,0:0|0:0,0:0:0:0:
168,164,69667,1,2,0:0:0:0:
280,285,69838,1,8,0:0:0:0:
280,285,69924,1,2,0:0:0:0:
280,285,70010,2,0,P|317:317|337:373,1,100,0|8,0:0|0:0,0:0:0:0:
327,207,70353,5,2,0:0:0:0:
189,231,70524,1,8,0:0:0:0:
352,167,70696,1,2,0:0:0:0:
210,193,70867,1,8,0:0:0:0:
369,131,71038,1,0,0:0:0:0:
369,131,71095,1,0,0:0:0:0:
369,131,71152,2,0,L|420:124,1,33.3333333333333,0|8,0:0|0:0,0:0:0:0:
233,155,71381,1,0,0:0:0:0:
233,155,71438,1,0,0:0:0:0:
233,155,71495,2,0,L|176:164,1,33.3333333333333,0|8,0:0|0:0,0:0:0:0:
104,133,71724,6,0,B|22:110|22:110|-6:132|10:226,1,200,4|0,0:0|0:0,0:0:0:0:
185,272,72238,1,10,0:0:0:0:
214,276,72324,1,0,0:0:0:0:
244,277,72410,2,0,P|297:271|359:283,1,100,2|8,0:0|0:0,0:0:0:0:
300,352,72667,2,0,P|270:358|232:353,1,50,2|0,0:0|0:0,0:0:0:0:
463,334,72924,2,0,P|492:328|531:333,1,50,10|0,0:0|0:0,0:0:0:0:
437,264,73096,6,0,P|398:201|276:202,1,200,2|0,0:0|0:0,0:0:0:0:
337,98,73610,1,8,0:0:0:0:
208,157,73782,2,0,P|194:204|209:251,1,100,2|8,0:0|0:0,0:0:0:0:
94,216,74124,1,2,0:0:0:0:
94,216,74181,1,0,0:0:0:0:
94,216,74238,2,0,L|67:159,1,33.3333333333333,0|8,0:0|0:0,0:0:0:0:
40,71,74467,6,0,B|70:21|70:21|124:-6|206:72,1,200,4|0,0:0|0:0,0:0:0:0:
346,22,74981,1,10,0:0:0:0:
351,57,75067,1,0,0:0:0:0:
350,94,75153,1,0,0:0:0:0:
337,128,75238,1,0,0:0:0:0:
318,160,75324,1,8,0:0:0:0:
304,194,75410,1,0,0:0:0:0:
297,229,75496,1,2,0:0:0:0:
300,266,75581,1,0,0:0:0:0:
315,299,75667,1,8,0:0:0:0:
341,324,75753,1,0,0:0:0:0:
367,336,75838,6,0,L|448:340,1,50,12|8,0:0|0:0,0:0:0:0:
512,280,76010,2,0,L|441:278,1,50,8|8,0:0|0:0,0:0:0:0:
383,209,76181,2,0,L|460:212,1,50,4|4,0:3|0:3,0:0:0:0:
512,142,76352,1,4,0:3:0:0:
512,142,76438,1,4,0:3:0:0:
512,142,76524,2,0,L|397:139,1,100,10|0,0:0|0:0,0:0:0:0:
358,71,76781,2,0,L|371:1,1,50,2|0,0:0|0:0,0:0:0:0:
278,105,76952,1,0,0:0:0:0:
278,105,77038,2,0,L|268:154,1,50,2|0,0:0|0:0,0:0:0:0:
175,194,77210,6,0,B|97:221|97:221|44:207|67:117,1,200,4|0,0:0|0:0,0:0:0:0:
268,154,77724,1,10,0:0:0:0:
268,154,77810,1,0,0:0:0:0:
268,154,77896,2,0,P|309:153|361:204,1,100,2|8,0:0|0:0,0:0:0:0:
199,126,78238,1,2,0:0:0:0:
286,243,78410,1,8,0:0:0:0:
332,73,78581,6,0,P|278:63|210:78,1,100,2|8,0:0|0:0,0:0:0:0:
384,252,78924,2,0,P|438:262|506:247,1,100,0|8,0:0|0:0,0:0:0:0:
499,139,79267,1,2,0:0:0:0:
339,192,79438,1,8,0:0:0:0:
419,96,79610,1,2,0:0:0:0:
308,289,79781,1,8,0:0:0:0:
308,289,79867,1,0,0:0:0:0:
308,289,79953,6,0,B|253:325|197:299|197:299|172:283|163:209,1,200,4|0,0:0|0:0,0:0:0:0:
150,129,80467,1,8,0:0:0:0:
369,239,80638,2,0,B|424:203|480:229|480:229|505:245|514:319,1,200,4|2,0:0|0:0,0:0:0:0:
415,332,81152,1,8,0:0:0:0:
485,144,81324,5,6,0:0:0:0:
511,303,81495,1,2,0:0:0:0:
369,239,81667,2,0,L|305:242,1,33.3333333333333,4|0,0:3|0:0,0:0:0:0:
350,180,81781,2,0,L|286:183,1,33.3333333333333,4|0,0:3|0:0,0:0:0:0:
335,120,81895,2,0,L|271:123,1,33.3333333333333,4|0,0:3|0:0,0:0:0:0:
321,59,82010,6,0,L|243:60,3,50,4|0|4|0,0:3|0:0|0:3|0:0,0:0:0:0:
183,125,82352,2,0,L|232:124,3,50,4|0|4|0,0:3|0:0|0:3|0:0,0:0:0:0:
87,111,82696,6,0,P|116:196|227:212,1,200,4|0,0:0|0:0,0:0:0:0:
365,155,83210,1,10,0:0:0:0:
394,150,83296,1,0,0:0:0:0:
423,157,83382,2,0,P|472:179|491:236,1,100,2|8,0:0|0:0,0:0:0:0:
331,255,83725,1,2,0:0:0:0:
395,68,83896,1,8,0:0:0:0:
253,54,84068,6,0,P|197:64|154:100,1,100,2|8,0:0|0:0,0:0:0:0:
154,203,84410,1,0,0:0:0:0:
311,143,84582,1,8,0:0:0:0:
90,152,84752,2,0,P|80:203|95:268,1,100,2|8,0:0|0:0,0:0:0:0:
237,322,85095,1,8,0:0:0:0:
223,155,85267,1,2,0:0:0:0:
223,155,85352,1,0,0:0:0:0:
223,155,85439,6,0,B|152:123|152:123|179:61|283:59,1,200,4|0,0:0|0:0,0:0:0:0:
250,61,85867,1,0,0:0:0:0:
250,61,85952,1,8,0:0:0:0:
408,55,86124,1,0,0:0:0:0:
432,50,86210,1,0,0:0:0:0:
455,43,86295,1,8,0:0:0:0:
477,32,86381,1,0,0:0:0:0:
497,16,86467,1,0,0:0:0:0:
512,114,86638,1,8,0:0:0:0:
430,167,86810,6,0,B|388:186|344:178|344:178|366:238|346:305,1,200,4|0,0:0|0:0,0:0:0:0:
456,274,87324,1,8,0:0:0:0:
272,236,87495,2,0,P|226:230|164:243,1,100,2|12,0:0|0:0,0:0:0:0:
208,347,87838,1,2,0:0:0:0:
48,234,88010,1,12,0:0:0:0:
252,161,88181,6,0,P|302:164|357:207,1,100,4|8,0:0|0:0,0:0:0:0:
348,198,88438,1,8,0:0:0:0:
355,204,88524,1,8,0:0:0:0:
360,212,88610,1,4,0:3:0:0:
365,220,88695,1,4,0:3:0:0:
369,229,88781,1,4,0:3:0:0:
371,238,88867,6,0,L|359:301,1,50,2|0,0:0|0:0,0:0:0:0:
288,269,89038,2,0,L|276:332,1,50,0|2,0:0|0:0,0:0:0:0:
206,293,89210,2,0,L|194:356,1,50
124,318,89381,2,0,L|112:381,1,50,2|0,0:0|0:0,0:0:0:0:
43,339,89552,6,0,B|60:249|60:249|47:244|47:244|64:139,1,200,6|8,0:0|0:0,0:0:0:0:
247,118,90067,1,2,0:0:0:0:
247,118,90152,1,0,0:0:0:0:
247,118,90238,2,0,L|325:133,1,50,2|0,0:0|0:0,0:0:0:0:
379,206,90410,2,0,L|301:191,1,50,4|0,0:3|0:0,0:0:0:0:
216,222,90581,2,0,L|294:237,1,50,4|0,0:3|0:0,0:0:0:0:
348,310,90753,2,0,L|270:295,1,50,4|0,0:3|0:0,0:0:0:0:
194,315,90924,6,0,B|121:262|121:262|101:196|186:139,1,220.000006713867,4|0,0:0|0:0,0:0:0:0:
169,150,91352,1,0,0:0:0:0:
169,150,91438,1,8,0:0:0:0:
326,219,91610,2,0,P|273:228|214:222,1,110.000003356934,2|8,0:0|0:0,0:0:0:0:
130,70,91952,1,2,0:0:0:0:
330,33,92124,1,8,0:0:0:0:
330,33,92210,1,0,0:0:0:0:
330,33,92295,6,0,P|342:88|333:160,1,110.000003356934,2|8,0:0|0:0,0:0:0:0:
507,359,92638,2,0,P|494:304|504:232,1,110.000003356934,0|8,0:0|0:0,0:0:0:0:
318,305,92981,1,2,0:0:0:0:
148,233,93152,1,8,0:0:0:0:
148,233,93238,1,0,0:0:0:0:
148,233,93324,2,0,P|140:183|176:113,1,110.000003356934,2|8,0:0|0:0,0:0:0:0:
326,219,93667,5,2,0:0:0:0:
241,72,93838,1,8,0:0:0:0:
233,51,93924,1,8,0:0:0:0:
79,143,94095,1,8,0:0:0:0:
71,164,94181,1,8,0:0:0:0:
215,292,94352,2,0,P|157:312|91:306,1,110.000003356934,2|8,0:0|0:0,0:0:0:0:
236,194,94695,1,2,0:0:0:0:
254,182,94781,1,0,0:0:0:0:
272,169,94867,1,8,0:0:0:0:
456,102,95038,6,0,P|464:155|453:209,1,110.000003356934,4|8,0:0|0:0,0:0:0:0:
272,169,95381,1,0,0:0:0:0:
254,156,95467,1,0,0:0:0:0:
236,144,95553,1,8,0:0:0:0:
277,257,95724,2,0,P|323:278|391:273,1,110.000003356934,2|8,0:0|0:0,0:0:0:0:
366,145,96067,1,0,0:0:0:0:
366,145,96124,1,0,0:0:0:0:
366,145,96181,2,0,L|333:98,1,36.6666677856446,0|8,0:0|0:0,0:0:0:0:
236,39,96410,6,0,P|177:25|111:47,1,110.000003356934,4|8,0:0|0:0,0:0:0:0:
32,131,96752,1,2,0:0:0:0:
38,152,96838,1,0,0:0:0:0:
44,173,96924,1,8,0:0:0:0:
189,207,97095,1,4,0:3:0:0:
88,301,97267,1,8,0:0:0:0:
238,330,97438,2,0,P|294:344|357:333,1,110.000003356934,10|0,0:0|0:0,0:0:0:0:
475,252,97781,5,2,0:0:0:0:
463,115,97952,1,8,0:0:0:0:
459,93,98038,1,8,0:0:0:0:
350,198,98210,1,8,0:0:0:0:
346,220,98296,1,8,0:0:0:0:
282,74,98467,1,4,0:3:0:0:
427,187,98638,1,8,0:0:0:0:
253,183,98810,1,10,0:0:0:0:
253,183,98867,1,0,0:0:0:0:
253,183,98924,2,0,L|193:180,1,36.6666677856446
109,259,99152,6,0,L|241:270,1,110.000003356934,4|8,0:0|0:0,0:0:0:0:
240,270,99410,1,0,0:0:0:0:
261,273,99495,2,0,P|267:328|246:379,1,110.000003356934,2|8,0:0|0:0,0:0:0:0:
398,293,99838,2,0,L|477:256,2,55.0000016784668,2|0|8,0:0|0:0|0:0,0:0:0:0:
323,117,100181,2,0,L|264:136,3,36.6666677856446,0|0|0|8,0:0|0:0|0:0|0:0,0:0:0:0:
75,50,100524,6,0,P|69:111|103:175,1,110.000003356934,4|8,0:0|0:0,0:0:0:0:
119,154,100781,1,8,0:0:0:0:
151,157,100867,1,8,0:0:0:0:
177,176,100952,1,8,0:0:0:0:
191,205,101038,1,8,0:0:0:0:
192,238,101124,1,8,0:0:0:0:
179,268,101210,6,0,L|131:301,1,55.0000016784668,4|4,0:3|0:3,0:0:0:0:
237,321,101381,2,0,L|285:354,1,55.0000016784668,4|4,0:3|0:3,0:0:0:0:
301,269,101552,2,0,L|349:236,1,55.0000016784668,4|4,0:3|0:3,0:0:0:0:
357,326,101724,2,0,L|405:359,1,55.0000016784668,4|4,0:3|0:3,0:0:0:0:
421,269,101895,6,4,B|451:242|451:242|386:170,1,110.000003356934,4|8,0:0|0:0,0:0:0:0:
404,190,102152,1,0,0:0:0:0:
404,190,102238,1,0,0:0:0:0:
419,82,102410,1,8,0:0:0:0:
284,148,102581,2,0,P|231:156|156:146,1,110.000003356934,2|8,0:0|0:0,0:0:0:0:
149,141,102838,1,0,0:0:0:0:
124,128,102924,2,0,P|92:176|87:241,1,110.000003356934,2|8,0:0|0:0,0:0:0:0:
32,94,103267,5,2,0:0:0:0:
61,70,103352,1,4,0:3:0:0:
98,62,103438,1,8,0:0:0:0:
136,63,103524,1,4,0:3:0:0:
172,76,103610,2,0,P|219:93|296:92,1,110.000003356934,0|8,0:0|0:0,0:0:0:0:
145,206,103952,2,0,P|140:266|183:338,1,110.000003356934,2|8,0:0|0:0,0:0:0:0:
158,311,104210,1,0,0:0:0:0:
158,311,104295,1,0,0:0:0:0:
31,256,104467,1,10,0:0:0:0:
235,210,104638,6,0,B|316:193|316:193|357:233|317:335,1,220.000006713867,4|0,0:0|0:0,0:0:0:0:
483,253,105152,1,8,0:0:0:0:
483,253,105238,1,0,0:0:0:0:
483,253,105324,2,0,P|495:189|461:123,1,110.000003356934,2|8,0:0|0:0,0:0:0:0:
414,61,105667,1,2,0:0:0:0:
401,208,105838,1,8,0:0:0:0:
312,34,106010,6,0,B|236:18|236:18|170:45|229:160,1,220.000006713867,4|0,0:0|0:0,0:0:0:0:
93,263,106524,1,10,0:0:0:0:
93,263,106610,1,0,0:0:0:0:
93,263,106695,2,0,L|59:143,1,110.000003356934,2|8,0:0|0:0,0:0:0:0:
251,241,107038,1,4,0:3:0:0:
282,231,107124,1,4,0:3:0:0:
315,231,107210,1,8,0:0:0:0:
347,235,107295,1,4,0:3:0:0:
374,253,107381,6,0,P|414:290|482:288,1,110.000003356934,4|8,0:0|0:0,0:0:0:0:
447,216,107638,1,0,0:0:0:0:
447,216,107724,2,0,P|406:180|343:172,1,110.000003356934,2|8,0:0|0:0,0:0:0:0:
204,179,108067,1,4,0:3:0:0:
327,76,108238,1,8,0:0:0:0:
124,143,108410,2,0,P|125:202|163:254,1,110.000003356934,10|0,0:0|0:0,0:0:0:0:
299,323,108752,6,0,P|258:359|181:356,1,110.000003356934,4|8,0:0|0:0,0:0:0:0:
228,285,109009,1,0,0:0:0:0:
228,285,109095,2,0,P|269:250|336:247,1,110.000003356934,2|8,0:0|0:0,0:0:0:0:
438,323,109438,1,4,0:3:0:0:
416,178,109610,2,0,L|408:118,1,55.0000016784668,12|0,0:0|0:0,0:0:0:0:
327,76,109781,2,0,L|335:136,1,55.0000016784668,4|0,0:0|0:0,0:0:0:0:
235,160,109952,1,8,0:0:0:0:
209,169,110038,1,0,0:0:0:0:
181,172,110124,6,0,P|125:174|66:153,1,110.000003356934,4|8,0:0|0:0,0:0:0:0:
29,34,110467,1,2,0:0:0:0:
211,78,110638,1,8,0:0:0:0:
131,247,110810,2,0,P|131:301|172:358,1,110.000003356934,2|8,0:0|0:0,0:0:0:0:
323,306,111152,2,0,L|404:284,1,55.0000016784668,4|0,0:0|0:0,0:0:0:0:
443,199,111324,2,0,L|524:177,1,55.0000016784668,8|0,0:0|0:0,0:0:0:0:
468,78,111495,5,4,0:3:0:0:
413,55,111610,2,0,L|406:10,2,36.6666677856446,4|0|4,0:3|0:0|0:3,0:0:0:0:
355,63,111838,1,4,0:3:0:0:
313,104,111952,1,4,0:3:0:0:
260,131,112067,1,4,0:3:0:0:
201,131,112181,1,4,0:3:0:0:
146,110,112295,1,4,0:3:0:0:
123,55,112410,2,4,P|86:49|46:68,1,73.3333355712891,4|4,0:3|0:3,0:0:0:0:
16,168,112638,2,4,P|52:173|93:155,1,73.3333355712891,4|4,0:3|0:3,0:0:0:0:
86,160,113210,5,8,0:0:0:0:
140,188,113324,1,4,0:3:0:0:
192,216,113438,1,4,0:3:0:0:
377,379,113895,1,8,0:0:0:0:
324,352,114009,1,4,0:3:0:0:
272,324,114123,1,4,0:3:0:0:
324,144,114467,5,4,0:3:0:0:
340,88,114581,1,8,0:0:0:0:
120,92,114924,1,8,0:0:0:0:
104,36,115038,1,4,0:3:0:0:
356,36,115381,1,4,0:3:0:0:
415,33,115495,1,4,0:3:0:0:
475,32,115610,5,8,0:0:0:0:
305,120,115952,1,8,0:0:0:0:
246,123,116066,1,4,0:3:0:0:
186,124,116181,1,4,0:3:0:0:
28,329,116638,1,8,0:0:0:0:
87,326,116752,1,4,0:3:0:0:
147,325,116867,1,4,0:3:0:0:
356,303,117210,6,0,L|375:372,1,50.0000019073487,4|8,0:3|0:0,0:0:0:0:
476,164,117667,2,0,L|458:88,1,50.0000019073487,8|4,0:0|0:3,0:0:0:0:
249,190,118124,2,0,L|174:197,1,50.0000019073487,4|4,0:3|0:3,0:0:0:0:
96,205,118352,5,4,0:0:0:0:
242,64,118695,2,0,L|317:57,1,50.0000019073487,8|4,0:0|0:3,0:0:0:0:
395,49,118923,1,4,0:3:0:0:
458,305,119381,2,0,L|439:232,1,50.0000019073487,8|4,0:0|0:3,0:0:0:0:
419,156,119609,1,4,0:3:0:0:
191,134,119952,6,0,L|259:140,1,50.0000019073487,4|8,0:3|0:0,0:0:0:0:
90,305,120410,2,0,L|15:298,1,50.0000019073487,8|4,0:0|0:3,0:0:0:0:
237,297,120752,1,8,0:0:0:0:
289,278,120867,1,4,0:3:0:0:
343,286,120981,1,4,0:3:0:0:
387,318,121095,6,0,L|467:315,1,50.0000019073487,4|0,0:0|0:0,0:0:0:0:
478,163,121438,1,8,0:0:0:0:
426,144,121553,1,4,0:3:0:0:
372,152,121667,1,4,0:3:0:0:
92,33,122124,1,8,0:0:0:0:
144,52,122239,1,4,0:3:0:0:
198,44,122353,1,4,0:3:0:0:
289,278,122695,6,0,L|254:204,1,50.0000019073487,4|8,0:3|0:0,0:0:0:0:
46,316,123152,2,0,L|21:404,1,50.0000019073487,8|4,0:0|0:3,0:0:0:0:
128,284,123381,2,0,L|153:372,1,50.0000019073487,4|4,0:3|0:3,0:0:0:0:
88,167,123610,2,0,L|63:255,1,50.0000019073487,4|4,0:3|0:3,0:0:0:0:
169,214,123838,6,0,L|188:237,2,25.0000009536744,4|0|4,0:3|0:0|0:3,0:0:0:0:
174,64,124181,1,4,0:3:0:0:
328,132,124438,1,4,0:3:0:0:
328,132,124524,2,0,P|376:184|464:188,1,150.000005722046,4|4,0:0|0:3,0:0:0:0:
443,271,124981,2,0,L|372:289,1,50.0000019073487,4|4,0:3|0:3,0:0:0:0:
298,295,125210,6,0,L|282:275,2,25.0000009536744,4|0|4,0:3|0:0|0:3,0:0:0:0:
443,271,125552,1,4,0:3:0:0:
466,108,125810,1,4,0:3:0:0:
466,108,125896,2,0,P|401:95|324:138,1,150.000005722046,4|4,0:0|0:3,0:0:0:0:
252,91,126352,2,0,P|222:77|185:73,1,50.0000019073487,4|4,0:3|0:3,0:0:0:0:
128,65,126581,5,4,0:3:0:0:
128,65,126638,1,4,0:3:0:0:
128,65,126695,1,4,0:3:0:0:
18,167,126923,1,4,0:3:0:0:
129,296,127181,1,4,0:3:0:0:
129,296,127267,2,0,P|200:322|289:314,1,150.000005722046,4|4,0:0|0:3,0:0:0:0:
350,279,127724,2,0,P|351:246|342:209,1,50.0000019073487,4|4,0:3|0:3,0:0:0:0:
327,148,127952,5,4,0:3:0:0:
327,148,128010,1,4,0:3:0:0:
327,148,128067,1,4,0:3:0:0:
261,12,128295,1,4,0:3:0:0:
413,31,128524,2,0,L|464:4,1,50.0000019073487,0|4,0:0|0:0,0:0:0:0:
491,161,128867,1,4,0:3:0:0:
432,298,129095,1,4,0:3:0:0:
285,256,129324,5,4,0:0:0:0:
262,254,129410,1,4,0:3:0:0:
239,253,129495,1,4,0:3:0:0:
216,250,129581,1,4,0:3:0:0:
193,249,129667,1,4,0:0:0:0:
43,81,130010,5,4,0:0:0:0:
66,83,130096,1,4,0:3:0:0:
89,84,130181,1,4,0:3:0:0:
112,87,130267,1,4,0:3:0:0:
135,88,130353,1,4,0:0:0:0:
355,34,130695,5,4,0:0:0:0:
332,32,130781,1,4,0:3:0:0:
309,31,130866,1,4,0:3:0:0:
286,28,130952,1,4,0:3:0:0:
263,27,131038,1,4,0:3:0:0:
428,188,131381,2,0,B|490:187|490:187|510:237|476:293,1,150.000005722046,4|0,0:0|0:0,0:0:0:0:
317,263,132067,5,4,0:0:0:0:
195,263,132238,1,4,0:3:0:0:
195,121,132410,1,4,0:3:0:0:
317,121,132581,1,4,0:3:0:0:
365,192,132752,5,4,0:3:0:0:
256,301,132924,1,4,0:3:0:0:
147,192,133095,1,4,0:3:0:0:
256,83,133267,1,4,0:3:0:0:
256,192,133438,5,4,0:0:0:0:
256,203,133524,1,4,0:3:0:0:
256,214,133610,1,4,0:3:0:0:
256,225,133695,1,4,0:3:0:0:
256,236,133781,1,4,0:3:0:0:
256,247,133867,1,4,0:3:0:0:
256,258,133953,1,4,0:3:0:0:
256,269,134038,1,4,0:3:0:0:
242,286,134124,5,4,0:0:0:0:
221,295,134210,1,4,0:3:0:0:
198,296,134295,1,4,0:3:0:0:
175,291,134381,1,4,0:3:0:0:
152,286,134467,1,4,0:3:0:0:
131,277,134553,1,4,0:3:0:0:
108,276,134638,1,4,0:3:0:0:
85,281,134724,1,4,0:3:0:0:
70,288,134810,6,0,P|41:248|38:176,1,100,4|8,0:0|0:0,0:0:0:0:
118,24,135152,2,0,P|147:64|150:136,1,100,0|10,0:0|0:0,0:0:0:0:
300,72,135495,1,0,0:0:0:0:
324,65,135581,1,0,0:0:0:0:
348,58,135667,1,8,0:0:0:0:
466,152,135838,1,2,0:0:0:0:
442,159,135924,1,0,0:0:0:0:
418,166,136010,1,8,0:0:0:0:
265,269,136181,6,0,P|236:229|233:157,1,100,4|8,0:0|0:0,0:0:0:0:
397,286,136523,2,0,P|426:326|429:398,1,100,0|10,0:0|0:0,0:0:0:0:
332,238,136866,1,0,0:0:0:0:
327,213,136952,1,0,0:0:0:0:
323,188,137038,1,8,0:0:0:0:
438,79,137210,1,2,0:0:0:0:
443,54,137296,1,0,0:0:0:0:
447,29,137382,1,8,0:0:0:0:
268,35,137552,6,0,L|158:45,1,100,4|8,0:0|0:0,0:0:0:0:
153,47,137810,1,0,0:0:0:0:
138,48,137895,1,0,0:0:0:0:
34,159,138067,2,0,L|144:149,1,100,10|0,0:0|0:0,0:0:0:0:
143,344,138410,1,8,0:0:0:0:
143,344,138495,1,0,0:0:0:0:
143,344,138581,2,0,B|141:304|141:304|131:300|131:300|124:222,1,100,2|8,0:0|0:0,0:0:0:0:
311,290,138924,6,0,B|379:306|379:306|427:299|427:299|517:321,1,200,4|0,0:0|0:0,0:0:0:0:
386,215,139438,1,10,0:0:0:0:
386,215,139524,1,0,0:0:0:0:
386,215,139610,2,0,L|384:100,1,100,0|8,0:0|0:0,0:0:0:0:
245,154,139952,1,2,0:0:0:0:
245,154,140010,1,0,0:0:0:0:
245,154,140067,2,0,L|193:161,1,33.3333333333333,0|8,0:0|0:0,0:0:0:0:
121,77,140295,6,0,B|223:65|223:65|295:98,1,150,4|0,0:0|0:0,0:0:0:0:
292,99,140638,1,2,0:0:0:0:
321,105,140724,1,0,0:0:0:0:
350,110,140810,1,8,0:0:0:0:
379,110,140895,1,0,0:0:0:0:
409,108,140981,1,2,0:0:0:0:
436,119,141067,1,0,0:0:0:0:
449,145,141152,1,10,0:0:0:0:
455,174,141238,1,0,0:0:0:0:
449,203,141324,1,2,0:0:0:0:
421,215,141410,1,0,0:0:0:0:
391,213,141495,1,8,0:0:0:0:
239,197,141667,5,2,0:0:0:0:
210,205,141752,1,0,0:0:0:0:
179,203,141838,1,8,0:0:0:0:
151,189,141924,1,0,0:0:0:0:
124,175,142010,1,2,0:0:0:0:
96,161,142096,1,0,0:0:0:0:
65,159,142182,1,8,0:0:0:0:
36,167,142267,1,0,0:0:0:0:
16,189,142352,2,0,L|34:251,3,50,2|0|10|0,0:0|0:0|0:0|0:0,0:0:0:0:
124,307,142695,2,0,L|106:245,3,50,2|0|8|0,0:0|0:0|0:0|0:0,0:0:0:0:
234,283,143039,5,6,0:0:0:0:
234,283,143125,1,0,0:0:0:0:
234,283,143210,2,0,L|293:269,1,50,8|0,0:0|0:0,0:0:0:0:
378,341,143381,1,2,0:0:0:0:
378,341,143467,1,0,0:0:0:0:
378,341,143552,2,0,L|319:355,1,50,8|0,0:0|0:0,0:0:0:0:
357,249,143724,5,2,0:0:0:0:
357,249,143810,1,0,0:0:0:0:
357,249,143895,2,0,L|416:235,1,50,8|0,0:0|0:0,0:0:0:0:
501,307,144066,1,2,0:0:0:0:
501,307,144152,1,0,0:0:0:0:
501,307,144238,2,0,L|442:321,1,50,8|0,0:0|0:0,0:0:0:0:
478,222,144410,6,0,L|456:156,1,50,4|8,0:0|0:0,0:0:0:0:
411,88,144581,2,0,L|391:146,1,50,8|8,0:0|0:0,0:0:0:0:
300,168,144752,2,0,L|278:102,1,50,8|8,0:0|0:0,0:0:0:0:
192,80,144924,2,0,L|172:138,1,50,8|8,0:0|0:0,0:0:0:0:
195,213,145095,5,4,0:3:0:0:
213,221,145181,1,4,0:3:0:0:
231,229,145267,1,4,0:3:0:0:
248,239,145352,1,4,0:3:0:0:
265,248,145438,1,4,0:3:0:0:
283,256,145524,1,4,0:3:0:0:
301,264,145610,1,4,0:3:0:0:
318,274,145695,1,4,0:3:0:0:
335,283,145781,6,0,L|310:337,3,50,4|0|8|0,0:0|0:0|0:0|0:0,0:0:0:0:
427,257,146124,2,0,L|452:311,3,50,2|0|8|0,0:0|0:0|0:0|0:0,0:0:0:0:
360,186,146467,1,2,0:0:0:0:
330,190,146552,1,0,0:0:0:0:
300,185,146638,1,10,0:0:0:0:
272,171,146724,1,0,0:0:0:0:
253,147,146810,1,2,0:0:0:0:
239,120,146895,1,0,0:0:0:0:
236,90,146981,1,8,0:0:0:0:
388,23,147152,5,4,0:0:0:0:
418,19,147237,1,0,0:0:0:0:
448,24,147323,1,8,0:0:0:0:
476,38,147409,1,0,0:0:0:0:
495,62,147495,1,2,0:0:0:0:
509,89,147580,1,0,0:0:0:0:
512,119,147666,1,8,0:0:0:0:
502,147,147752,1,0,0:0:0:0:
479,166,147838,2,0,L|429:185,3,50,2|0|10|0,0:0|0:0|0:0|0:0,0:0:0:0:
428,283,148181,2,0,L|478:264,3,50,2|0|8|0,0:0|0:0|0:0|0:0,0:0:0:0:
343,239,148524,5,4,0:0:0:0:
315,250,148610,1,0,0:0:0:0:
285,251,148695,1,8,0:0:0:0:
254,249,148781,1,0,0:0:0:0:
224,245,148867,1,2,0:0:0:0:
196,234,148953,1,0,0:0:0:0:
166,233,149038,1,8,0:0:0:0:
135,235,149124,1,0,0:0:0:0:
112,254,149210,5,2,0:0:0:0:
135,235,149295,1,0,0:0:0:0:
144,206,149381,1,10,0:0:0:0:
147,176,149467,1,0,0:0:0:0:
137,145,149552,1,2,0:0:0:0:
121,118,149638,1,0,0:0:0:0:
96,100,149724,1,8,0:0:0:0:
223,146,149895,5,4,0:0:0:0:
251,156,149981,1,0,0:0:0:0:
280,162,150067,1,8,0:0:0:0:
309,162,150152,1,0,0:0:0:0:
338,157,150238,1,2,0:0:0:0:
364,142,150324,1,0,0:0:0:0:
383,119,150410,1,8,0:0:0:0:
384,89,150495,1,0,0:0:0:0:
378,59,150581,2,0,L|316:35,3,50,2|0|10|0,0:0|0:0|0:0|0:0,0:0:0:0:
451,130,150924,2,0,L|497:148,3,50,2|0|8|0,0:0|0:0|0:0|0:0,0:0:0:0:
378,59,151267,5,6,0:0:0:0:
384,88,151352,1,0,0:0:0:0:
389,117,151438,1,8,0:0:0:0:
394,146,151524,1,0,0:0:0:0:
421,157,151610,5,2,0:0:0:0:
415,186,151695,1,0,0:0:0:0:
410,215,151781,1,8,0:0:0:0:
405,244,151867,1,0,0:0:0:0:
432,254,151952,5,2,0:0:0:0:
438,283,152037,1,0,0:0:0:0:
443,312,152123,1,10,0:0:0:0:
448,341,152209,1,0,0:0:0:0:
453,370,152295,1,2,0:0:0:0:
299,298,152467,1,10,0:0:0:0:
287,288,152552,1,0,0:0:0:0:
272,282,152638,6,0,B|210:244|210:244|169:280|213:363,1,200,4|0,0:0|0:0,0:0:0:0:
81,285,153152,1,10,0:0:0:0:
79,254,153238,1,0,0:0:0:0:
78,223,153324,1,2,0:0:0:0:
192,151,153495,1,12,0:0:0:0:
81,310,153667,1,4,0:0:0:0:
81,334,154010,6,0,L|77:233,1,100,12|0,0:0|0:0,0:0:0:0:
340,191,154352,2,0,L|349:78,1,100,8|0,0:0|0:0,0:0:0:0:
201,251,154695,2,0,L|192:138,1,100,8|0,0:0|0:0,0:0:0:0:
346,318,155038,1,4,0:0:0:0:
346,318,155381,6,0,P|381:322|450:304,1,66.6666666666667,4|0,0:0|0:3,0:0:0:0:
451,193,155610,2,0,P|471:164|490:95,1,66.6666666666667,4|0,0:3|0:3,0:3:0:0:
368,76,155838,2,0,P|353:43|303:-7,1,66.6666666666667,0|0,0:3|0:3,3:0:0:0:
211,48,156067,1,4,0:3:0:0:
158,25,156181,1,4,0:3:0:0:
99,37,156295,1,4,0:3:0:0:
56,74,156410,1,4,0:3:0:0:
45,130,156524,1,4,0:3:0:0:
61,188,156638,1,4,0:3:0:0:
142,121,156752,5,4,0:0:0:0:
256,192,156867,12,0,158467,0:0:0:0:
320,188,158810,5,4,0:0:0:0:
344,212,159495,1,4,0:0:0:0:
256,192,159581,12,0,161210,0:0:0:0:
188,244,161552,5,4,0:0:0:0:
164,268,162237,1,4,0:0:0:0:
140,292,162752,1,4,0:3:0:0:
140,292,162838,1,4,0:3:0:0:
140,292,162924,1,4,0:3:0:0:
40,180,163152,1,4,0:3:0:0:
160,88,163381,1,4,0:3:0:0:
256,192,163610,5,4,0:0:0:0:
280,215,164295,1,4,0:0:0:0:
305,237,164810,1,4,0:3:0:0:
305,237,164867,1,4,0:3:0:0:
305,237,164924,1,4,0:3:0:0:
305,237,164981,6,0,L|371:307,1,75.0000028610231,4|0,0:0|0:0,0:0:0:0:
421,358,165324,1,4,0:3:0:0:
468,256,165495,1,4,0:3:0:0:
471,143,165667,1,4,0:3:0:0:
413,46,165838,1,4,0:3:0:0:
301,28,166010,1,4,0:3:0:0:
188,30,166181,1,4,0:3:0:0:
83,71,166352,5,0,0:0:0:0:
77,85,166438,1,0,0:0:0:0:
75,99,166524,1,0,0:0:0:0:
75,114,166610,1,0,0:0:0:0:
78,128,166695,1,0,0:0:0:0:
84,142,166781,1,0,0:0:0:0:
86,156,166867,1,0,0:0:0:0:
86,171,166953,1,0,0:0:0:0:
83,185,167038,5,0,0:0:0:0:
94,204,167124,1,0,0:0:0:0:
113,215,167210,1,0,0:0:0:0:
134,221,167296,1,0,0:0:0:0:
155,225,167381,1,0,0:0:0:0:
176,231,167467,1,0,0:0:0:0:
195,242,167553,1,0,0:0:0:0:
206,261,167639,1,0,0:0:0:0:
206,288,167724,6,0,P|158:303|86:301,1,100,4|8,0:0|0:0,0:0:0:0:
10,193,168067,1,0,0:0:0:0:
161,140,168238,1,8,0:0:0:0:
175,137,168324,1,0,0:0:0:0:
190,138,168410,1,2,0:0:0:0:
276,198,168581,1,8,0:0:0:0:
113,215,168752,1,0,0:0:0:0:
271,120,168924,1,8,0:0:0:0:
271,120,169010,1,0,0:0:0:0:
271,120,169095,6,0,P|317:121|366:153,1,100,2|8,0:0|0:0,0:0:0:0:
356,32,169438,1,2,0:0:0:0:
331,26,169524,1,0,0:0:0:0:
305,24,169610,1,8,0:0:0:0:
280,25,169695,1,0,0:0:0:0:
257,35,169781,1,2,0:0:0:0:
232,41,169867,1,0,0:0:0:0:
206,43,169953,1,8,0:0:0:0:
181,42,170038,1,0,0:0:0:0:
156,36,170124,1,2,0:0:0:0:
131,30,170210,1,0,0:0:0:0:
105,28,170296,1,8,0:0:0:0:
80,29,170381,1,0,0:0:0:0:
55,34,170467,5,2,0:0:0:0:
55,34,170552,2,0,L|58:118,1,50,0|8,0:0|0:0,0:0:0:0:
153,120,170724,1,2,0:0:0:0:
153,120,170809,2,0,L|150:204,1,50
49,189,170981,1,10,0:0:0:0:
49,189,171066,2,0,L|52:273,1,50
151,268,171238,1,2,0:0:0:0:
151,268,171324,2,0,L|149:317,1,50,8|0,0:0|0:0,0:0:0:0:
45,328,171495,1,10,0:0:0:0:
45,328,171581,2,0,L|48:412,2,50
148,368,171838,5,2,0:0:0:0:
147,367,171924,2,0,L|149:318,1,50,0|8,0:0|0:0,0:0:0:0:
253,277,172095,1,2,0:0:0:0:
253,277,172181,2,0,L|256:361,1,50
151,267,172352,1,10,0:0:0:0:
151,267,172438,2,0,L|154:183,1,50
247,148,172609,1,2,0:0:0:0:
247,148,172695,2,0,L|250:232,1,50,8|0,0:0|0:0,0:0:0:0:
152,101,172867,1,8,0:0:0:0:
161,68,172952,1,4,0:3:0:0:
187,46,173038,1,4,0:3:0:0:
221,42,173124,1,4,0:3:0:0:
254,54,173210,6,0,P|297:78|347:82,1,100,4|8,0:0|0:0,0:0:0:0:
476,233,173552,2,0,P|433:269|357:267,1,100,0|8,0:0|0:0,0:0:0:0:
247,148,173895,1,4,0:3:0:0:
404,198,174067,1,8,0:0:0:0:
377,36,174238,1,8,0:0:0:0:
247,148,174410,1,0,0:0:0:0:
247,148,174495,1,0,0:0:0:0:
247,148,174581,6,0,L|302:243,1,100,4|8,0:0|0:0,0:0:0:0:
404,198,174924,2,0,L|349:293,1,100,0|8,0:0|0:0,0:0:0:0:
210,218,175267,2,0,L|265:313,1,100,0|8,0:0|0:0,0:0:0:0:
439,267,175610,2,0,L|384:362,1,100,0|8,0:0|0:0,0:0:0:0:
224,357,175952,5,4,0:0:0:0:
75,334,176124,1,8,0:0:0:0:
57,185,176295,1,0,0:0:0:0:
180,98,176467,1,8,0:0:0:0:
157,247,176638,5,0,0:0:0:0:
180,98,176810,1,8,0:0:0:0:
329,80,176981,1,0,0:0:0:0:
416,203,177153,1,8,0:0:0:0:
267,167,177324,5,4,0:0:0:0:
261,196,177410,1,0,0:0:0:0:
262,225,177495,1,0,0:0:0:0:
276,251,177581,1,0,0:0:0:0:
299,270,177667,1,0,0:0:0:0:
327,277,177752,1,0,0:0:0:0:
357,277,177838,1,0,0:0:0:0:
386,283,177924,1,0,0:0:0:0:
414,292,178010,2,0,L|462:320,1,50,4|4,0:3|0:3,0:0:0:0:
500,222,178181,2,0,L|497:161,1,50,4|4,0:3|0:3,0:0:0:0:
423,105,178352,2,0,L|365:122,1,50,4|4,0:3|0:3,0:0:0:0:
284,73,178524,2,0,L|312:14,1,50,4|4,0:3|0:3,0:0:0:0:
193,65,178695,6,0,B|123:90|123:90|115:153|201:183,1,200,4|0,0:0|0:0,0:0:0:0:
30,271,179210,1,8,0:0:0:0:
30,271,179295,1,0,0:0:0:0:
30,271,179381,2,0,P|13:218|26:165,1,100,2|8,0:0|0:0,0:0:0:0:
54,62,179724,1,0,0:0:0:0:
136,234,179895,1,8,0:0:0:0:
136,234,179981,1,0,0:0:0:0:
136,234,180067,6,0,P|182:256|253:254,1,100,2|8,0:0|0:0,0:0:0:0:
263,60,180410,2,0,P|266:111|304:171,1,100,2|8,0:0|0:0,0:0:0:0:
478,82,180752,2,0,P|435:111|402:173,1,100,2|8,0:0|0:0,0:0:0:0:
505,309,181095,2,0,P|460:287|410:283,1,100,2|8,0:0|0:0,0:0:0:0:
237,240,181438,6,0,B|298:299|298:299|367:307|411:284,1,200,4|0,0:0|0:0,0:0:0:0:
275,163,181952,1,8,0:0:0:0:
261,148,182038,1,0,0:0:0:0:
247,133,182124,2,0,P|193:118|126:124,1,100,2|8,0:0|0:0,0:0:0:0:
326,58,182467,1,4,0:3:0:0:
353,45,182552,1,4,0:3:0:0:
383,44,182638,1,8,0:0:0:0:
412,50,182724,1,4,0:3:0:0:
439,63,182810,5,6,0:0:0:0:
502,186,182981,1,8,0:0:0:0:
380,138,183152,1,2,0:0:0:0:
443,261,183323,1,8,0:0:0:0:
318,210,183495,1,4,0:3:0:0:
289,199,183581,1,4,0:3:0:0:
258,197,183667,1,8,0:0:0:0:
228,200,183752,1,4,0:3:0:0:
200,213,183838,2,0,L|127:250,1,50,8|8,0:0|0:0,0:0:0:0:
74,346,184010,2,0,L|147:309,1,50,8|8,0:0|0:0,0:0:0:0:
228,291,184181,5,6,0:0:0:0:
255,278,184267,1,0,0:0:0:0:
284,276,184352,1,0,0:0:0:0:
313,281,184438,1,0,0:0:0:0:
338,296,184524,1,8,0:0:0:0:
365,309,184610,1,0,0:0:0:0:
394,311,184695,1,0,0:0:0:0:
423,306,184781,1,0,0:0:0:0:
451,297,184867,6,0,L|436:238,1,50,2|0,0:0|0:0,0:0:0:0:
348,198,185038,2,0,L|363:139,1,50
290,48,185210,2,0,L|275:107,1,50,8|0,0:0|0:0,0:0:0:0:
180,129,185381,2,0,L|192:177,1,50
255,278,185552,5,6,0:0:0:0:
227,289,185638,1,0,0:0:0:0:
197,296,185724,1,0,0:0:0:0:
166,295,185810,1,0,0:0:0:0:
137,286,185895,1,8,0:0:0:0:
109,275,185981,1,0,0:0:0:0:
79,268,186067,1,0,0:0:0:0:
48,269,186153,1,0,0:0:0:0:
22,284,186238,6,0,L|42:362,1,50,2|0,0:0|0:0,0:0:0:0:
50,198,186410,2,0,L|30:120,1,50
109,275,186581,2,0,L|129:353,1,50,8|0,0:0|0:0,0:0:0:0:
140,182,186753,2,0,L|120:104,1,50
242,179,186924,6,0,B|299:132|299:132|343:130|418:226,1,200,4|4,0:0|0:3,0:0:0:0:
441,275,187352,1,0,0:0:0:0:
441,275,187438,2,0,L|437:332,1,50,8|0,0:0|0:0,0:0:0:0:
493,212,187610,2,0,L|497:155,1,50,8|0,0:0|0:0,0:0:0:0:
491,58,187781,1,4,0:3:0:0:
475,44,187867,1,4,0:3:0:0:
456,35,187952,1,4,0:3:0:0:
436,31,188038,1,4,0:3:0:0:
415,32,188124,1,4,0:3:0:0:
395,38,188210,1,4,0:3:0:0:
375,43,188295,6,0,P|330:51|254:48,1,100,4|0,0:0|0:0,0:0:0:0:
104,26,188638,2,4,L|161:41,1,33.3333333333333,4|0,0:3|0:3,0:3:0:0:
85,82,188752,2,4,L|142:97,1,33.3333333333333,4|0,0:3|0:3,0:3:0:0:
62,142,188867,2,4,L|119:157,1,33.3333333333333,4|0,0:3|0:3,0:3:0:0:
62,205,188981,2,4,L|5:220,1,33.3333333333333,4|0,0:3|0:3,0:3:0:0:
81,261,189095,2,4,L|24:276,1,33.3333333333333,4|0,0:3|0:3,0:3:0:0:
104,321,189210,2,4,L|47:336,1,33.3333333333333,4|0,0:3|0:3,0:3:0:0:
129,376,189324,1,12,0:0:0:0:
129,376,189667,6,0,B|192:358|192:358|221:312|176:230,1,200,4|0,0:0|0:0,0:0:0:0:
248,88,190181,1,8,0:0:0:0:
248,88,190267,1,0,0:0:0:0:
248,88,190352,2,0,P|307:103|355:96,1,100,2|8,0:0|0:0,0:0:0:0:
194,23,190695,1,2,0:0:0:0:
385,28,190867,2,0,P|415:64|403:146,1,100,10|0,0:0|0:0,0:0:0:0:
303,166,191210,5,8,0:0:0:0:
417,234,191381,2,0,P|463:231|539:197,1,100,2|8,0:0|0:0,0:0:0:0:
501,106,191724,1,0,0:0:0:0:
357,197,191895,1,8,0:0:0:0:
385,28,192067,1,4,0:3:0:0:
360,25,192152,1,4,0:3:0:0:
334,26,192238,1,8,0:0:0:0:
309,28,192324,1,4,0:3:0:0:
286,38,192410,6,0,P|231:44|156:41,1,100,4|8,0:0|0:0,0:0:0:0:
84,30,192752,1,0,0:0:0:0:
137,164,192924,1,8,0:0:0:0:
137,164,193010,1,0,0:0:0:0:
137,164,193095,2,0,P|148:218|138:295,1,100,2|8,0:0|0:0,0:0:0:0:
43,287,193438,1,0,0:0:0:0:
253,232,193610,1,8,0:0:0:0:
76,109,193781,6,0,P|59:158|77:222,1,100,4|8,0:0|0:0,0:0:0:0:
208,161,194124,1,2,0:0:0:0:
179,44,194295,1,8,0:0:0:0:
315,115,194467,2,0,P|365:138|423:143,1,100,0|8,0:0|0:0,0:0:0:0:
490,271,194810,1,4,0:3:0:0:
493,296,194895,1,4,0:3:0:0:
492,322,194981,1,8,0:0:0:0:
490,347,195067,1,4,0:3:0:0:
484,371,195153,6,0,B|429:377|354:342|354:342|340:309|357:250,1,200,4|0,0:0|0:0,0:0:0:0:
276,143,195667,1,10,0:0:0:0:
276,143,195753,1,0,0:0:0:0:
276,143,195839,2,0,P|317:142|369:193,1,100,2|8,0:0|0:0,0:0:0:0:
175,194,196181,1,2,0:0:0:0:
434,175,196353,1,8,0:0:0:0:
332,73,196524,6,0,P|278:63|210:78,1,100,2|8,0:0|0:0,0:0:0:0:
384,252,196867,2,0,P|438:262|506:247,1,100,0|8,0:0|0:0,0:0:0:0:
499,139,197210,1,2,0:0:0:0:
304,209,197381,1,8,0:0:0:0:
419,96,197553,1,2,0:0:0:0:
308,289,197724,1,8,0:0:0:0:
308,289,197810,1,0,0:0:0:0:
308,289,197896,6,0,B|253:325|197:299|197:299|172:283|163:209,1,200,4|0,0:0|0:0,0:0:0:0:
150,129,198410,1,8,0:0:0:0:
294,94,198581,1,2,0:0:0:0:
294,94,198638,1,0,0:0:0:0:
294,94,198695,2,0,L|342:85,1,33.3333333333333,0|8,0:0|0:0,0:0:0:0:
423,200,198923,1,2,0:0:0:0:
423,200,198980,1,0,0:0:0:0:
423,200,199037,2,0,L|375:209,1,33.3333333333333,0|8,0:0|0:0,0:0:0:0:
238,187,199267,6,0,L|228:130,3,50,4|0|8|0,0:0|0:0|0:0|0:0,0:0:0:0:
150,129,199610,2,0,L|140:72,3,50,0|0|8|0,0:0|0:0|0:0|0:0,0:0:0:0:
66,81,199952,2,0,L|56:24,3,50,4|0|8|0,0:3|0:0|0:0|0:0,0:0:0:0:
28,171,200295,1,4,0:3:0:0:
39,193,200381,1,4,0:3:0:0:
50,215,200467,1,4,0:3:0:0:
61,237,200552,1,4,0:3:0:0:
71,259,200638,6,0,P|161:297|270:275,1,200,4|8,0:0|0:0,0:0:0:0:
221,94,201152,1,0,0:0:0:0:
221,94,201238,1,0,0:0:0:0:
221,94,201324,2,0,L|244:210,1,100,10|0,0:0|0:0,0:0:0:0:
110,140,201667,1,8,0:0:0:0:
322,42,201838,1,2,0:0:0:0:
409,181,202010,6,0,P|420:228|409:281,1,100,10|0,0:0|0:0,0:0:0:0:
326,331,202352,1,8,0:0:0:0:
498,274,202524,1,2,0:0:0:0:
341,231,202695,1,8,0:0:0:0:
475,116,202867,1,2,0:0:0:0:
322,42,203038,1,8,0:0:0:0:
267,162,203210,1,2,0:0:0:0:
267,162,203295,1,0,0:0:0:0:
267,162,203381,6,6,P|241:213|248:274,1,100,6|0,0:0|0:0,0:0:0:0:
100,317,203724,1,8,0:0:0:0:
129,311,203810,1,0,0:0:0:0:
158,312,203895,1,0,0:0:0:0:
187,314,203981,1,0,0:0:0:0:
215,325,204067,2,0,P|264:329|319:286,1,100,10|0,0:0|0:0,0:0:0:0:
358,211,204410,1,8,0:0:0:0:
491,313,204581,1,2,0:0:0:0:
465,141,204752,6,0,L|478:25,1,100,12|0,0:0|0:0,0:0:0:0:
272,216,205095,2,0,L|264:85,1,100,12|0,0:0|0:0,0:0:0:0:
406,315,205438,2,0,L|432:175,1,100,12|0,0:0|0:0,0:0:0:0:
279,355,205781,1,12,0:0:0:0:
136,269,205952,1,2,0:0:0:0:
136,269,206038,1,0,0:0:0:0:
136,269,206124,6,0,B|94:194|94:194|112:151|219:140,1,200,4|8,0:0|0:0,0:0:0:0:
28,38,206638,1,2,0:0:0:0:
28,38,206724,1,0,0:0:0:0:
28,38,206810,2,0,L|41:162,1,100,8|0,0:0|0:0,0:0:0:0:
164,76,207152,1,8,0:0:0:0:
50,226,207324,1,2,0:0:0:0:
220,190,207495,6,0,P|270:182|330:188,1,100,4|0,0:0|0:0,0:0:0:0:
402,277,207838,1,8,0:0:0:0:
283,283,208010,1,8,0:0:0:0:
340,110,208181,1,8,0:0:0:0:
345,95,208267,1,8,0:0:0:0:
199,42,208438,1,8,0:0:0:0:
194,27,208524,1,8,0:0:0:0:
349,79,208695,5,10,0:0:0:0:
349,79,208781,1,0,0:0:0:0:
349,79,208867,2,0,P|395:79|476:116,1,100,4|8,0:0|0:0,0:0:0:0:
247,122,209210,1,2,0:0:0:0:
60,106,209381,2,0,P|104:83|153:85,1,100,8|0,0:0|0:0,0:0:0:0:
22,205,209724,1,8,0:0:0:0:
123,260,209895,2,0,P|171:270|221:265,1,100,2|8,0:0|0:0,0:0:0:0:
247,122,210238,5,4,0:0:0:0:
258,105,210324,1,0,0:0:0:0:
264,85,210410,1,8,0:0:0:0:
263,65,210495,1,0,0:0:0:0:
257,45,210581,2,0,P|207:38|157:39,1,100,0|8,0:0|0:0,0:0:0:0:
22,205,210924,2,0,P|36:147|81:104,1,100,4|8,0:0|0:0,0:0:0:0:
219,195,211267,1,2,0:0:0:0:
156,40,211438,1,8,0:0:0:0:
122,227,211610,5,4,0:0:0:0:
242,292,211781,1,8,0:0:0:0:
262,291,211867,1,0,0:0:0:0:
281,288,211952,1,0,0:0:0:0:
299,279,212038,1,0,0:0:0:0:
315,267,212124,1,8,0:0:0:0:
327,251,212210,1,0,0:0:0:0:
334,232,212295,1,2,0:0:0:0:
275,101,212467,2,0,L|303:162,1,50,8|0,0:0|0:0,0:0:0:0:
354,84,212638,2,0,L|326:23,1,50,8|0,0:0|0:0,0:0:0:0:
384,156,212810,1,0,0:0:0:0:
384,156,212895,1,0,0:0:0:0:
384,156,212981,6,0,P|420:232|362:324,1,200,4|2,0:0|0:0,0:0:0:0:
209,262,213495,2,0,L|196:215,1,33.3333333333333,4|4,0:3|0:3,0:0:0:0:
148,242,213610,2,0,L|143:204,1,33.3333333333333,4|12,0:3|0:0,0:0:0:0:
298,132,213838,2,0,L|311:85,1,33.3333333333333,4|4,0:3|0:3,0:0:0:0:
359,112,213953,2,0,L|371:75,1,33.3333333333333,4|4,0:3|0:3,0:0:0:0:
342,233,214181,1,8,0:0:0:0:
342,233,215724,6,0,B|332:282|256:315|256:315|223:326|166:241,1,220.000006713867,4|0,0:0|0:0,0:0:0:0:
181,262,216152,1,0,0:0:0:0:
181,262,216238,1,8,0:0:0:0:
320,355,216410,2,0,P|373:346|432:352,1,110.000003356934,2|8,0:0|0:0,0:0:0:0:
486,219,216752,1,2,0:0:0:0:
460,230,216838,1,0,0:0:0:0:
433,239,216924,1,8,0:0:0:0:
282,165,217095,6,0,P|270:110|279:38,1,110.000003356934,2|8,0:0|0:0,0:0:0:0:
118,118,217438,1,0,0:0:0:0:
94,132,217524,1,0,0:0:0:0:
69,144,217610,1,8,0:0:0:0:
230,237,217781,2,0,P|286:250|355:224,1,110.000003356934,2|8,0:0|0:0,0:0:0:0:
413,94,218124,1,2,0:0:0:0:
426,69,218210,1,0,0:0:0:0:
438,44,218295,1,8,0:0:0:0:
491,168,218467,5,2,0:0:0:0:
333,130,218638,1,8,0:0:0:0:
307,119,218724,1,8,0:0:0:0:
164,170,218895,1,8,0:0:0:0:
138,181,218981,1,8,0:0:0:0:
290,269,219152,2,0,P|348:289|414:283,1,110.000003356934,2|8,0:0|0:0,0:0:0:0:
223,312,219495,1,2,0:0:0:0:
205,324,219581,1,0,0:0:0:0:
187,337,219667,1,8,0:0:0:0:
323,198,219838,6,0,P|315:145|326:91,1,110.000003356934,4|8,0:0|0:0,0:0:0:0:
138,181,220181,1,0,0:0:0:0:
120,194,220267,1,0,0:0:0:0:
102,206,220353,1,8,0:0:0:0:
80,343,220524,2,0,P|34:319|2:257,1,110.000003356934,2|8,0:0|0:0,0:0:0:0:
198,244,220867,1,0,0:0:0:0:
198,244,220924,1,0,0:0:0:0:
198,244,220981,2,0,L|254:238,1,36.6666677856446,0|8,0:0|0:0,0:0:0:0:
367,276,221210,6,0,P|339:322|291:348,1,110.000003356934,4|8,0:0|0:0,0:0:0:0:
198,244,221552,1,2,0:0:0:0:
192,223,221638,1,0,0:0:0:0:
186,202,221724,1,8,0:0:0:0:
260,96,221895,1,4,0:3:0:0:
84,133,222067,1,8,0:0:0:0:
205,31,222238,2,0,P|261:17|324:36,1,110.000003356934,10|0,0:0|0:0,0:0:0:0:
469,85,222581,5,2,0:0:0:0:
457,222,222752,1,8,0:0:0:0:
453,244,222838,1,8,0:0:0:0:
344,139,223010,1,8,0:0:0:0:
340,117,223096,1,8,0:0:0:0:
494,155,223267,1,4,0:3:0:0:
335,95,223438,1,8,0:0:0:0:
436,18,223610,1,10,0:0:0:0:
436,18,223667,1,0,0:0:0:0:
436,18,223724,2,0,L|501:18,1,36.6666677856446
328,27,223952,6,0,P|273:43|196:38,1,110.000003356934,4|8,0:0|0:0,0:0:0:0:
193,38,224210,1,0,0:0:0:0:
166,32,224295,2,0,P|160:87|181:138,1,110.000003356934,2|8,0:0|0:0,0:0:0:0:
114,285,224638,2,0,L|64:308,2,55.0000016784668,2|0|8,0:0|0:0|0:0,0:0:0:0:
278,278,224981,2,0,L|337:259,3,36.6666677856446,0|0|0|8,0:0|0:0|0:0|0:0,0:0:0:0:
239,137,225324,6,0,P|300:131|364:165,1,110.000003356934,4|8,0:0|0:0,0:0:0:0:
362,169,225581,1,8,0:0:0:0:
382,187,225667,1,8,0:0:0:0:
407,196,225752,1,8,0:0:0:0:
434,198,225838,1,8,0:0:0:0:
461,194,225924,1,8,0:0:0:0:
482,176,226010,6,0,L|461:126,1,55.0000016784668,4|4,0:3|0:3,0:0:0:0:
407,196,226181,2,0,L|359:229,1,55.0000016784668,4|4,0:3|0:3,0:0:0:0:
308,171,226352,2,0,L|287:121,1,55.0000016784668,4|4,0:3|0:3,0:0:0:0:
242,214,226524,2,0,L|194:247,1,55.0000016784668,4|4,0:3|0:3,0:0:0:0:
168,159,226695,6,4,P|148:102|163:36,1,110.000003356934,4|8,0:0|0:0,0:0:0:0:
270,19,227038,1,0,0:0:0:0:
452,102,227210,2,0,P|397:114|342:110,1,110.000003356934,8|2,0:0|0:0,0:0:0:0:
410,227,227552,1,8,0:0:0:0:
410,227,227638,1,0,0:0:0:0:
410,227,227724,2,0,P|378:275|373:340,1,110.000003356934,2|8,0:0|0:0,0:0:0:0:
213,263,228067,5,2,0:0:0:0:
190,239,228152,1,4,0:3:0:0:
181,207,228238,1,8,0:0:0:0:
178,173,228324,1,4,0:3:0:0:
191,142,228410,2,0,P|246:130|320:135,1,110.000003356934,0|8,0:0|0:0,0:0:0:0:
213,262,228752,2,0,P|158:268|107:249,1,110.000003356934,2|8,0:0|0:0,0:0:0:0:
107,249,229010,1,0,0:0:0:0:
107,249,229095,1,2,0:0:0:0:
69,127,229267,1,10,0:0:0:0:
275,197,229438,6,0,P|294:247|281:321,1,110.000003356934,4|8,0:0|0:0,0:0:0:0:
288,302,229781,1,0,0:0:0:0:
462,298,229952,1,8,0:0:0:0:
462,298,230038,1,0,0:0:0:0:
462,298,230124,2,0,P|474:234|452:163,1,110.000003356934,2|8,0:0|0:0,0:0:0:0:
414,61,230467,1,2,0:0:0:0:
367,167,230638,1,8,0:0:0:0:
244,64,230810,6,0,B|168:48|168:48|122:109|161:190,1,220.000006713867,4|0,0:0|0:0,0:0:0:0:
265,289,231324,1,8,0:0:0:0:
265,289,231410,1,0,0:0:0:0:
265,289,231495,2,0,P|282:231|256:151,1,110.000003356934,2|8,0:0|0:0,0:0:0:0:
61,309,231838,1,4,0:3:0:0:
92,299,231924,1,4,0:3:0:0:
125,299,232010,1,8,0:0:0:0:
157,303,232095,1,4,0:3:0:0:
184,321,232181,6,0,P|224:357|296:367,1,110.000003356934,4|8,0:0|0:0,0:0:0:0:
265,289,232438,1,0,0:0:0:0:
265,289,232524,2,0,P|224:253|171:238,1,110.000003356934,2|8,0:0|0:0,0:0:0:0:
46,240,232867,1,4,0:3:0:0:
92,101,233038,1,8,0:0:0:0:
288,168,233210,1,8,0:0:0:0:
185,69,233381,1,0,0:0:0:0:
185,69,233467,1,0,0:0:0:0:
185,69,233552,6,0,P|150:33|91:11,1,110.000003356934,4|8,0:0|0:0,0:0:0:0:
92,101,233810,1,0,0:0:0:0:
92,101,233895,2,0,P|110:163|166:208,1,110.000003356934,0|8,0:0|0:0,0:0:0:0:
303,240,234238,1,4,0:3:0:0:
262,98,234410,2,0,L|320:70,1,55.0000016784668,12|0,0:0|0:0,0:0:0:0:
407,22,234581,1,4,0:3:0:0:
366,164,234753,2,0,L|424:192,1,55.0000016784668,12|0,0:0|0:0,0:0:0:0:
495,261,234924,6,0,P|446:286|378:281,1,110.000003356934,4|8,0:0|0:0,0:0:0:0:
303,240,235267,1,2,0:0:0:0:
366,368,235438,1,8,0:0:0:0:
219,331,235610,2,0,P|161:322|96:338,1,110.000003356934,2|8,0:0|0:0,0:0:0:0:
0,220,235952,2,0,P|58:211|123:227,1,110.000003356934,0|8,0:0|0:0,0:0:0:0:
227,251,236295,5,4,0:0:0:0:
221,235,236381,1,0,0:0:0:0:
215,219,236467,1,0,0:0:0:0:
211,202,236552,1,0,0:0:0:0:
206,186,236638,1,0,0:0:0:0:
200,170,236724,1,0,0:0:0:0:
194,154,236810,1,0,0:0:0:0:
190,137,236895,1,0,0:0:0:0:
185,121,236981,6,0,L|257:102,1,55.0000016784668,4|4,0:3|0:3,0:0:0:0:
330,161,237152,2,0,L|258:180,1,55.0000016784668,4|4,0:3|0:3,0:0:0:0:
312,85,237324,2,0,L|384:66,1,55.0000016784668,4|4,0:3|0:3,0:0:0:0:
466,122,237495,2,0,L|412:136,1,55.0000016784668,4|4,0:3|0:3,0:0:0:0:
385,217,237667,6,0,B|415:263|415:263|405:303|405:303|451:358,1,150.000005722046,4|0,0:0|0:0,0:0:0:0:
357,357,238181,1,4,0:3:0:0:
321,282,238352,1,4,0:3:0:0:
285,207,238524,1,4,0:3:0:0:
253,131,238695,1,4,0:3:0:0:
222,54,238867,1,4,0:3:0:0:
107,57,239038,6,4,L|62:66,2,25.0000009536744,4|4|4,0:3|0:3|0:3,0:3:0:0:
132,110,239210,2,4,L|177:101,2,25.0000009536744,4|4|4,0:3|0:3|0:3,0:3:0:0:
107,163,239381,2,4,L|62:172,2,25.0000009536744,4|4|4,0:3|0:3|0:3,0:3:0:0:
131,214,239553,2,4,L|176:205,2,25.0000009536744,4|4|4,0:3|0:3|0:3,0:3:0:0:
107,270,239724,2,4,L|62:279,2,25.0000009536744,4|4|4,0:3|0:3|0:3,0:3:0:0:
132,325,239896,2,4,L|177:316,2,25.0000009536744,4|4|4,0:3|0:3|0:3,0:3:0:0:
107,377,240067,1,12,0:0:0:0:
107,377,240410,6,0,L|0:360,1,100,4|8,0:0|0:0,0:0:0:0:
176,263,240752,2,0,L|281:238,1,100,0|8,0:0|0:0,0:0:0:0:
107,163,241095,2,0,L|0:144,1,100,0|8,0:0|0:0,0:0:0:0:
174,68,241438,1,0,0:0:0:0:
191,57,241524,1,0,0:0:0:0:
208,46,241610,1,8,0:0:0:0:
364,114,241781,6,0,B|280:122|233:107|233:107|269:209,1,200,2|0,0:0|0:0,0:0:0:0:
255,171,242210,1,0,0:0:0:0:
255,171,242295,1,8,0:0:0:0:
437,209,242467,2,0,P|391:219|321:205,1,100,2|8,0:0|0:0,0:0:0:0:
209,268,242810,1,0,0:0:0:0:
233,262,242895,1,0,0:0:0:0:
258,261,242981,1,8,0:0:0:0:
116,186,243152,6,0,P|100:241|115:287,1,100,2|8,0:0|0:0,0:0:0:0:
196,351,243495,1,0,0:0:0:0:
332,323,243667,2,0,P|382:315|433:322,1,100,8|0,0:0|0:0,0:0:0:0:
268,359,244010,1,8,0:0:0:0:
318,197,244181,1,8,0:0:0:0:
163,271,244352,1,0,0:0:0:0:
163,271,244438,1,0,0:0:0:0:
163,271,244524,6,0,P|110:279|53:278,1,100,2|8,0:0|0:0,0:0:0:0:
206,128,244867,2,0,P|258:116|315:121,1,100,0|8,0:0|0:0,0:0:0:0:
129,75,245210,1,0,0:0:0:0:
231,214,245381,1,8,0:0:0:0:
370,163,245552,1,10,0:0:0:0:
370,163,245610,1,0,0:0:0:0:
370,163,245667,2,0,L|418:189,1,33.3333333333333,0|2,0:0|0:0,0:0:0:0:
460,282,245895,6,0,B|422:291|383:276|383:276|341:236|370:163,1,200,4|0,0:0|0:0,0:0:0:0:
477,109,246410,1,10,0:0:0:0:
282,86,246581,1,0,0:0:0:0:
257,79,246667,1,0,0:0:0:0:
232,80,246752,1,8,0:0:0:0:
207,84,246838,1,0,0:0:0:0:
185,96,246924,2,0,P|142:117|73:113,1,100,2|8,0:0|0:0,0:0:0:0:
118,303,247267,6,0,L|98:181,1,100,2|8,0:0|0:0,0:0:0:0:
228,351,247610,2,0,L|254:237,1,100,2|8,0:0|0:0,0:0:0:0:
378,308,247952,2,0,L|374:186,1,100,2|8,0:0|0:0,0:0:0:0:
494,165,248295,1,2,0:0:0:0:
494,165,248353,1,0,0:0:0:0:
494,165,248410,2,0,L|498:226,1,33.3333333333333,0|8,0:0|0:0,0:0:0:0:
399,119,248638,6,0,B|333:100|333:100|263:128|266:219,1,200,4|0,0:0|0:0,0:0:0:0:
171,247,249152,1,8,0:0:0:0:
81,181,249324,2,0,P|69:133|100:56,1,100,2|8,0:0|0:0,0:0:0:0:
195,117,249667,1,2,0:0:0:0:
195,117,249725,1,0,0:0:0:0:
195,117,249781,2,0,L|245:146,1,33.3333333333333,0|8,0:0|0:0,0:0:0:0:
312,214,250010,6,0,P|327:257|316:315,1,100,2|8,0:0|0:0,0:0:0:0:
433,263,250352,2,0,P|412:217|416:168,1,100,2|8,0:0|0:0,0:0:0:0:
447,38,250695,1,0,0:0:0:0:
447,38,250752,1,0,0:0:0:0:
447,38,250810,2,0,L|406:42,1,33.3333333333333,0|12,0:0|0:0,0:0:0:0:
284,50,251038,1,0,0:0:0:0:
284,50,251095,1,0,0:0:0:0:
284,50,251153,2,0,L|243:54,1,33.3333333333333,0|12,0:0|0:0,0:0:0:0:
119,170,251381,6,0,B|247:151|247:151|335:182,1,200,4|0,0:0|0:0,0:0:0:0:
412,226,251895,1,8,0:0:0:0:
280,279,252067,1,0,0:0:0:0:
262,288,252152,1,0,0:0:0:0:
244,296,252238,1,8,0:0:0:0:
70,240,252410,2,0,P|37:194|39:133,1,100,2|8,0:0|0:0,0:0:0:0:
59,22,252752,5,0,0:0:0:0:
189,54,252924,1,8,0:0:0:0:
232,178,253095,2,0,P|177:185|132:173,1,100,2|8,0:0|0:0,0:0:0:0:
123,40,253438,1,0,0:0:0:0:
232,178,253610,1,8,0:0:0:0:
390,88,253781,1,8,0:0:0:0:
247,43,253952,1,0,0:0:0:0:
247,43,254038,1,0,0:0:0:0:
247,43,254124,6,0,P|266:94|307:123,1,100,4|8,0:0|0:0,0:0:0:0:
250,250,254467,2,0,P|231:301|190:330,1,100,0|8,0:0|0:0,0:0:0:0:
328,304,254810,1,0,0:0:0:0:
347,300,254895,1,0,0:0:0:0:
367,300,254981,1,8,0:0:0:0:
386,302,255067,1,0,0:0:0:0:
405,306,255152,2,0,P|431:274|456:212,1,100,0|8,0:0|0:0,0:0:0:0:
298,187,255495,6,0,P|254:175|199:185,1,100,4|8,0:0|0:0,0:0:0:0:
201,185,255752,1,0,0:0:0:0:
201,185,255838,1,0,0:0:0:0:
255,52,256010,1,8,0:0:0:0:
96,111,256181,2,0,P|85:163|104:218,1,100,0|8,0:0|0:0,0:0:0:0:
154,331,256524,1,10,0:0:0:0:
154,331,256581,1,0,0:0:0:0:
154,331,256638,2,0,L|171:286,1,33.3333333333333
201,185,256867,6,0,L|286:252,1,100,4|8,0:0|0:0,0:0:0:0:
369,312,257210,1,0,0:0:0:0:
405,161,257381,2,0,L|429:64,1,100,8|0,0:0|0:0,0:0:0:0:
201,185,257724,1,8,0:0:0:0:
201,185,257810,1,0,0:0:0:0:
201,185,257895,2,0,L|150:51,1,100,2|8,0:0|0:0,0:0:0:0:
32,304,258238,6,0,L|152:259,1,100,4|8,0:0|0:0,0:0:0:0:
308,323,258581,2,0,L|416:356,1,100,0|8,0:0|0:0,0:0:0:0:
296,200,258924,2,0,L|283:57,1,100,0|8,0:0|0:0,0:0:0:0:
141,22,259267,2,0,L|84:19,3,33.3333333333333
281,27,259610,5,4,0:0:0:0:
300,27,259695,1,8,0:0:0:0:
429,106,259867,1,8,0:0:0:0:
448,107,259952,1,8,0:0:0:0:
489,221,260124,1,8,0:0:0:0:
490,240,260210,1,8,0:0:0:0:
488,259,260295,1,8,0:0:0:0:
365,283,260467,1,8,0:0:0:0:
243,242,260638,1,8,0:0:0:0:
223,240,260724,1,8,0:0:0:0:
202,240,260810,1,8,0:0:0:0:
182,242,260895,1,8,0:0:0:0:
162,248,260981,6,4,P|134:257|100:253,3,50,4|4|4|4,0:3|0:3|0:3|0:3,0:3:0:0:
46,176,261324,2,4,P|73:166|108:171,3,50,4|4|4|4,0:3|0:3|0:3|0:3,0:3:0:0:
31,285,261667,1,4,0:3:0:0:
46,296,261752,1,4,0:3:0:0:
64,303,261838,1,4,0:3:0:0:
83,305,261924,1,4,0:3:0:0:
103,305,262010,1,4,0:3:0:0:
122,307,262096,1,4,0:3:0:0:
140,314,262182,1,4,0:3:0:0:
155,325,262267,1,4,0:3:0:0:
166,341,262352,5,4,0:0:0:0:
304,332,262524,1,8,0:0:0:0:
304,332,262610,1,0,0:0:0:0:
304,332,262695,2,0,L|268:204,1,100,0|8,0:0|0:0,0:0:0:0:
244,130,263038,1,0,0:0:0:0:
383,190,263210,1,8,0:0:0:0:
185,203,263381,1,8,0:0:0:0:
295,50,263552,1,0,0:0:0:0:
295,50,263638,1,0,0:0:0:0:
295,50,263724,6,0,P|350:47|411:70,1,100,2|8,0:0|0:0,0:0:0:0:
244,130,264067,2,0,P|185:133|126:111,1,100,0|8,0:0|0:0,0:0:0:0:
65,46,264410,1,0,0:0:0:0:
204,46,264581,1,8,0:0:0:0:
78,205,264752,1,8,0:0:0:0:
258,209,264924,1,0,0:0:0:0:
258,209,265010,1,0,0:0:0:0:
258,209,265096,6,0,P|311:191|378:201,1,100,2|8,0:0|0:0,0:0:0:0:
146,322,265439,2,0,P|180:262|178:202,1,100,0|8,0:0|0:0,0:0:0:0:
161,125,265782,1,0,0:0:0:0:
303,96,265953,1,8,0:0:0:0:
182,232,266124,1,8,0:0:0:0:
341,303,266295,1,0,0:0:0:0:
341,303,266381,1,0,0:0:0:0:
341,303,266467,6,0,P|395:305|444:286,1,100,2|8,0:0|0:0,0:0:0:0:
456,182,266810,1,2,0:0:0:0:
430,36,266981,1,8,0:0:0:0:
303,96,267152,2,0,P|232:109|151:91,1,150,2|2,0:0|0:0,0:0:0:0:
173,168,267495,2,0,P|182:215|162:273,1,100,0|8,0:0|0:0,0:0:0:0:
287,214,267838,5,4,0:0:0:0:
309,203,267924,1,0,0:0:0:0:
333,198,268010,1,8,0:0:0:0:
357,202,268095,1,0,0:0:0:0:
380,210,268181,2,0,P|413:250|421:302,1,100,2|8,0:0|0:0,0:0:0:0:
224,348,268524,2,0,P|275:352|335:336,1,100,2|8,0:0|0:0,0:0:0:0:
300,275,268781,2,0,P|243:280|136:254,1,150,2|10,0:0|0:0,0:0:0:0:
108,164,269210,5,6,0:0:0:0:
224,88,269381,1,8,0:0:0:0:
224,88,269467,1,0,0:0:0:0:
224,88,269552,2,0,P|276:84|336:104,1,100,0|8,0:0|0:0,0:0:0:0:
108,164,269895,1,0,0:0:0:0:
300,275,270067,2,0,P|352:271|412:291,1,100,8|8,0:0|0:0,0:0:0:0:
445,119,270410,1,0,0:0:0:0:
445,119,270495,1,0,0:0:0:0:
445,119,270581,6,0,L|465:39,3,50,6|0|8|0,0:0|0:0|0:0|0:0,0:0:0:0:
359,31,270924,2,0,L|347:80,3,50,2|0|8|0,0:0|0:0|0:0|0:0,0:0:0:0:
236,89,271267,2,0,L|223:40,3,50,2|0|8|0,0:0|0:0|0:0|0:0,0:0:0:0:
157,126,271610,2,0,P|136:172|152:226,1,100,2|8,0:0|0:0,0:0:0:0:
220,178,271867,1,0,0:0:0:0:
220,178,271952,6,0,P|266:191|331:178,1,100,4|8,0:0|0:0,0:0:0:0:
331,181,272210,1,8,0:0:0:0:
344,175,272295,1,8,0:0:0:0:
357,169,272381,1,8,0:0:0:0:
369,160,272467,1,8,0:0:0:0:
377,147,272552,1,8,0:0:0:0:
383,133,272638,5,4,0:3:0:0:
383,117,272724,1,4,0:3:0:0:
383,101,272810,2,0,L|318:82,1,50,4|4,0:3|0:3,0:0:0:0:
452,159,272981,1,4,0:3:0:0:
452,175,273067,1,4,0:3:0:0:
452,191,273153,2,0,L|517:210,1,50,4|4,0:3|0:3,0:0:0:0:
490,297,273324,6,0,B|428:276|428:276|382:335|291:340,1,200,4|0,0:0|0:0,0:0:0:0:
313,189,273838,1,8,0:0:0:0:
313,173,273924,1,0,0:0:0:0:
313,157,274010,2,0,L|314:36,1,100,0|8,0:0|0:0,0:0:0:0:
163,107,274352,1,2,0:0:0:0:
143,111,274438,1,0,0:0:0:0:
123,116,274524,1,8,0:0:0:0:
103,118,274610,1,0,0:0:0:0:
83,117,274695,6,0,L|70:167,1,50,2|0,0:0|0:0,0:0:0:0:
139,187,274867,2,0,L|152:237,1,50,8|0,0:0|0:0,0:0:0:0:
75,238,275038,2,0,L|62:288,1,50,2|0,0:0|0:0,0:0:0:0:
131,308,275210,2,0,L|144:358,1,50,8|0,0:0|0:0,0:0:0:0:
199,268,275381,6,0,L|249:255,1,50,2|0,0:0|0:0,0:0:0:0:
269,324,275553,2,0,L|319:337,1,50,8|0,0:0|0:0,0:0:0:0:
320,260,275724,2,0,L|370:247,1,50,2|0,0:0|0:0,0:0:0:0:
390,316,275896,2,0,L|440:329,1,50,8|0,0:0|0:0,0:0:0:0:
467,240,276067,5,4,0:0:0:0:
477,212,276152,1,0,0:0:0:0:
485,183,276238,2,0,L|506:117,1,50,8|0,0:0|0:0,0:0:0:0:
380,223,276410,1,2,0:0:0:0:
390,195,276495,1,0,0:0:0:0:
398,166,276581,2,0,L|419:100,1,50,8|0,0:0|0:0,0:0:0:0:
313,87,276752,6,0,L|247:67,1,50,2|0,0:0|0:0,0:0:0:0:
164,56,276924,2,0,L|177:126,1,50,8|0,0:0|0:0,0:0:0:0:
189,201,277095,2,0,L|140:193,1,50,2|0,0:0|0:0,0:0:0:0:
41,172,277267,2,0,L|49:240,1,50,8|0,0:0|0:0,0:0:0:0:
122,284,277438,5,4,0:0:0:0:
151,277,277524,1,0,0:0:0:0:
181,277,277610,1,8,0:0:0:0:
210,281,277695,1,0,0:0:0:0:
236,294,277781,1,0,0:0:0:0:
265,300,277867,1,0,0:0:0:0:
294,298,277952,1,8,0:0:0:0:
323,291,278038,1,0,0:0:0:0:
350,279,278124,5,0,0:0:0:0:
350,279,278210,1,0,0:0:0:0:
350,279,278295,2,0,L|338:199,1,50,4|0,0:0|0:0,0:0:0:0:
440,310,278467,1,0,0:0:0:0:
440,310,278553,1,0,0:0:0:0:
440,310,278638,2,0,L|452:390,1,50,4|0,0:0|0:0,0:0:0:0:
421,229,278810,6,0,B|398:143|398:143|350:113|277:144,1,200,4|0,0:0|0:0,0:0:0:0:
99,159,279324,1,8,0:0:0:0:
99,159,279410,1,0,0:0:0:0:
99,159,279495,2,0,P|149:173|208:165,1,100,2|8,0:0|0:0,0:0:0:0:
291,138,279838,1,2,0:0:0:0:
155,82,280010,1,8,0:0:0:0:
82,258,280181,5,4,0:0:0:0:
108,271,280267,1,0,0:0:0:0:
136,278,280352,1,8,0:0:0:0:
165,282,280438,1,0,0:0:0:0:
195,281,280524,1,0,0:0:0:0:
339,227,280695,1,8,0:0:0:0:
339,227,280781,1,0,0:0:0:0:
339,227,280867,2,0,P|362:269|361:330,1,100,0|8,0:0|0:0,0:0:0:0:
204,185,281210,1,4,0:0:0:0:
336,101,281381,1,0,0:0:0:0:
336,101,281467,1,0,0:0:0:0:
336,101,281552,6,0,L|400:97,3,50,4|0|0|0,0:0|0:0|0:0|0:0,0:0:0:0:
279,23,281895,1,8,0:0:0:0:
279,23,282010,2,0,L|212:17,1,66.6666666666667
177,127,282238,1,8,0:0:0:0:
177,127,282352,2,0,L|110:121,1,66.6666666666667
76,231,282581,1,8,0:0:0:0:
76,231,282695,2,0,L|9:225,1,66.6666666666667
127,340,282924,6,0,B|191:322|204:241|204:241|255:278|350:268,1,262.500010013581,4|0,0:0|0:0,0:0:0:0:
351,261,283610,1,8,0:0:0:0:
369,245,283695,1,8,0:0:0:0:
382,223,283781,1,8,0:0:0:0:
386,198,283867,1,8,0:0:0:0:
390,173,283952,2,4,L|317:143,1,50,4|4,0:3|0:3,0:3:0:0:
283,49,284124,2,4,L|349:81,1,50,4|4,0:3|0:3,0:3:0:0:
274,132,284295,6,0,P|189:176|82:148,1,200,12|8,0:0|0:0,0:0:0:0:
207,248,284809,1,0,0:0:0:0:
207,248,284895,1,0,0:0:0:0:
207,248,284980,2,0,L|325:321,1,100,10|0,0:0|0:0,0:0:0:0:
473,264,285323,2,0,L|375:187,1,100,10|0,0:0|0:0,0:0:0:0:
341,71,285666,5,10,0:0:0:0:
345,58,285752,1,0,0:0:0:0:
348,45,285837,1,0,0:0:0:0:
404,153,286009,5,10,0:0:0:0:
408,166,286095,1,0,0:0:0:0:
411,179,286180,1,0,0:0:0:0:
295,229,286352,5,10,0:0:0:0:
299,216,286438,1,0,0:0:0:0:
302,203,286523,1,0,0:0:0:0:
358,313,286695,5,10,0:0:0:0:
362,326,286781,1,0,0:0:0:0:
365,339,286866,1,0,0:0:0:0:
207,248,287038,6,0,B|150:216|98:225|98:225|83:294|113:331,1,200,6|8,0:0|0:0,0:0:0:0:
36,162,287552,1,2,0:0:0:0:
47,153,287637,1,2,0:0:0:0:
58,143,287723,2,0,P|111:133|160:147,1,100,8|0,0:0|0:0,0:0:0:0:
351,98,288066,2,0,P|299:89|249:102,1,100,8|0,0:0|0:0,0:0:0:0:
305,225,288409,5,10,0:0:0:0:
316,231,288495,1,0,0:0:0:0:
328,237,288580,1,0,0:0:0:0:
436,166,288752,5,10,0:0:0:0:
424,172,288838,1,0,0:0:0:0:
413,178,288923,1,0,0:0:0:0:
323,85,289095,5,10,0:0:0:0:
335,91,289181,1,0,0:0:0:0:
346,97,289266,1,0,0:0:0:0:
450,22,289438,5,10,0:0:0:0:
438,28,289524,1,0,0:0:0:0:
427,34,289609,1,0,0:0:0:0:
232,124,289781,6,0,B|161:129|104:88|104:88|124:157,1,200,4|8,0:0|0:0,0:0:0:0:
167,25,290295,1,2,0:0:0:0:
208,206,290466,2,0,L|235:309,1,100,8|0,0:0|0:0,0:0:0:0:
72,252,290809,2,0,L|44:368,1,100,8|0,0:0|0:0,0:0:0:0:
233,302,291152,6,0,P|286:309|361:300,1,100,10|0,0:0|0:0,0:0:0:0:
353,283,291410,1,2,0:0:0:0:
365,256,291495,2,0,P|382:211|366:125,1,100,8|2,0:0|0:0,0:0:0:0:
284,38,291838,2,0,P|231:31|156:40,1,100,10|0,0:0|0:0,0:0:0:0:
164,57,292096,1,2,0:0:0:0:
152,84,292181,2,0,P|134:128|151:215,1,100,8|2,0:0|0:0,0:0:0:0:
278,159,292524,5,4,0:0:0:0:
304,144,292610,1,0,0:0:0:0:
332,135,292695,1,0,0:0:0:0:
362,135,292781,1,0,0:0:0:0:
390,144,292867,2,0,P|439:168|474:212,1,100,8|0,0:0|0:0,0:0:0:0:
442,334,293210,1,10,0:0:0:0:
416,349,293296,1,0,0:0:0:0:
388,358,293381,1,0,0:0:0:0:
358,358,293467,1,0,0:0:0:0:
330,349,293553,2,0,P|281:325|246:281,1,100,8|0,0:0|0:0,0:0:0:0:
225,147,293895,6,4,L|212:66,3,50,4|4|4|4,0:0|0:3|0:3|0:3,0:3:0:0:
132,170,294238,2,4,L|139:219,3,50,4|4|4|4,0:3|0:3|0:3|0:3,0:3:0:0:
117,80,294580,1,4,0:3:0:0:
95,80,294666,1,4,0:3:0:0:
73,84,294752,1,4,0:3:0:0:
55,97,294837,1,4,0:3:0:0:
39,112,294924,2,0,L|51:165,1,50,8|8,0:0|0:0,0:0:0:0:
140,219,295095,2,0,L|128:272,1,50,8|8,0:0|0:0,0:0:0:0:
210,321,295266,6,0,P|246:325|329:320,1,100,4|8,0:0|0:0,0:0:0:0:
470,256,295610,1,0,0:0:0:0:
471,236,295695,1,0,0:0:0:0:
471,215,295781,1,8,0:0:0:0:
468,195,295867,1,0,0:0:0:0:
463,175,295952,2,0,P|427:170|344:176,1,100,2|8,0:0|0:0,0:0:0:0:
238,210,296295,1,8,0:0:0:0:
352,103,296467,1,2,0:0:0:0:
352,103,296552,1,0,0:0:0:0:
352,103,296638,6,0,P|311:74|262:67,1,100,2|8,0:0|0:0,0:0:0:0:
243,73,296895,1,0,0:0:0:0:
225,82,296981,2,0,P|182:93|96:97,1,100,2|8,0:0|0:0,0:0:0:0:
13,215,297324,2,0,P|54:186|103:179,1,100,2|8,0:0|0:0,0:0:0:0:
122,185,297582,1,0,0:0:0:0:
140,194,297668,2,0,P|182:205|269:209,1,100,2|8,0:0|0:0,0:0:0:0:
406,250,298009,6,0,B|319:228|319:228|268:259|301:348,1,200,4|0,0:0|0:0,0:0:0:0:
446,326,298523,1,10,0:0:0:0:
459,310,298609,1,0,0:0:0:0:
472,294,298695,2,0,P|488:250|465:186,1,100,2|8,0:0|0:0,0:0:0:0:
420,67,299037,1,2,0:0:0:0:
406,69,299123,1,0,0:0:0:0:
392,70,299209,1,8,0:0:0:0:
379,75,299295,1,0,0:0:0:0:
369,85,299381,6,0,L|350:142,3,50,4|0|8|0,0:0|0:0|0:0|0:0,0:0:0:0:
276,48,299724,2,0,L|257:-9,3,50,0|0|8|0,0:0|0:0|0:0|0:0,0:0:0:0:
210,116,300067,2,0,L|194:163,3,50,4|0|8|0,0:0|0:0|0:0|0:0,0:0:0:0:
119,58,300409,1,4,0:3:0:0:
89,54,300495,1,4,0:3:0:0:
62,66,300580,1,8,0:0:0:0:
43,89,300666,1,4,0:3:0:0:
34,117,300752,6,0,B|103:162|103:162|123:228|61:283,1,200,4|0,0:0|0:0,0:0:0:0:
74,270,301181,1,0,0:0:0:0:
74,270,301267,1,8,0:0:0:0:
228,227,301438,2,0,L|325:200,1,100,0|8,0:0|0:0,0:0:0:0:
151,250,301781,1,8,0:0:0:0:
291,313,301952,5,0,0:0:0:0:
305,318,302038,1,0,0:0:0:0:
317,325,302123,1,4,0:0:0:0:
464,248,302295,1,8,0:0:0:0:
464,248,302380,1,2,0:0:0:0:
464,248,302466,2,0,P|458:193|418:113,1,100,0|10,0:0|0:0,0:0:0:0:
343,89,302810,1,2,0:0:0:0:
172,126,302981,6,0,L|239:113,1,62.5,4|0,0:0|0:0,0:0:0:0:
97,62,303152,2,0,L|9:76,1,62.5,4|0,0:0|0:0,0:0:0:0:
5,163,303324,1,4,0:3:0:0:
106,289,303495,5,10,0:0:0:0:
134,299,303581,1,0,0:0:0:0:
163,303,303667,1,0,0:0:0:0:
192,300,303752,1,0,0:0:0:0:
220,289,303838,1,8,0:0:0:0:
288,203,304010,1,2,0:0:0:0:
105,313,304181,5,8,0:0:0:0:
133,323,304267,1,0,0:0:0:0:
162,327,304353,1,0,0:0:0:0:
191,324,304438,1,0,0:0:0:0:
219,313,304524,2,0,P|281:308|341:330,1,125,12|0,0:0|0:0,0:0:0:0:
416,209,304867,6,0,L|403:158,5,33.3333333333333
458,128,305210,2,0,L|471:77,5,33.3333333333333
411,57,305552,2,0,L|398:6,5,33.3333333333333
391,124,305895,1,8,0:0:0:0:
391,124,306238,5,4,0:3:0:0:
361,116,306324,1,4,0:3:0:0:
332,125,306410,2,8,L|311:69,1,50
257,163,306581,2,8,L|278:219,1,50
191,246,306752,5,4,0:3:0:0:
164,231,306838,1,4,0:3:0:0:
134,224,306924,1,4,0:3:0:0:
103,224,307010,1,4,0:3:0:0:
75,235,307095,1,4,0:3:0:0:
47,248,307181,1,4,0:3:0:0:
24,268,307267,1,4,0:3:0:0:
10,294,307352,1,4,0:3:0:0:
6,323,307438,2,0,L|57:361,1,50,8|0,0:0|0:0,0:0:0:0:
160,332,307610,5,4,0:3:0:0:
174,328,307695,1,4,0:3:0:0:
188,322,307781,2,4,L|212:375,1,50,4|4,0:3|0:3,0:3:0:0:
222,198,307952,1,4,0:3:0:0:
236,202,308037,1,4,0:3:0:0:
250,208,308124,2,4,L|274:155,1,50,4|4,0:3|0:3,0:3:0:0:
331,276,308295,5,4,0:3:0:0:
345,272,308380,1,4,0:3:0:0:
359,266,308466,2,4,L|383:319,1,50,4|4,0:3|0:3,0:3:0:0:
394,142,308637,1,4,0:3:0:0:
408,146,308724,1,4,0:3:0:0:
422,152,308810,2,4,L|446:99,1,50,4|4,0:3|0:3,0:3:0:0:
511,225,308981,5,4,0:0:0:0:
