osu file format v9

[General]
AudioFilename: Demetori - Eye of the Needles.mp3
AudioLeadIn: 3000
PreviewTime: 96257
Countdown: 1
SampleSet: Normal
StackLeniency: 0.7
Mode: 0
LetterboxInBreaks: 1

[Editor]
Bookmarks: 130303,145771,156493,157798,176015,188390
DistanceSpacing: 0.9
BeatDivisor: 4
GridSize: 8

[Metadata]
Title:Tengu is Watching ~ Eye of the Needles
Artist:Demetori
Creator:bobo1
Version:Extra Stage
Source:Touhou"Offering to The Sukhavati"
Tags:demetori touhou Extra eye

[Difficulty]
HPDrainRate:7
CircleSize:4
OverallDifficulty:8
ApproachRate:9
SliderMultiplier:2.2
SliderTickRate:2

[Events]
//Background and Video events
0,0,"dog.jpg"
//Break Periods
2,44737,52529
2,117209,126783
2,241884,251297
//Storyboard Layer 0 (Background)
//Storyboard Layer 1 (Fail)
//Storyboard Layer 2 (Pass)
//Storyboard Layer 3 (Foreground)
//Storyboard Sound Samples
//Background Colour Transformations
3,100,0,0,0

[TimingPoints]
438,324.254215304799,4,1,1,79,1,0
27209,-100,4,1,1,82,0,0
54527,-100,4,1,1,0,0,0
54689,-100,4,1,1,81,0,0
66119,-100,4,1,1,81,0,0
75523,-100,4,1,1,81,0,0
86205,-100,4,1,1,81,0,0
96257,-100,4,1,1,81,0,1
117027,-100,4,1,1,81,0,0
128358,-100,4,2,1,81,0,0
137761,-100,4,1,1,83,0,0
158513,-100,4,1,1,81,0,0
159239,-200,4,1,1,0,0,0
160134,-100,4,1,1,80,0,0
163944,-100,4,1,1,0,0,0
164187,-100,4,1,1,26,0,0
164511,-100,4,1,1,47,0,0
164916,-100,4,1,1,61,0,0
165322,-100,4,1,1,69,0,0
165727,-100,4,1,1,81,0,0
166295,-100,4,1,1,81,0,0
171807,-100,4,1,1,81,0,0
176671,-100,4,1,1,81,0,0
187290,-200,4,1,1,80,0,0
187372,-100,4,1,1,0,0,0
189803,-100,4,1,1,81,0,1
209096,-100,4,1,1,81,0,0
210150,-100,4,1,1,0,0,0
210312,-100,4,1,1,80,0,0
210394,-100,4,1,1,81,0,1
220770,-100,4,1,1,81,0,0
231470,-100,4,1,1,81,0,0
241846,-100,4,1,1,81,0,0
252059,-100,4,1,1,81,0,0
265029,-100,4,1,1,81,0,0

[Colours]
Combo1 : 0,0,128
Combo2 : 64,0,64
Combo3 : 0,0,0

[HitObjects]
48,96,600,5,0
48,96,681,1,0
48,96,762,2,0,B|163:55,1,110
136,160,1086,2,0,B|258:158,2,110
266,70,1572,1,0
266,70,1653,2,0,B|320:72|320:72|368:128|368:128,1,110
356,114,1937,5,12
360,128,2018,1,0
360,136,2059,1,0
360,144,2140,1,0
360,152,2221,1,12
360,160,2302,1,0
360,168,2383,1,0
352,176,2464,1,0
344,184,2545,1,12
336,192,2626,1,0
336,200,2707,1,0
336,208,2788,1,0
336,216,2869,1,12
336,224,2950,1,0
336,232,3032,6,0,B|304:288|304:288|256:288,1,110,0|0
152,240,3356,2,0,B|186:193|186:193|242:193,1,110,0|0
184,256,3680,2,0,B|184:312|184:312|136:344,1,110,0|12
32,240,4004,1,0
32,240,4085,1,0
32,240,4166,2,0,B|32:184|32:184|80:144,1,110,0|0
112,40,4491,2,0,B|48:40|48:40|8:80,1,110,0|0
112,152,4815,2,0,B|176:152|176:152|216:112,1,110,0|0
208,119,5139,1,12
208,119,5220,1,0
208,119,5301,1,0
280,224,5463,2,0,B|216:224|216:224|176:264,1,110,12|0
272,328,5788,6,0,B|336:328|336:328|376:288,1,110
472,288,6112,1,12
472,288,6193,1,0
472,288,6274,2,0,B|472:224|472:224|432:184,1,110,0|12
448,112,6598,1,2
448,112,6679,1,0
448,112,6760,1,12
448,112,6842,1,0
448,112,6923,2,0,B|376:80|376:80|376:144|376:144|288:112,2,220,0|0|0
256,48,7733,1,12
256,48,7814,1,0
256,48,7895,6,0,B|192:48|192:48|152:96,1,110,2|0
144,168,8220,2,0,B|32:168,2,110,0|12|0
152,264,8706,2,0,B|272:264,2,110,12|0|12
272,352,9192,1,0
272,352,9273,1,0
272,352,9354,2,0,B|336:352|336:352|376:312,1,110,12|0
240,240,9679,2,0,B|176:240|176:240|136:280,2,110,12|0|12
328,248,10165,1,0
328,248,10246,1,0
328,248,10327,2,0,B|328:184|328:184|288:144,1,110,12|0
416,48,10652,2,0,B|416:112|416:112|456:152,2,110
144,112,11138,1,0
144,112,11219,1,0
144,112,11300,2,0,B|144:168|144:168|200:200,1,110,12|0
272,96,11624,2,0,B|272:40|272:40|216:8,1,110,12|0
56,160,11949,5,2
64,168,12030,1,0
72,176,12111,1,0
80,184,12192,1,0
88,192,12273,2,0,B|200:192,1,110,12|0
192,280,12597,5,12
208,280,12678,1,0
224,280,12759,1,0
432,312,12921,1,12
416,312,13002,1,0
400,312,13083,1,0
280,208,13246,1,12
296,208,13327,1,0
312,208,13408,1,0
328,208,13489,1,0
344,208,13570,2,0,B|400:208|400:208|448:152,1,110,12|0
352,96,13894,2,0,B|288:96|288:96|256:136,1,110,12|0
224,280,14218,2,0,B|280:256|280:256|280:200,1,110,12|0
232,96,14543,1,12
232,96,14624,1,0
232,96,14705,2,0,B|176:120|176:120|176:176,1,110,0|12
104,224,15029,5,0
104,224,15191,1,0
192,256,15353,1,0
192,256,15515,2,0,B|248:256|248:256|248:320|248:320|304:320,2,165,12|0|2
392,320,16164,1,12
392,320,16245,1,0
392,320,16326,2,0,B|448:208,1,110
384,72,16650,1,0
384,72,16731,1,0
384,72,16812,2,0,B|328:184,1,110,12|0
280,56,17137,5,2
280,64,17218,1,0
280,72,17299,1,0
280,80,17380,1,0
280,88,17461,1,12
280,96,17542,1,0
280,104,17623,2,0,B|152:104,1,110
136,24,17947,1,2
120,24,18028,1,0
104,24,18109,1,12
88,24,18190,1,0
72,24,18271,1,0
56,24,18353,1,0
40,24,18434,2,0,B|40:80|40:80|88:112,1,110,12|0
168,112,18758,6,0,B|168:168|168:168|120:200,1,110,12|0
40,200,19082,6,0,B|40:256|40:256|88:288,1,110,12|0
352,200,19406,6,0,B|352:144|352:144|304:112,1,110,12|0
72,224,19731,6,0,B|72:280|72:280|120:312,1,110,12|0
376,224,20055,6,0,B|376:168|376:168|328:136,1,110,12|0
64,264,20379,2,0,B|192:264,1,110,12|0
352,160,20703,2,0,B|216:160,1,110,12|0
144,160,21028,1,12
144,160,21109,1,0
144,160,21190,1,0
144,160,21271,1,0
144,160,21352,2,0,B|224:160|224:160|208:80|208:80|288:80,2,220,12|0|0
400,80,22163,5,2
392,88,22244,1,0
384,96,22325,1,12
472,200,22487,1,2
472,184,22568,1,0
472,168,22649,1,12
328,200,22811,1,2
336,216,22892,1,0
344,232,22973,1,0
352,248,23054,1,0
360,264,23135,1,12
440,168,23297,5,2
432,152,23378,1,0
424,136,23460,1,0
416,120,23541,1,0
408,104,23622,1,12
400,88,23703,1,0
392,72,23784,1,0
384,56,23865,1,0
384,56,23946,2,0,B|320:56|320:56|280:96,1,110,12|0
128,168,24270,2,0,B|200:168|200:168|240:128,1,110
216,256,24594,2,0,B|280:256|280:256|296:296|296:296|360:296,2,165
296,288,25243,2,0,B|296:168,1,110
440,40,25567,2,0,B|440:176,1,110
352,128,25891,6,0,B|352:200|384:240|472:232,2,165
440,152,26540,2,0,B|280:152,1,110
104,264,26864,2,0,B|224:264,1,110
112,232,27188,5,12
128,232,27270,1,0
144,232,27351,1,0
144,216,27432,1,0
160,216,27513,1,0
176,216,27594,1,0
176,200,27675,1,2
192,200,27756,1,0
208,200,27837,1,10
208,184,27918,1,0
224,184,27999,1,0
136,72,28161,5,12
152,80,28242,1,0
176,72,28323,1,0
192,80,28404,1,0
216,72,28485,1,0
232,80,28567,1,0
256,72,28648,1,0
272,80,28729,1,0
288,72,28810,1,12
432,88,28972,6,0,B|432:152|432:152|360:152,1,110
392,184,29296,2,0,B|256:184,1,110
80,176,29620,1,0
80,176,29701,1,0
80,176,29783,2,0,B|80:112|80:112|120:96|120:96|120:32,2,165
80,200,30431,2,0,B|232:200,1,110
400,232,30755,2,0,B|288:232,1,110
480,168,31080,2,0,B|424:104|424:104|400:128|400:128|336:128,2,165
416,304,31728,2,0,B|352:304|352:304|320:264,1,110
328,336,32052,2,0,B|240:336|240:336|208:200,1,220
304,240,32539,5,0
296,224,32620,1,0
288,208,32701,1,0
408,144,32863,1,0
384,136,32944,1,0
360,128,33025,1,0
408,232,33187,1,0
400,224,33268,1,0
392,216,33349,1,12
384,208,33430,1,0
376,208,33511,1,0
368,200,33592,1,0
360,192,33674,1,12
352,192,33755,1,0
344,184,33836,1,0
336,176,33917,1,0
328,168,33998,1,12
320,160,34079,1,0
312,152,34160,1,0
256,48,34322,6,0,B|192:48|192:48|160:96,1,110
256,168,34646,6,0,B|320:168|320:168|352:120,1,110
392,40,34971,2,0,B|448:72|448:72|448:192,2,165
88,264,35619,2,0,B|184:320|184:320|288:256,1,220
184,200,36105,1,0
184,200,36187,1,0
184,200,36268,2,0,B|232:152|280:144|352:176,2,165
296,64,36916,2,0,B|256:168|256:168|320:264,1,220
376,160,37402,1,0
376,160,37484,1,0
376,160,37565,2,0,B|320:160|320:160|288:112|288:112|216:112,2,165
192,176,38213,5,0
176,176,38294,1,0
160,176,38375,1,12
112,88,38537,1,0
96,88,38618,1,0
80,88,38699,1,12
32,280,38862,1,0
48,280,38943,1,0
64,280,39024,1,12
80,280,39105,1,0
96,280,39186,1,0
216,304,39348,6,0,B|280:304|280:304|312:256,1,110
304,248,39672,2,0,B|424:248,2,110
504,192,40159,6,0,B|440:192|440:192|408:240,1,110
368,136,40483,1,0
368,136,40564,1,0
368,136,40645,2,0,B|320:112|248:128,1,110
256,144,40969,2,0,B|184:160|120:136,2,110
40,160,41456,2,0,B|88:192|168:160,1,110
128,280,41780,5,0
128,280,41861,1,0
128,280,41942,2,0,B|200:280|200:280|232:224,1,110
240,232,42266,2,0,B|272:176|240:112,2,110
360,88,42753,2,0,B|288:88|288:88|256:144,1,110
336,16,43077,2,0,B|408:16|408:16|440:72,1,110
432,64,43320,5,0
440,80,43401,1,0
448,96,43482,1,0
456,112,43563,1,0
464,128,43644,1,0
472,144,43725,1,12
456,152,43807,1,0
464,168,43888,1,0
472,184,43969,1,0
480,200,44050,1,12
464,208,44131,1,0
472,224,44212,1,0
480,240,44293,1,0
464,256,44374,1,12
472,272,44455,1,0
480,288,44536,1,6
256,192,53129,12,0,54588
64,96,54750,1,0
64,96,54831,1,0
64,96,54912,2,0,B|128:96|128:96|160:144,1,110
168,144,55236,2,0,B|296:144,2,110
304,160,55723,2,0,B|368:160|368:160|400:112,1,110
393,121,56047,1,0
393,121,56128,1,0
393,121,56209,2,0,B|368:160|368:160|288:160,1,110
288,176,56533,2,0,B|144:176,2,110
72,224,57020,2,0,B|136:224|136:224|176:184,1,110
72,224,57344,5,0
72,224,57425,1,0
72,224,57506,2,0,B|136:224|136:224|176:280,1,110
176,272,57830,2,0,B|312:272,2,110
392,320,58317,2,0,B|328:320|328:320|288:280,1,110
472,216,58641,1,0
464,208,58722,1,12
456,200,58803,1,2
464,96,58965,5,12
448,96,59046,1,0
432,96,59128,1,2
272,216,59290,1,12
288,208,59371,1,0
304,200,59452,1,0
320,192,59533,1,0
336,184,59614,1,12
328,168,59695,1,0
344,160,59776,1,0
360,152,59857,1,0
376,144,59938,2,0,B|352:88|352:88|160:88,1,220
176,168,60425,6,0,B|112:168|112:168|96:120,2,110
128,88,60911,1,0
208,32,61073,1,0
248,120,61235,1,0
248,120,61397,2,0,B|320:120|320:120|256:160|256:160|336:160,1,220
440,168,61884,2,0,B|408:224|408:224|360:224,1,110
264,176,62208,2,0,B|296:120|296:120|344:120,1,110
368,176,62532,2,0,B|344:232|344:232|288:232,1,110
160,176,62856,2,0,B|184:120|184:120|240:120,1,110
264,176,63181,1,0
264,176,63262,1,0
264,176,63343,2,0,B|312:280|312:280|368:280,2,165
256,184,63910,5,0
248,192,63991,1,0
240,200,64072,1,0
232,208,64153,1,12
224,216,64235,1,0
216,224,64316,1,0
208,232,64397,1,0
200,240,64478,1,12
192,248,64559,1,0
184,256,64640,1,0
176,264,64721,1,0
168,272,64802,1,12
160,280,64883,1,0
144,280,64964,1,0
128,280,65045,1,0
112,280,65126,1,4
96,280,65207,1,0
80,280,65288,6,0,B|24:280|24:280|8:224,1,110
104,160,65613,6,0,B|160:160|160:160|176:216,1,110
240,112,65937,1,0
256,128,66018,1,0
272,144,66099,1,0
216,200,66261,1,0
216,216,66342,1,0
216,232,66423,1,0
304,264,66585,6,0,B|360:264|360:264|384:200,1,110
392,128,66910,6,0,B|448:128|448:128|472:192,1,110
456,256,67234,1,0
448,272,67315,1,0
440,288,67396,1,0
376,336,67558,1,0
360,336,67639,1,0
344,336,67720,1,0
256,336,67882,2,0,B|208:336|208:336|184:256,1,110
120,336,68207,2,0,B|88:224,1,110
232,240,68531,5,0
216,232,68612,1,0
200,224,68693,1,12
184,216,68774,1,0
168,208,68855,1,0
40,136,69017,1,12
56,128,69098,1,0
72,120,69179,1,0
88,112,69260,1,0
104,104,69342,1,0
368,56,69504,5,0
352,64,69585,1,0
336,72,69666,1,12
320,80,69747,1,0
304,88,69828,1,0
288,96,69909,1,0
272,104,69990,1,12
256,112,70071,1,0
240,120,70152,1,0
224,128,70233,1,0
224,128,70314,2,0,B|104:184,1,110,12|0
80,312,70639,5,0
80,312,70720,1,0
80,312,70801,2,0,B|224:240,1,110
248,320,71125,1,0
264,320,71206,1,0
280,320,71287,1,12
296,320,71368,1,0
312,320,71449,2,0,B|376:320|376:320|400:248,1,110
400,160,71773,1,0
384,160,71854,1,0
368,160,71936,2,0,B|304:160|304:160|280:232,1,110
448,56,72260,5,0
432,64,72341,1,0
416,72,72422,1,0
288,40,72584,1,4
280,56,72665,1,0
272,72,72746,1,0
104,72,72908,1,12
112,80,72989,1,0
120,88,73070,2,0,B|272:104,1,110
432,208,73395,2,0,B|296:184,1,110
72,224,73719,5,0
88,216,73800,1,0
104,208,73881,2,0,B|216:136,1,110
248,312,74205,1,0
272,304,74286,1,0
296,296,74367,1,0
400,208,74530,1,0
384,216,74611,1,0
368,224,74692,1,0
208,72,74854,1,4
224,80,74935,1,0
240,88,75016,1,0
256,96,75097,1,0
272,104,75178,1,12
288,112,75259,1,0
304,120,75340,1,0
320,128,75421,1,0
336,136,75502,2,0,B|432:184|432:184|464:200,1,110,4|0
392,304,75827,5,0
392,304,75908,1,0
392,304,75989,2,0,B|272:240,1,110
240,328,76313,1,0
232,312,76394,1,0
224,296,76475,1,12
136,328,76637,1,0
120,312,76718,1,0
104,296,76799,1,12
96,208,76961,6,0,B|96:160|96:160|24:104,1,110
176,112,77286,2,0,B|176:48|176:48|224:16,1,110
224,176,77610,1,0
224,176,77691,1,0
224,176,77772,2,0,B|224:240|224:240|272:272,1,110,12|0
296,136,78096,1,12
296,136,78177,1,0
296,136,78259,2,0,B|520:136,2,220
432,216,79069,5,0
448,216,79150,1,0
464,216,79231,1,12
296,248,79393,1,0
312,256,79474,1,0
328,264,79556,1,12
96,296,79718,1,0
112,304,79799,1,0
128,312,79880,1,4
144,312,79961,1,0
160,312,80042,1,0
176,312,80123,1,0
192,312,80204,1,12
464,264,80366,1,0
448,264,80447,1,0
432,264,80528,1,12
416,264,80609,1,0
400,264,80690,2,0,B|328:264|328:264|272:144,2,165
168,184,81339,6,0,B|200:240|200:240|256:240,1,110
344,104,81663,2,0,B|312:160|312:160|256:160,1,110
160,24,81987,2,0,B|192:80|192:80|248:80,1,110
304,24,82312,1,0
304,24,82393,1,0
304,24,82474,2,0,B|456:24,1,110
128,136,82798,1,0
104,144,82879,1,0
80,152,82960,1,0
336,168,83122,1,0
352,168,83203,1,0
368,168,83284,1,0
168,272,83447,1,0
144,272,83528,1,0
120,272,83609,2,0,B|-8:312,1,110
352,328,83933,1,0
368,328,84014,1,0
384,328,84095,2,0,B|512:280,1,110
136,32,84419,5,0
128,48,84500,1,0
120,64,84581,1,12
112,80,84663,1,0
104,96,84744,1,0
456,336,84906,1,12
448,320,84987,1,0
440,304,85068,1,0
432,288,85149,1,0
424,272,85230,1,12
64,312,85392,1,0
80,304,85473,1,0
96,296,85554,1,12
112,288,85635,1,0
128,280,85716,1,0
144,272,85797,1,0
160,264,85878,6,0,B|224:264|224:264|272:216,1,110
416,256,86203,2,0,B|352:256|352:256|328:200,1,110
304,144,86527,1,0
304,144,86608,1,0
304,144,86689,2,0,B|176:144,2,110
368,40,87176,2,0,B|392:88|368:152,1,110
136,144,87500,1,0
136,144,87581,1,0
136,144,87662,2,0,B|104:200|136:264,1,110
336,144,87986,5,0
336,144,88067,1,0
336,144,88148,2,0,B|368:200|336:280,1,110
160,232,88473,2,0,B|136:296|160:360,1,110
200,88,88797,1,0
200,104,88878,1,0
200,120,88959,1,12
312,56,89121,1,0
312,40,89202,1,0
312,24,89283,1,12
328,184,89445,1,0
328,200,89526,1,0
328,216,89607,1,12
200,224,89770,5,0
192,240,89851,1,0
184,256,89932,1,0
176,272,90013,1,0
168,288,90094,1,12
160,304,90175,1,0
152,320,90256,1,0
328,320,90418,1,12
344,312,90499,1,0
360,304,90580,1,0
376,296,90661,1,0
392,288,90742,1,12
240,80,90904,1,0
248,96,90985,1,0
256,112,91067,6,0,B|336:248,1,110
160,176,91391,2,0,B|96:56,1,110
224,232,91715,1,0
224,232,91796,1,0
224,232,91877,2,0,B|288:352,1,110
80,208,92201,1,0
80,208,92283,1,0
80,208,92364,2,0,B|208:208,1,110
312,128,92688,2,0,B|184:128,1,110
352,208,93012,1,0
352,208,93093,1,0
352,208,93174,2,0,B|496:208,2,110
312,128,93661,6,0,B|248:128|248:128|216:168,1,110
304,272,93985,2,0,B|376:272|376:272|400:224,1,110
240,88,94309,6,0,B|176:88|176:88|144:128,1,110
248,232,94633,2,0,B|320:232|320:232|344:184,1,110
384,96,94958,1,12
400,104,95039,1,0
416,112,95120,1,12
432,120,95201,1,0
448,128,95282,1,12
400,192,95444,1,12
408,200,95525,1,0
416,208,95606,1,12
352,264,95768,1,12
352,280,95849,1,0
352,296,95930,1,12
344,304,96011,1,0
328,304,96092,1,12
64,104,96255,5,12
80,96,96336,1,0
96,88,96417,1,2
112,176,96579,1,12
128,168,96660,1,0
144,160,96741,2,0,B|208:160|208:160|248:88,1,110,2|0
240,32,97065,2,0,B|304:32|304:32|328:88,1,110,2|0
384,24,97390,1,2
392,40,97471,1,0
400,56,97552,1,12
464,120,97714,1,14
456,128,97795,1,0
448,136,97876,1,12
440,144,97957,1,0
432,152,98038,1,14
360,120,98200,2,0,B|280:200,1,110,12|2
232,128,98524,5,12
232,128,98605,1,0
232,128,98687,2,0,B|88:128,1,110,2|4
24,208,99011,2,0,B|168:208,1,110,2|0
360,208,99335,2,0,B|224:208,1,110,2|0
248,288,99659,1,2
248,288,99740,1,0
248,288,99821,2,0,B|176:288|176:288|144:224,1,110,12|2
256,208,100146,2,0,B|328:208|328:208|360:144,1,110,0|2
240,128,100470,1,12
240,128,100551,1,0
240,128,100632,2,0,B|168:128|168:128|136:64,1,110,2|12
256,56,100956,1,2
256,56,101037,1,0
256,56,101118,2,0,B|328:56|328:56|360:-8,1,110,12|2
408,96,101443,5,12
416,112,101524,1,0
424,128,101605,1,14
432,144,101686,1,0
440,160,101767,2,0,B|416:216|416:216|352:216,1,110,0|2
280,344,102091,2,12,B|328:296|328:296|376:296,1,110,12|14
344,344,102415,1,0
336,328,102497,1,0
328,312,102578,1,2
320,296,102659,1,0
312,280,102740,1,0
232,208,102902,6,0,B|176:192|120:208,1,110,2|12
176,112,103226,1,2
176,112,103307,1,0
176,112,103388,2,0,B|112:136|64:112,1,110,0|2
68,114,103712,2,0,B|72:192|152:216,1,110,0|2
416,128,104037,1,12
416,128,104118,1,0
416,128,104199,2,0,B|400:192|344:208,1,110,2|0
280,128,104523,2,0,B|216:128|216:128|184:176,1,110,2|0
256,224,104847,5,2
248,240,104928,1,0
240,256,105009,1,4
120,296,105172,1,2
136,296,105253,1,0
152,296,105334,1,12
48,248,105496,5,2
56,232,105577,1,0
64,216,105658,1,12
72,200,105739,1,0
80,184,105820,1,2
88,168,105901,1,0
96,152,105982,1,12
288,64,106144,1,2
280,80,106225,1,0
272,96,106307,1,12
264,112,106388,1,0
256,128,106469,1,2
224,240,106631,5,12
224,240,106712,1,0
224,240,106793,2,0,B|296:240|296:240|336:184,1,110,2|0
336,184,107117,2,0,B|456:184,2,110,2|0|2
408,184,107604,1,0
408,184,107685,1,0
408,184,107766,2,0,B|336:184|336:184|296:240,1,110,2|0
320,96,108090,1,2
320,96,108171,1,0
320,96,108252,2,0,B|296:64|296:64|208:64,1,110,0|2
216,88,108576,2,0,B|104:88,2,110,0|2|0
120,128,109063,1,2
120,128,109144,1,0
120,128,109225,2,0,B|152:88|152:88|240:88,1,110,0|2
272,16,109549,5,4
272,16,109630,1,0
272,16,109711,2,0,B|320:40|320:40|320:104,1,110,2|0
232,96,110035,2,0,B|184:120|184:120|184:184,1,110,2|0
344,176,110360,1,2
344,176,110441,1,0
344,176,110522,2,0,B|392:200|392:200|392:264,1,110,4|2
152,248,110846,2,0,B|104:272|104:272|104:336,1,110,0|2
272,224,111170,5,12
288,232,111251,1,0
304,240,111332,1,2
208,272,111495,1,12
200,280,111576,1,0
192,288,111657,1,2
264,336,111819,1,12
280,336,111900,1,0
296,336,111981,1,2
312,336,112062,1,0
328,336,112143,1,12
432,272,112305,5,2
432,256,112386,1,0
432,240,112467,1,12
360,160,112629,1,2
360,144,112711,1,0
360,128,112792,1,4
456,32,112954,1,2
456,48,113035,1,0
456,64,113116,1,12
456,80,113197,1,0
456,96,113278,1,0
312,48,113440,5,12
296,48,113521,1,0
280,48,113602,2,0,B|216:48|216:48|184:96,1,110,2|12
112,96,113926,1,2
104,112,114008,1,0
96,128,114089,2,0,B|40:232,1,110,12|2
128,280,114413,1,12
144,288,114494,1,0
160,296,114575,2,0,B|280:352,1,110,2|12
352,336,114899,5,2
360,320,114980,1,0
368,304,115061,1,12
376,288,115142,1,0
384,272,115223,2,0,B|408:216|408:216|368:160,1,110,2|12
296,224,115548,1,2
272,72,115710,5,12
256,80,115791,1,0
240,88,115872,1,2
376,96,116034,1,12
392,96,116115,1,0
408,96,116196,1,2
320,48,116358,1,12
328,64,116439,1,0
336,80,116521,1,2
344,96,116602,1,0
352,112,116683,1,12
360,128,116764,1,0
368,144,116845,1,2
376,160,116926,1,0
384,176,117007,1,12
96,104,127383,6,0,B|344:104,2,220
316,104,128194,1,0
400,216,128356,2,0,B|336:208,3,55
320,240,128680,2,2,B|256:224,3,55
240,264,129004,2,0,B|168:248,3,55
72,80,129329,2,2,B|152:96,3,55
160,64,129653,2,0,B|232:80,3,55,0|0|2|2
256,56,129977,2,0,B|344:80,3,55,0|2|0|0
48,280,130301,6,0,B|80:232,3,55,0|0|2|0
112,256,130626,2,0,B|152:200,3,55,0|2|2|2
440,256,130950,2,0,B|384:208,3,55,0|0|2|0
376,256,131274,2,2,B|328:216,3,55
152,152,131598,5,0
144,136,131679,1,2
152,112,131760,1,2
168,96,131842,1,0
192,88,131923,1,2
216,80,132004,1,0
240,80,132085,1,2
264,80,132166,1,2
288,80,132247,1,0
312,88,132328,1,0
336,104,132409,1,2
352,120,132490,1,2
360,144,132571,1,2
368,168,132652,1,2
368,192,132733,1,6
360,216,132814,1,0
352,240,132895,1,2
352,264,132976,1,2
368,280,133057,1,0
392,296,133139,1,2
416,304,133220,1,2
272,256,133382,5,12
288,256,133463,1,0
304,256,133544,1,0
336,224,133706,1,12
320,224,133787,1,0
304,224,133868,1,0
240,192,134030,1,12
368,192,134192,1,0
368,280,134354,1,12
240,280,134517,1,0
192,192,134679,5,12
208,192,134760,1,0
224,192,134841,1,0
256,160,135003,1,12
240,160,135084,1,0
224,160,135165,1,0
160,128,135327,1,12
288,128,135489,1,0
288,216,135652,1,12
160,216,135814,1,0
136,184,135976,5,12
136,168,136057,1,0
136,152,136138,1,0
104,120,136300,1,12
104,136,136381,1,0
104,152,136462,1,0
72,216,136624,1,12
72,88,136786,1,0
160,88,136949,1,12
160,216,137111,1,0
296,160,137273,5,2
160,120,137435,1,2
296,56,137597,1,2
104,96,137759,6,0,B|176:96|176:96|208:144,1,110
288,128,138083,1,12
288,128,138164,1,0
288,128,138246,2,0,B|336:96|336:96|416:96,1,110
408,208,138570,2,0,B|296:208,1,110
184,288,138894,1,0
184,288,138975,1,0
184,288,139056,2,0,B|344:288,1,110
184,208,139380,2,0,B|48:208,1,110,12|0
416,272,139705,6,0,B|352:176,1,110
224,136,140029,1,0
224,136,140110,1,0
224,136,140191,2,0,B|304:240,1,110
248,32,140515,2,0,B|336:144,1,110,0|12
48,288,140840,2,0,B|128:200,1,110
256,176,141164,1,0
256,176,141245,1,0
256,176,141326,2,0,B|168:280,1,110
248,32,141650,1,0
248,32,141731,1,0
248,32,141812,2,12,B|168:144,1,110
328,88,142137,5,2
344,80,142218,1,0
360,72,142299,1,12
376,64,142380,1,0
392,56,142461,1,0
376,176,142623,1,12
392,176,142704,1,0
408,176,142785,1,0
424,176,142866,1,0
440,176,142947,1,12
456,176,143109,6,0,B|456:240|456:240|408:264,1,110,0|12
400,280,143434,2,0,B|280:280,2,110
272,264,143920,1,0
272,264,144001,1,0
272,264,144082,2,0,B|208:264|208:264|192:208,1,110
184,192,144406,1,0
184,192,144487,1,0
184,192,144568,2,0,B|64:192,2,110,12|0|0
336,168,145055,2,0,B|464:168,1,110
184,88,145379,2,0,B|48:88,1,110
336,56,145703,2,0,B|464:56,2,110,0|12|0
72,88,146190,6,0,B|136:72|208:96,1,110
200,104,146514,6,0,B|256:128|336:104,2,110
432,120,147000,2,0,B|376:144|320:128,1,110,0|12
384,56,147325,1,2
376,64,147406,1,0
368,72,147487,1,12
368,192,147649,1,2
352,192,147730,1,0
336,192,147811,1,12
424,128,147973,1,2
408,128,148054,1,0
392,128,148135,1,12
376,128,148216,1,0
360,128,148297,1,2
112,64,148460,5,12
112,64,148541,1,0
112,64,148622,1,2
112,64,148703,1,0
112,64,148784,2,0,B|176:168,1,110
200,120,149108,1,12
200,120,149189,1,0
200,120,149270,1,0
200,120,149351,1,0
200,120,149432,2,0,B|128:232,1,110
168,176,149757,5,12
168,176,149838,1,0
168,176,149919,1,0
168,176,150000,1,0
168,176,150081,2,0,B|248:160|288:224,1,110
128,224,150405,1,12
128,224,150486,1,0
128,224,150567,1,0
128,224,150648,1,0
128,224,150729,2,0,B|136:296|232:320,1,110
224,240,151054,5,12
232,256,151135,1,0
240,272,151216,1,0
312,240,151378,1,12
328,240,151459,1,0
344,240,151540,1,0
440,168,151702,1,12
432,160,151783,1,0
424,152,151864,1,0
416,144,151945,1,0
408,136,152026,6,0,B|392:80|392:80|336:80,1,110,12|0
160,192,152351,2,0,B|176:248|176:248|232:248,1,110,12|0
368,152,152675,1,0
368,152,152756,1,0
368,152,152837,2,0,B|352:96|352:96|296:96,1,110
72,272,153161,1,0
72,272,153242,1,0
72,272,153323,1,0
72,272,153404,1,0
72,272,153485,2,0,B|136:272|136:272|216:272,1,110,0|12
424,200,153810,2,0,B|304:200,1,110
88,104,154134,2,0,B|216:104,1,110
456,72,154458,2,0,B|320:72,1,110
160,40,154783,5,0
168,56,154864,1,0
176,72,154945,1,12
312,80,155107,1,0
320,64,155188,1,0
328,48,155269,1,0
168,56,155431,2,0,B|128:120|176:184,1,110
312,80,155755,2,0,B|344:128|320:192,1,110
128,224,156080,1,0
128,224,156161,1,0
128,224,156242,2,0,B|152:280|128:352,1,110,12|0
360,224,156566,1,0
360,224,156647,1,0
360,224,156728,2,0,B|344:280|368:336,1,110
344,328,157052,5,0
184,264,157214,1,0
344,184,157377,1,0
184,112,157539,1,12
344,40,157701,1,0
240,32,157863,1,12
248,56,157944,1,0
256,80,158025,1,0
264,104,158106,1,0
272,128,158187,1,12
104,136,158349,1,0
88,152,158430,1,0
72,168,158511,1,12
160,264,158674,5,0
184,272,158755,1,0
208,280,158836,1,12
232,288,158917,1,0
256,296,158998,1,0
280,304,159079,1,0
304,312,159160,1,12
304,312,159241,2,6,B|384:208|272:136|328:8,1,302.5
464,120,160295,6,0,B|352:120,1,110,6|0
144,224,160619,1,12
176,224,160700,1,0
208,224,160781,1,0
408,144,160943,2,0,B|272:144,1,110,6|0
104,256,161268,2,0,B|256:256,1,110,2|0
216,256,161592,5,2
304,128,161754,1,0
168,192,161916,1,0
224,128,162078,1,2
352,192,162240,1,12
296,256,162402,1,12
256,192,162727,12,0,164024
64,64,164186,1,0
80,64,164267,1,0
96,72,164348,1,12
112,88,164429,1,0
128,104,164510,1,0
120,128,164591,1,0
104,144,164672,1,12
104,160,164753,1,0
104,176,164834,1,0
104,192,164915,1,0
104,208,164997,1,12
104,224,165078,1,0
112,240,165159,1,0
128,264,165240,1,0
152,272,165321,1,12
168,264,165402,1,0
184,248,165483,1,0
192,232,165564,1,0
200,216,165645,1,12
216,200,165726,1,0
232,192,165807,1,0
256,192,165888,1,0
280,200,165969,1,12
296,216,166050,1,0
304,240,166131,1,0
320,256,166212,1,0
344,256,166294,6,0,B|408:256|408:256|440:208,1,110,12|0
264,112,166618,1,12
264,112,166699,1,0
264,112,166780,2,0,B|200:112|200:112|168:160,1,110
328,112,167104,2,0,B|448:112,2,110
192,256,167591,1,0
192,256,167672,1,0
192,256,167753,2,0,B|80:256,1,110,0|12
192,176,168077,2,0,B|256:176|256:176|280:264,1,110
424,296,168401,1,0
424,296,168482,1,0
424,296,168563,2,0,B|352:296|352:296|336:240,1,110
416,176,168888,6,0,B|184:176,2,220,0|12|0
392,96,169698,1,0
384,80,169779,1,0
376,64,169860,1,12
288,96,170022,1,0
272,88,170104,1,0
256,80,170185,1,12
80,112,170347,1,0
104,104,170428,1,0
128,96,170509,1,12
152,88,170590,1,0
176,80,170671,1,0
432,216,170833,1,12
416,208,170914,1,0
400,200,170995,1,0
384,192,171076,1,0
368,184,171157,1,12
352,176,171238,1,0
336,168,171319,6,0,B|272:168|272:168|224:224,1,110
336,320,171644,1,0
336,320,171725,1,0
336,320,171806,2,0,B|400:320|400:320|448:264,1,110,12|0
288,136,172130,2,0,B|224:136|224:136|176:192,1,110
280,288,172454,1,0
280,288,172535,1,0
280,288,172616,2,0,B|344:288|344:288|392:232,1,110
448,200,172941,5,0
448,184,173022,1,0
448,168,173103,1,12
408,88,173265,1,0
392,80,173346,1,0
376,72,173427,1,0
256,40,173589,1,0
256,40,173670,1,0
256,40,173751,2,0,B|200:40|200:40|168:88,1,110
272,112,174076,5,0
272,112,174157,1,0
272,112,174238,2,0,B|328:112|328:112|360:160,1,110,0|12
248,184,174562,1,0
248,184,174643,1,0
248,184,174724,2,0,B|192:184|192:184|160:232,1,110
272,248,175048,1,0
272,248,175129,1,0
272,248,175211,1,0
272,248,175292,1,0
272,248,175373,2,0,B|328:248|328:248|360:296,1,110
176,328,175697,6,0,B|128:296|128:296|80:336,1,110,12|0
368,256,176021,2,0,B|416:224|416:224|480:272,1,110
144,152,176345,2,0,B|16:152,1,110
352,64,176670,2,0,B|480:64,2,110,0|0|12
392,144,177156,1,0
376,144,177237,1,0
360,144,177318,1,12
256,128,177480,1,0
248,112,177561,1,0
240,96,177642,1,12
160,72,177805,2,0,B|32:72,2,110
120,152,178291,6,0,B|120:224|120:224|176:248,1,110,12|0
240,208,178615,1,12
256,216,178696,1,0
272,224,178777,2,0,B|400:280,1,110
336,128,179102,1,0
336,128,179183,1,0
336,128,179264,2,0,B|336:56|336:56|280:32,1,110
168,72,179588,5,12
144,80,179669,1,0
120,88,179750,1,0
224,152,179912,1,12
240,160,179993,1,0
256,168,180074,1,2
48,272,180236,1,12
72,264,180318,1,0
96,256,180399,1,2
120,248,180480,1,0
144,240,180561,1,12
448,304,180723,5,2
424,296,180804,1,0
400,288,180885,1,12
376,280,180966,1,0
352,272,181047,1,2
328,264,181128,1,0
304,256,181209,1,12
448,176,181371,1,2
424,176,181452,1,0
400,176,181533,1,4
408,32,181696,1,2
384,40,181777,1,0
360,48,181858,1,12
336,56,181939,1,0
312,64,182020,6,0,B|248:64|248:64|208:112,1,110,0|12
320,224,182344,1,0
320,224,182425,1,0
320,224,182506,2,0,B|384:224|384:224|424:176,1,110
200,64,182830,6,0,B|264:64|264:64|304:112,1,110
192,224,183155,1,0
192,224,183236,1,0
192,224,183317,2,0,B|128:224|128:224|88:176,1,110,0|12
48,312,183641,2,0,B|208:312,1,110
464,312,183965,2,0,B|336:312,1,110
416,176,184290,6,0,B|344:176|344:176|320:128,1,110
312,128,184614,2,0,B|200:128,2,110,0|12|0
88,192,185100,2,0,B|128:144|128:144|184:144,1,110
248,56,185425,5,12
264,64,185506,1,0
280,72,185587,1,0
296,80,185668,1,0
312,88,185749,1,12
208,128,185911,1,0
192,136,185992,1,0
176,144,186073,1,12
160,152,186154,1,0
144,160,186235,1,2
56,56,186397,1,12
80,56,186478,1,0
104,56,186559,1,2
416,168,186722,1,12
392,160,186803,1,0
368,152,186884,1,0
344,144,186965,1,0
320,136,187046,1,12
296,128,187127,1,0
272,120,187208,1,12
72,288,187370,6,0,B|160:224|272:320|424:280,1,330
256,192,188505,12,0,189640
88,80,189802,5,12
88,96,189883,1,0
88,112,189964,1,2
216,72,190126,1,12
232,80,190207,1,0
248,88,190288,2,0,B|320:88|320:88|344:128,1,110,2|0
224,208,190613,2,0,B|152:208|152:208|128:168,1,110,2|0
56,264,190937,5,14
72,264,191018,1,0
88,264,191099,1,0
128,336,191261,1,14
144,328,191342,1,0
160,320,191423,1,0
224,264,191585,1,14
240,272,191666,1,0
256,280,191747,1,0
272,288,191829,1,0
272,288,191910,2,0,B|328:288|328:288|368:240,1,110,14|0
312,168,192234,6,0,B|264:168|264:168|240:80,1,110,2|0
344,88,192558,1,14
344,88,192639,1,0
344,88,192720,6,0,B|392:88|392:88|416:0,1,110,0|14
272,32,193045,2,0,B|144:32,1,110,0|2
32,144,193369,2,0,B|168:144,1,110,0|2
104,224,193693,1,2
128,224,193774,1,0
152,224,193855,1,12
128,304,194017,1,0
144,312,194098,1,0
160,320,194179,1,14
432,264,194342,1,0
416,264,194423,1,0
400,264,194504,1,14
384,264,194585,1,0
368,264,194666,1,0
368,176,194828,6,0,B|312:176|312:176|272:128,1,110,2|0
368,80,195152,1,14
368,80,195233,1,0
368,80,195314,2,0,B|424:80|424:80|464:128,1,110,0|14
264,80,195639,2,0,B|200:80|200:80|160:120,1,110,0|2
120,168,195963,1,0
112,192,196044,1,0
104,216,196125,1,2
280,232,196287,1,0
264,232,196368,1,0
248,232,196449,6,0,B|96:232,1,110,14|0
352,112,196773,2,0,B|504:112,1,110,14|0
368,232,197098,2,0,B|368:288|368:288|304:312,1,110,2|0
256,192,197422,1,2
256,192,197503,1,0
256,192,197584,2,0,B|256:136|256:136|320:112,1,110,0|14
456,40,197908,5,0
432,48,197989,1,0
408,56,198070,1,14
320,32,198233,1,0
296,32,198314,1,0
280,32,198395,1,14
168,48,198557,1,0
144,56,198638,1,0
120,64,198719,1,14
96,72,198800,1,0
72,80,198881,1,0
152,160,199043,1,14
176,168,199124,1,0
200,176,199205,1,0
224,184,199286,1,0
248,192,199367,1,14
96,312,199530,1,0
120,312,199611,1,0
144,312,199692,1,14
168,312,199773,1,0
192,312,199854,1,12
216,312,199935,1,0
240,312,200016,6,0,B|304:312|304:312|336:264,1,110,14|0
336,256,200340,2,0,B|448:256,2,110,14|0|14
424,240,200827,1,0
424,240,200908,1,0
424,240,200989,2,0,B|360:240|360:240|328:280,1,110,2|0
96,120,201313,6,0,B|168:120|168:120|192:160,1,110,2|0
200,168,201637,2,0,B|320:168,2,110,14|0|14
280,184,202124,1,0
280,184,202205,1,0
280,184,202286,2,0,B|208:184|208:184|184:144,1,110,2|0
424,144,202610,6,0,B|304:144,1,110,2|0
208,56,202934,1,14
208,56,203015,1,0
208,56,203096,2,0,B|336:56,1,110,0|14
192,144,203421,1,0
192,144,203502,1,0
192,144,203583,2,0,B|48:144,1,110,2|0
104,64,203907,5,14
128,72,203988,1,0
152,80,204069,1,0
96,192,204231,1,14
112,184,204312,1,0
128,176,204393,1,0
280,64,204556,1,14
280,80,204637,1,0
280,96,204718,1,0
280,112,204799,1,0
416,40,204880,1,14
432,56,205042,1,0
448,72,205123,1,0
464,88,205204,1,14
480,104,205285,1,0
496,120,205366,6,12,B|392:184,1,110,12|14
416,232,205690,1,0
408,248,205771,1,0
400,264,205853,2,0,B|296:328,1,110,14|0
208,328,206177,2,0,B|56:328,1,110,2|0
96,168,206501,1,2
112,144,206582,1,0
128,120,206663,2,0,B|64:120|64:120|24:160,1,110,0|14
224,32,206987,2,0,B|224:96|224:96|264:136,1,110,0|14
256,296,207312,1,0
256,296,207393,1,0
256,296,207474,2,0,B|256:232|256:232|216:192,1,110,2|0
440,208,207798,5,14
416,208,207879,1,0
392,208,207960,1,0
368,208,208041,1,0
344,208,208122,1,14
464,120,208284,1,0
440,104,208366,1,0
416,88,208447,1,14
392,72,208528,1,0
368,56,208609,1,0
88,304,208771,1,14
96,296,208852,1,0
104,288,208933,1,12
112,280,209014,1,0
120,272,209095,1,14
128,264,209176,1,0
136,256,209257,1,12
144,248,209338,1,0
256,192,209419,12,0,210230
96,64,210392,5,12
112,72,210473,1,0
128,80,210554,1,2
232,64,210716,1,12
240,72,210797,1,0
248,80,210878,2,0,B|312:80|312:80|368:120,1,110,2|12
248,224,211203,2,0,B|184:224|184:224|128:184,1,110,2|0
272,104,211527,1,2
272,104,211608,1,0
272,104,211689,2,0,B|336:104|336:104|392:144,1,110,12|2
264,256,212013,2,0,B|192:256|192:256|144:216,1,110,12|2
360,272,212338,1,12
360,272,212419,1,0
360,272,212500,2,0,B|424:272|424:272|480:312,1,110,2|0
64,312,212824,6,0,B|216:312,1,110,2|12
440,224,213148,2,0,B|320:224,1,110,2|12
56,160,213473,1,2
56,160,213554,1,0
56,160,213635,2,0,B|192:160,2,110,12|2|0
264,80,214121,2,0,B|152:80,1,110,2|12
248,160,214445,2,0,B|360:160,1,110,2|12
424,80,214770,5,2
416,88,214851,1,0
408,96,214932,1,12
472,184,215094,1,2
456,184,215175,1,0
440,184,215256,1,12
416,296,215418,1,2
400,288,215499,1,0
384,280,215580,1,12
368,272,215661,1,0
352,264,215742,1,2
56,256,215904,5,12
72,248,215985,1,0
88,240,216067,2,0,B|160:216|160:216|184:168,1,110,2|12
40,144,216391,1,2
48,120,216472,1,0
56,96,216553,1,12
152,56,216715,1,2
176,48,216796,1,0
200,40,216877,1,12
176,152,217039,1,2
200,144,217120,1,0
224,136,217201,1,12
248,128,217283,1,0
272,120,217364,1,2
360,72,217526,1,12
384,80,217607,1,0
408,88,217688,6,0,B|480:112|480:112|496:176,1,110,2|12
408,192,218012,1,2
384,200,218093,1,0
360,208,218174,1,12
472,272,218336,1,2
456,272,218417,1,0
440,272,218498,1,12
344,344,218661,1,2
328,336,218742,1,0
312,328,218823,1,12
296,320,218904,1,0
280,312,218985,1,2
80,320,219147,1,12
80,304,219228,1,0
80,288,219309,1,2
80,272,219390,1,0
80,256,219471,1,12
280,152,219633,5,2
264,144,219714,1,0
248,136,219795,1,12
232,128,219877,1,0
216,120,219958,1,2
200,112,220039,1,0
184,104,220120,1,12
168,96,220201,1,0
168,80,220282,1,2
184,72,220363,1,0
200,64,220444,1,12
216,64,220525,1,0
232,64,220606,1,2
248,64,220687,1,0
264,64,220768,1,12
384,280,220930,5,0
400,288,221011,1,0
416,296,221092,1,12
256,208,221255,1,0
272,216,221336,1,0
288,224,221417,1,12
136,144,221579,1,0
152,152,221660,1,0
168,160,221741,1,12
24,72,221903,1,0
40,80,221984,1,0
56,88,222065,1,12
192,88,222227,6,0,B|416:88,2,220
80,280,223038,5,12
64,288,223119,1,0
48,296,223200,1,0
208,208,223362,1,12
192,216,223443,1,0
176,224,223524,1,0
328,144,223687,1,12
312,152,223768,1,0
296,160,223849,1,0
440,72,224011,1,12
424,80,224092,1,0
408,88,224173,1,0
336,64,224335,6,0,B|200:64,1,110
40,240,224659,2,0,B|168:240,1,110
456,304,224984,1,12
456,304,225065,1,0
456,304,225146,2,0,B|336:304,2,110
432,192,225632,1,12
448,192,225713,1,0
464,192,225794,1,0
304,192,225956,1,12
320,192,226037,1,0
336,192,226118,1,0
168,192,226281,5,12
184,192,226362,1,0
200,192,226443,1,0
48,192,226605,1,12
64,192,226686,1,0
80,192,226767,1,0
80,192,226929,6,0,B|144:192|144:192|192:144,1,110
208,64,227253,2,0,B|136:64|136:64|104:96,1,110
432,192,227578,1,12
432,192,227659,1,0
432,192,227740,6,0,B|368:192|368:192|320:144,1,110
304,64,228064,2,0,B|376:64|376:64|408:96,1,110
80,192,228388,1,0
64,192,228469,1,0
48,192,228550,1,12
208,192,228712,1,0
192,192,228794,1,0
176,192,228875,1,12
344,192,229037,1,0
328,192,229118,1,0
312,192,229199,1,12
464,192,229361,1,0
448,192,229442,1,0
432,192,229523,1,12
240,40,229685,5,0
256,40,229766,1,0
272,40,229847,1,12
240,128,230009,1,0
256,128,230091,1,0
272,128,230172,1,12
240,224,230334,1,0
256,224,230415,1,0
272,224,230496,1,12
240,312,230658,1,0
256,312,230739,1,0
272,312,230820,1,12
352,312,230982,6,0,B|488:312,1,110
160,224,231307,2,0,B|32:224,1,110,0|12
472,136,231631,2,0,B|336:136,1,110
40,48,231955,2,0,B|176:48,1,110
200,136,232279,2,0,B|200:24,1,110
336,136,232604,2,0,B|336:24,1,110,0|12
176,328,232928,2,0,B|160:272|192:200,1,110
328,328,233252,2,0,B|352:272|328:216,1,110
256,40,233576,5,0
256,32,233657,1,0
256,24,233738,1,12
256,136,233901,1,0
256,128,233982,1,0
256,120,234063,1,12
256,232,234225,1,0
256,224,234306,1,0
256,216,234387,1,12
256,328,234549,1,0
256,320,234630,1,0
256,312,234711,1,12
256,312,234873,6,0,B|304:312|304:312|352:240,1,110
256,232,235198,2,0,B|208:232|208:232|160:160,1,110,0|12
256,144,235522,2,0,B|304:144|304:144|352:72,1,110
256,64,235846,2,0,B|208:64|208:64|160:-8,1,110
256,328,236170,5,0
256,336,236251,1,0
256,344,236332,1,12
256,232,236495,1,0
256,240,236576,1,0
256,248,236657,1,12
256,136,236819,1,0
256,144,236900,1,0
256,152,236981,1,12
256,40,237143,1,0
256,48,237224,1,0
256,56,237305,1,12
400,88,237467,6,0,B|328:88|328:88|312:128,1,110
304,144,237792,2,0,B|176:144,2,110,0|12|0
88,88,238278,1,0
88,88,238359,1,0
88,88,238440,2,0,B|152:88|152:88|176:136,1,110
408,296,238764,6,0,B|344:272|296:296,1,110
288,304,239089,2,0,B|224:320|168:296,2,110,0|12|0
56,288,239575,1,12
56,288,239656,1,0
56,288,239737,2,0,B|112:272|184:296,1,110
96,208,240061,5,2
120,200,240142,1,0
144,192,240223,1,12
80,72,240386,1,2
104,80,240467,1,0
128,88,240548,1,12
224,72,240710,1,2
248,64,240791,1,0
272,56,240872,1,12
296,48,240953,1,0
320,40,241034,1,0
448,128,241196,5,12
424,136,241277,1,0
400,144,241358,1,2
376,152,241439,1,0
352,160,241521,1,12
328,168,241602,1,0
304,176,241683,1,2
88,96,251897,5,0
200,96,252221,2,0,B|328:96,4,110,12|0|0|0|0
310,96,253032,1,0
88,96,253194,1,0
312,208,253518,2,0,B|200:208,4,110,12|0|0|0|0
200,208,254329,1,0
424,208,254491,1,0
216,320,254815,5,12
232,320,254896,1,0
248,320,254977,1,0
280,288,255139,1,12
264,288,255220,1,0
248,288,255301,1,0
184,256,255463,1,12
312,256,255626,1,0
312,344,255788,1,12
184,344,255950,1,0
216,192,256112,5,12
232,192,256193,1,0
248,192,256274,1,0
280,160,256436,1,12
264,160,256517,1,0
248,160,256598,1,0
184,128,256760,1,12
312,128,256923,1,0
312,216,257085,1,12
184,216,257247,1,0
216,80,257409,5,12
232,80,257490,1,0
248,80,257571,1,0
280,48,257733,1,12
264,48,257814,1,0
248,48,257895,1,0
184,16,258057,1,12
312,16,258220,1,0
312,104,258382,1,12
184,104,258544,1,0
432,232,258706,5,12
432,216,258787,1,0
432,200,258868,1,0
400,168,259030,1,12
400,184,259111,1,0
400,200,259192,1,0
368,264,259354,1,12
368,136,259517,1,0
456,136,259679,1,12
456,264,259841,1,0
72,168,260003,5,12
72,184,260084,1,0
72,200,260165,1,0
104,232,260327,1,12
104,216,260408,1,0
104,200,260489,1,0
136,136,260652,1,12
136,264,260814,1,0
48,264,260976,1,12
48,136,261138,1,0
304,96,261300,5,12
304,112,261381,1,0
304,128,261462,2,0,B|376:128|376:128|400:168,1,110
280,304,261786,1,0
280,280,261867,1,0
280,264,261949,2,0,B|208:264|208:264|184:224,1,110,12|0
80,88,262273,5,12
80,88,262354,1,0
80,88,262435,2,0,B|224:88,1,110,0|12
432,272,262759,1,0
432,272,262840,1,0
432,272,262921,2,0,B|272:272,1,110,12|0
176,88,263246,5,14
176,88,263367,1,12
176,88,263448,1,12
320,160,263570,1,14
320,160,263691,1,12
320,160,263772,1,12
176,240,263894,1,10
176,240,264016,1,12
176,240,264097,1,12
320,304,264218,1,14
320,304,264340,1,12
256,192,264421,5,14
