osu file format v9

[General]
AudioFilename: Demetori - Strawberry Crisis!!(720p_H.264-AAC).mp3
AudioLeadIn: 0
PreviewTime: 60272
Countdown: 0
SampleSet: Normal
StackLeniency: 0.7
Mode: 0
LetterboxInBreaks: 1

[Editor]
DistanceSpacing: 0.7
BeatDivisor: 4
GridSize: 8

[Metadata]
Title:Strawberry Crisis!!
Artist:Demetori
Creator:NanaDesu
Version:x_X
Source:Touhou
Tags:

[Difficulty]
HPDrainRate:6
CircleSize:4
OverallDifficulty:6
ApproachRate:9
SliderMultiplier:1.8
SliderTickRate:1

[Events]
//Background and Video events
0,0,"miezb9.jpg"
//Break Periods
2,52553,58385
2,80658,89964
//Storyboard Layer 0 (Background)
//Storyboard Layer 1 (Fail)
//Storyboard Layer 2 (Pass)
//Storyboard Layer 3 (Foreground)
//Storyboard Sound Samples
//Background Colour Transformations
3,100,163,162,255

[TimingPoints]
3722,315.789473684211,4,1,1,70,1,0
78406,-133.333333333333,4,1,1,70,0,0
79037,-100,4,1,1,70,0,0

[HitObjects]
456,112,3722,6,0,B|392:32|288:48,1,180
216,96,4196,1,0
296,136,4354,2,0,B|296:232,1,90
376,264,4670,2,0,B|376:160,1,90
296,136,4985,2,0,B|224:120|176:128|128:144|160:144|160:144|128:168,1,180
88,224,5459,1,0
176,240,5617,2,0,B|176:336,1,90
264,328,5933,1,0
296,240,6091,1,0
368,296,6248,6,0,B|384:216|440:136,1,135
464,168,6564,1,0
416,88,6722,1,0
352,152,6879,2,0,B|352:240,1,90
224,192,7195,2,0,B|224:304,1,90
48,152,7511,5,0
128,104,7669,1,0
168,80,7748,1,0
216,72,7827,1,0
264,72,7906,1,0
304,80,7985,1,0
344,104,8064,1,0
360,144,8143,2,0,B|376:176|424:184,4,45
464,240,8616,5,0
376,248,8774,1,0
296,296,8932,1,0
160,208,9090,1,0
248,224,9248,1,0
296,296,9406,1,0
376,344,9564,1,0
424,112,9722,6,0,B|424:16,1,90
72,264,10037,2,0,B|72:360,1,90
376,112,10353,2,0,B|376:16,1,90
296,64,10669,2,0,B|296:168,1,90
360,216,10985,5,0
272,232,11143,1,0
272,232,11222,1,0
272,232,11300,1,0
208,168,11458,1,0
296,152,11616,1,0
360,216,11774,1,0
328,304,11932,1,0
240,312,12090,1,0
176,248,12248,6,0,B|72:248,1,90
296,152,12564,2,0,B|400:152,1,90
208,168,12879,2,0,B|112:168,1,90
272,232,13195,2,0,B|392:232,1,90
184,64,13511,5,0
96,88,13669,1,0
72,176,13827,1,0
160,152,13985,1,0
328,64,14143,5,0
416,88,14301,1,0
440,176,14459,1,0
352,152,14617,1,0
256,120,14774,6,0,B|256:216,1,90
168,224,15090,2,0,B|168:336,1,90
256,320,15406,2,0,B|296:288|368:288,1,90
424,328,15722,2,0,B|408:264|440:216,1,90
352,192,16037,5,0
272,224,16195,1,0
200,168,16353,1,0
280,136,16511,1,0
200,168,16669,1,0
128,112,16827,1,0
216,80,16985,1,0
200,168,17143,1,0
168,256,17300,6,0,B|168:352,1,90
168,346,17537,1,0
168,346,17616,1,0
256,328,17774,1,0
256,328,17853,1,0
256,328,17932,2,0,B|256:224,1,90
336,192,18248,2,0,B|336:320,1,90
448,72,18564,5,0
360,56,18722,1,0
296,120,18879,1,0
368,184,19037,1,0
296,120,19195,1,0
208,136,19353,1,0
168,56,19511,1,0
208,136,19669,1,0
144,200,19827,6,0,B|144:320,1,90
368,184,20143,1,0
368,184,20300,2,0,B|368:80,1,90
144,290,20616,1,0
144,290,20774,2,0,B|40:288,1,90
256,128,21090,5,0
320,192,21248,1,0
256,256,21406,1,0
192,192,21564,1,0
256,40,21722,1,0
400,192,21879,1,0
256,336,22037,1,0
112,192,22195,1,0
256,192,22353,5,0
328,248,22511,1,0
400,192,22669,1,0
328,136,22827,1,0
328,136,22985,1,0
256,192,23143,1,0
184,136,23300,1,0
256,80,23458,1,0
400,192,23616,6,0,B|400:312,1,90
400,282,23932,1,0
320,328,24090,1,0
400,280,24248,2,0,B|288:280,1,90
310,280,24564,1,0
224,280,24722,1,0
136,72,24879,6,0,B|136:176,1,90
80,232,25195,1,0
136,162,25353,1,0
184,240,25511,2,0,B|184:336,1,90
272,296,25827,2,0,B|272:184,1,90
432,56,26143,5,0
368,120,26300,1,0
376,208,26458,1,0
456,160,26616,1,0
368,120,26774,1,0
288,160,26932,1,0
224,224,27090,2,0,B|176:248|176:248|128:248,1,90
48,240,27406,5,0
136,160,27616,1,0
256,184,27827,1,0
168,264,28037,1,0
288,288,28248,1,0
376,200,28458,1,0
256,184,28669,1,0
168,264,28879,1,0
208,376,29090,1,0
48,64,29932,6,0,B|48:264,1,180
128,288,30406,2,0,B|128:104,1,180
184,40,30879,1,0
232,120,31037,1,0
320,88,31195,1,0
408,304,31353,1,0
408,304,31432,1,0
408,304,31511,1,0
328,256,31669,5,0
256,312,31827,2,0,B|128:312,1,90
128,232,32143,2,0,B|248:232,1,90
432,64,32458,2,0,B|432:216,2,135
344,96,33090,2,0,B|344:240,2,135
264,56,33722,1,0
144,112,33958,1,0
192,240,34195,5,0
192,240,34274,1,0
192,240,34353,1,0
280,240,34511,2,0,B|368:240,1,90
144,168,34827,1,0
104,248,34985,2,0,B|104:344,1,90
104,338,35222,1,0
104,338,35300,1,0
184,304,35458,1,0
184,304,35537,1,0
184,304,35616,2,0,B|184:216,1,90
184,120,35932,1,0
184,120,36090,1,0
352,256,36248,6,0,B|368:184|424:136,2,135
288,320,36879,1,0
256,240,37037,1,0
288,320,37195,1,0
200,312,37353,1,0
112,288,37511,2,0,B|112:96,1,180
184,56,37985,2,0,B|184:256,1,180
200,312,38458,1,0
256,240,38616,1,0
288,320,38774,2,0,B|480:320,1,180
448,72,39248,5,0
448,72,39327,1,0
448,72,39406,1,0
360,56,39564,1,0
336,144,39722,1,0
424,152,39879,1,0
448,72,40037,2,0,B|264:72,1,180
176,88,40511,1,0
224,160,40669,2,0,B|152:192|120:280,2,135
304,192,41300,6,0,B|304:304,1,90
304,192,41616,1,0
360,120,41774,1,0
360,120,41853,1,0
360,120,41932,1,0
272,88,42090,1,0
272,88,42169,1,0
272,88,42248,1,0
216,160,42406,1,0
216,160,42485,1,0
216,160,42564,1,0
304,192,42722,6,0,B|304:288,1,90
216,312,43037,2,0,B|216:216,2,90
128,280,43511,2,0,B|128:176,1,90
424,64,43827,5,0
360,128,43985,1,0
360,216,44143,1,0
424,280,44300,1,0
440,176,44458,1,0
360,128,44616,1,0
280,168,44774,1,0
360,216,44932,1,0
280,264,45090,6,0,B|280:352,1,90
200,312,45406,2,0,B|200:208,1,90
280,40,45722,2,0,B|280:136,1,90
200,88,46037,2,0,B|200:0,1,90
48,192,46353,5,0
136,192,46511,1,0
48,192,46669,1,0
464,192,46827,1,0
376,192,46985,1,0
464,192,47143,1,0
136,192,47300,1,0
376,192,47458,1,0
256,192,47616,1,0
256,192,47932,1,0
256,192,48090,2,0,B|216:264|248:312|296:272|256:176,1,180
408,88,48722,5,0
408,176,48879,2,0,B|408:296,2,120
312,256,49511,2,0,B|312:112,2,120
256,192,50143,12,0,52353
72,120,58985,5,0
110,97,59064,1,0
154,100,59143,1,0
192,123,59222,1,0
212,162,59300,1,0
212,207,59379,1,0
194,248,59458,1,0
198,292,59537,1,0
224,328,59616,5,0
267,340,59695,1,0
311,333,59774,1,0
347,306,59853,1,0
362,263,59932,1,0
351,219,60011,1,0
352,174,60090,1,0
366,131,60169,1,0
390,93,60248,6,0,B|419:54|471:38,1,90
464,152,60564,2,0,B|464:216|440:272,1,90
48,248,61037,1,0
128,176,61195,1,0
232,216,61353,1,0
232,216,61432,1,0
232,216,61511,2,0,B|192:240|168:296,1,90
280,288,61827,2,0,B|280:376,1,90
416,208,62300,5,0
320,152,62458,1,0
336,48,62616,1,0
424,104,62774,2,0,B|424:288,1,180
312,280,63248,2,0,B|248:200|112:208,1,180
56,256,63722,2,0,B|112:280|120:328,1,90
224,336,64037,2,0,B|256:240|368:208,1,180
456,216,64511,2,0,B|456:144|384:112|384:112|320:112,1,180
280,208,64985,5,0
208,128,65143,1,0
168,136,65222,1,0
120,144,65300,1,0
144,280,65458,1,0
192,288,65537,1,0
240,296,65616,1,0
224,208,65774,1,0
312,208,65932,2,0,B|424:208,1,90
128,208,66248,2,0,B|32:208,1,90
224,120,66564,6,0,B|224:32,2,90
224,208,67037,1,0
224,208,67116,1,0
224,208,67195,1,0
224,208,67353,1,0
280,304,67511,1,0
376,248,67669,1,0
328,152,67827,5,0
168,64,67985,1,0
64,216,68143,1,0
224,288,68300,1,0
216,184,68458,1,0
128,240,68616,1,0
144,344,68774,1,0
224,288,68932,1,0
128,240,69090,2,0,B|0:240,2,90
240,240,69564,5,0
312,320,69722,1,0
365,318,69800,1,0
410,288,69879,1,0
429,237,69958,1,0
420,183,70037,1,0
381,145,70116,1,0
329,127,70195,1,0
277,143,70274,1,0
242,184,70353,6,0,B|167:243|66:250,1,180
40,152,70827,2,0,B|128:176|240:128,1,180
304,72,71300,1,0
408,88,71458,1,0
400,192,71616,2,0,B|312:200|304:272|304:272|304:336,1,180
112,192,72090,6,0,B|200:200|208:272|208:272|208:336,1,180
112,296,72564,1,0
400,296,72722,1,0
256,296,72879,2,0,B|264:240|256:216|256:232|248:256|256:96,1,180
168,48,73353,2,0,B|216:24|312:16|360:64,1,180
408,136,73827,2,0,B|352:168|336:232,1,90
440,256,74143,2,0,B|384:192|264:200,1,180
224,296,74616,6,0,B|176:272|168:232|168:232|120:240|72:192,1,180
168,136,75090,2,0,B|224:144|248:176,1,90
304,264,75406,2,0,B|344:176|464:152,1,180
248,136,75879,2,0,B|160:88|48:112,1,180
176,232,76353,2,0,B|96:288,1,90
208,320,76669,5,0
312,328,76827,1,0
312,328,76906,1,0
312,328,76985,1,0
384,248,77143,1,0
384,248,77300,5,0
296,96,77458,1,0
120,136,77616,1,0
200,296,77774,1,0
296,96,77932,2,0,B|408:96,2,90
200,296,78406,2,0,B|64:296,2,134.999995976687
293,339,79195,5,0
337,332,79274,1,0
373,305,79353,1,0
393,264,79432,1,0
399,219,79511,1,0
388,175,79590,1,0
354,145,79669,1,0
311,129,79748,1,0
266,136,79827,5,0
235,168,79906,1,0
220,210,79985,1,0
199,250,80064,1,0
154,264,80143,1,0
109,255,80222,1,0
78,222,80300,1,0
72,177,80379,1,0
89,135,80458,1,0
464,64,90564,5,0
421,48,90643,1,0
375,47,90722,1,0
336,69,90801,1,0
303,100,90880,1,0
279,137,90958,1,0
268,180,91037,1,0
272,224,91116,1,0
269,268,91195,1,0
253,310,91274,5,0
226,346,91353,1,0
187,369,91432,1,0
142,374,91511,1,0
99,358,91590,1,0
72,321,91669,1,0
62,276,91748,1,0
69,231,91827,1,0
92,192,91906,1,0
132,172,91985,5,0
175,181,92064,1,0
213,203,92143,1,0
240,238,92222,1,0
259,278,92301,1,0
280,317,92380,1,0
318,338,92458,1,0
359,355,92537,1,0
406,344,92616,1,0
448,330,92695,5,0
476,294,92774,1,0
484,249,92853,1,0
480,204,92932,1,0
460,163,93011,1,0
422,137,93090,1,0
376,137,93169,1,0
332,148,93248,1,0
304,183,93327,1,0
287,224,93406,5,0
273,266,93485,1,0
237,293,93564,1,0
196,311,93643,1,0
150,311,93722,1,0
112,286,93800,1,0
82,252,93879,1,0
83,202,93958,1,0
96,159,94037,5,0
130,129,94116,1,0
172,115,94195,1,0
216,120,94274,1,0
253,144,94353,2,0,B|313:237|419:255,1,180
293,310,94827,2,0,B|202:267|100:295,1,180
8,336,95300,1,0
32,200,95458,5,0
160,248,95616,2,0,B|224:256|288:208|304:120,1,180
192,64,96090,2,0,B|168:120|200:176,1,90
376,288,96406,1,0
376,288,96485,1,0
376,288,96564,2,0,B|400:240|376:192,1,90
240,136,96879,6,0,B|192:176|80:200,1,135
64,152,97195,2,0,B|104:208|112:272,1,90
208,320,97511,1,0
328,256,97669,1,0
224,176,97827,1,0
104,240,97985,5,0
104,240,98064,1,0
104,240,98143,1,0
328,256,98300,1,0
104,240,98458,2,0,B|224:248,1,90
24,232,98774,1,0
408,264,98932,1,0
24,232,99090,2,0,B|137:243,1,90
224,312,99406,5,0
392,200,99643,1,0
264,48,99879,1,0
224,312,100037,5,0
40,112,100353,1,0
312,80,100669,1,0
448,200,100985,1,0
312,320,101300,1,0
136,280,101616,1,0
256,144,101932,5,0
384,272,102248,1,0
216,336,102564,1,0
88,208,102879,1,0
256,144,103195,2,0,B|256:32,1,90
256,256,103511,2,0,B|256:368,1,90
256,144,103827,1,0
256,256,103985,1,0
256,144,104143,1,0
256,256,104300,1,0
352,320,104458,5,0
256,256,104616,1,0
160,328,104774,1,0
256,256,104932,1,0
352,320,105090,1,0
256,256,105248,1,0
160,328,105406,5,0
256,232,105564,1,0
256,96,105722,2,0,B|256:200,1,90
128,152,106037,2,0,B|128:272,1,90
392,152,106353,2,0,B|392:256,1,90
256,272,106669,2,0,B|256:176,1,90
256,48,106985,5,0
88,112,107143,1,0
256,168,107300,1,0
424,112,107458,1,0
478,283,107616,5,0
446,315,107695,1,0
405,335,107774,1,0
360,342,107853,1,0
314,343,107932,1,0
269,333,108011,1,0
227,315,108090,1,0
191,286,108169,1,0
170,245,108248,1,0
163,200,108327,5,0
159,155,108406,1,0
175,112,108485,1,0
207,80,108564,1,0
246,57,108643,1,0
289,46,108722,1,0
333,48,108800,1,0
375,62,108879,1,0
405,95,108958,1,0
427,134,109037,5,0
434,178,109116,1,0
431,222,109195,1,0
417,264,109274,1,0
386,297,109353,1,0
344,315,109432,1,0
298,315,109511,2,0,B|248:328|176:344|147:208,1,180
232,136,109985,2,0,B|232:200|256:232,1,90
368,240,110300,1,0
368,240,110379,1,0
368,240,110458,2,0,B|272:232|184:272,1,180
168,312,110853,5,0
136,312,110932,1,0
104,312,111011,1,0
192,264,111090,1,0
224,264,111169,1,0
256,264,111248,1,0
168,232,111327,1,0
136,232,111406,1,0
104,232,111485,1,0
192,184,111564,5,0
224,184,111643,1,0
256,184,111722,1,0
288,184,111800,1,0
320,184,111879,1,0
