osu file format v9

[General]
AudioFilename: Demetori - Reichi no Taiyou Shinkou _ Nuclear Fusion.mp3
AudioLeadIn: 2000
PreviewTime: 117071
Countdown: 0
SampleSet: Normal
StackLeniency: 0.4
Mode: 1
LetterboxInBreaks: 1
SkinPreference:taiko

[Editor]
Bookmarks: 226231,28,3231,105889
DistanceSpacing: 1.9
BeatDivisor: 4
GridSize: 8

[Metadata]
Title:Solar Sect of Mystic Wisdom ~ Nuclear Fusion
Artist:Demetori
Creator:Louis Cyphre
Version:AC-227
Source:Touhou
Tags:mekadon Subterranean Animism Reiuji Utsuho metal Chireiden Nada Upasana Pundarika OnosakiHito ignorethis

[Difficulty]
HPDrainRate:5
CircleSize:5
OverallDifficulty:5
ApproachRate:5
SliderMultiplier:1.34999990463257
SliderTickRate:2

[Events]
//Background and Video events
0,0,"Taiko_BG.png"
//Break Periods
//Storyboard Layer 0 (Background)
//Storyboard Layer 1 (Fail)
//Storyboard Layer 2 (Pass)
//Storyboard Layer 3 (Foreground)
//Storyboard Sound Samples
//Background Colour Transformations
3,100,163,162,255

[TimingPoints]
231,324.324324324324,4,1,0,90,1,0
2663,346.820809248555,4,1,0,90,1,1
3356,346.820809248555,4,1,0,90,1,0
38211,-100,4,1,0,90,0,0
83471,-200,4,1,0,90,0,0
102893,-166.666666666667,4,1,0,90,0,0
103413,-142.857142857143,4,1,0,90,0,0
103760,-125,4,1,0,90,0,0
104280,-111.111111111111,4,1,0,90,0,0
104801,-100,4,1,0,90,0,0
106014,-100,4,1,0,90,0,1
138789,-100,4,1,0,90,0,0
140524,346.820809248555,4,1,0,90,1,1
162373,346.820809248555,4,1,0,90,1,1
162503,-100,4,1,0,90,0,0
184569,-100,4,1,0,90,0,1
227575,-100,4,1,0,90,0,0

[HitObjects]
64,304,231,1,0
96,224,393,1,0
128,128,555,1,0
175,80,717,1,0
256,240,879,1,0
240,152,1041,1,0
272,64,1203,1,0
384,240,1366,1,0
312,176,1528,1,0
384,80,1690,1,0
328,120,1852,1,0
256,104,2014,1,0
200,152,2176,1,8
240,216,2339,1,0
160,272,2501,1,0
160,272,2663,5,0
160,272,2836,1,0
256,296,3009,1,0
344,248,3183,1,0
224,160,3356,5,0
224,160,3442,1,0
272,112,3616,1,0
272,112,3702,1,0
304,160,3876,1,0
320,192,3962,1,0
272,240,4136,1,0
256,256,4223,1,0
192,224,4396,1,0
160,224,4483,1,0
160,160,4656,1,0
160,128,4743,1,0
160,64,4916,1,0
160,32,5003,1,0
192,80,5176,1,0
208,112,5263,1,0
256,160,5436,1,0
288,160,5523,1,0
304,224,5697,1,0
320,256,5783,1,8
256,272,5957,1,8
176,224,6130,1,0
128,208,6217,1,0
152,112,6390,1,0
192,136,6477,1,0
272,80,6650,1,0
272,80,6737,1,0
288,160,6910,1,0
288,160,6997,1,0
376,200,7171,1,0
416,224,7257,1,0
336,280,7431,1,0
296,304,7517,1,0
208,264,7691,1,0
168,232,7777,1,0
120,144,7951,1,0
120,144,8038,1,0
136,48,8211,1,0
272,80,8298,1,0
256,232,8471,1,0
256,232,8558,1,0
256,184,8731,1,8
248,144,8905,1,0
248,144,8991,1,0
256,184,9165,1,0
256,184,9251,1,0
256,184,9425,1,0
256,184,9512,1,0
256,184,9685,1,0
256,184,9772,1,0
256,184,9945,1,0
256,184,10032,1,0
256,184,10205,1,0
256,184,10292,1,0
256,184,10465,1,0
256,184,10552,1,0
256,184,10725,1,0
256,184,10812,1,0
256,184,10986,1,0
256,184,11072,1,0
256,184,11246,1,0
256,184,11332,1,0
256,184,11506,1,0
256,184,11592,1,0
256,184,11766,1,0
256,184,11853,1,0
256,184,12026,1,0
256,184,12113,1,0
256,184,12286,1,0
256,184,12373,1,0
256,184,12546,1,0
256,184,12633,1,0
256,184,12806,1,0
256,184,12893,1,0
256,184,13066,1,4
256,184,13413,1,4
256,184,13760,1,0
256,184,13847,1,0
256,184,13934,1,8
256,184,14020,1,8
256,184,14107,1,0
256,184,14194,1,0
256,184,14280,1,8
256,184,14454,1,0
256,184,14540,1,0
256,184,14714,1,0
256,184,14801,1,0
256,184,14974,1,0
256,184,15061,1,0
256,184,15234,1,0
256,184,15321,1,0
256,184,15494,1,0
256,184,15581,1,0
256,184,15754,1,0
256,184,15841,1,0
256,184,16014,1,0
256,184,16101,1,0
256,184,16275,1,0
256,184,16361,1,0
256,184,16535,1,0
256,184,16621,1,0
256,184,16795,1,0
256,184,16882,1,8
256,184,17055,1,2
256,184,17228,1,0
256,184,17315,1,0
256,184,17488,1,0
256,184,17575,1,0
256,184,17749,1,0
256,184,17835,1,0
256,184,18009,1,0
256,184,18095,1,0
256,184,18269,1,0
256,184,18356,1,0
256,184,18529,1,0
256,184,18616,1,0
256,184,18789,1,0
256,184,18876,1,0
256,184,19049,1,0
256,184,19136,1,0
256,184,19309,1,0
256,184,19396,1,2
256,184,19569,1,2
256,184,19743,1,2
256,184,19829,1,0
256,184,20003,1,0
256,184,20090,1,0
256,184,20263,1,0
256,184,20350,1,0
256,184,20523,1,0
256,184,20610,1,0
224,176,20783,1,0
224,176,20870,1,0
256,184,21043,1,0
256,184,21130,1,0
256,184,21303,1,0
256,184,21390,1,0
256,184,21564,1,0
256,184,21650,1,0
256,184,21824,1,0
256,184,21910,1,0
256,184,22084,1,2
224,176,22257,1,2
224,176,22431,1,2
256,184,22517,1,0
256,184,22691,1,0
256,184,22777,1,0
256,184,22951,1,0
256,184,23038,1,0
256,184,23211,1,0
256,184,23298,1,0
224,176,23471,1,0
224,176,23558,1,0
224,176,23645,1,2
256,184,23818,1,0
256,184,23905,1,0
256,184,23991,1,2
256,128,24165,1,0
256,128,24251,1,2
256,128,24338,1,2
288,168,24512,1,2
288,168,24627,1,2
256,128,24743,1,2
168,176,24858,1,2
89,116,24916,1,0
177,248,24974,1,2
237,254,25090,1,2
156,158,25205,1,0
344,248,25321,1,2
372,192,25436,1,2
336,132,25552,1,0
256,192,25725,12,0,27806
120,80,28327,5,4
136,144,28500,1,0
160,208,28673,1,2
200,112,28847,1,0
224,176,29020,1,0
240,200,29107,1,0
256,224,29194,1,0
272,160,29367,1,2
272,96,29540,1,0
216,64,29714,1,0
160,104,29887,1,2
152,176,30061,1,0
176,168,30147,1,0
176,168,30234,1,2
232,208,30408,1,0
178,249,30581,1,2
152,270,30668,1,2
178,248,30754,1,0
119,214,30928,1,0
101,148,31275,1,0
159,113,31448,1,2
224,130,31621,1,0
256,138,31708,1,0
289,144,31795,1,2
266,80,31968,1,2
199,70,32142,1,0
199,103,32228,1,0
197,136,32315,1,2
180,201,32488,1,0
209,183,32575,1,0
163,266,32662,1,2
226,241,32835,1,0
226,241,32922,1,2
226,241,33009,1,2
247,177,33182,1,0
247,177,33269,1,2
247,177,33356,1,2
272,114,33529,1,0
332,144,33702,1,6
349,79,33876,1,0
356,46,33962,1,0
363,13,34049,1,0
299,36,34223,1,2
237,63,34396,1,2
175,90,34569,1,0
144,104,34656,1,0
123,131,34743,1,2
123,131,34916,1,0
173,175,35090,1,2
240,172,35263,1,0
273,171,35350,1,2
306,166,35436,1,2
256,211,35610,1,0
202,253,35783,1,2
137,234,35957,1,0
106,219,36043,1,0
90,189,36130,1,2
117,127,36303,1,2
132,96,36361,1,0
132,96,36419,1,0
150,83,36477,1,0
216,68,36650,1,2
222,135,36824,1,0
224,168,36910,1,0
195,185,36997,1,2
262,186,37171,1,0
266,219,37257,1,0
296,159,37344,1,2
278,93,37517,1,2
341,69,37691,1,0
362,60,37749,1,0
362,60,37806,1,0
362,60,37864,1,2
172,89,38211,1,0
120,133,38384,1,2
173,174,38558,1,0
199,195,38645,1,0
183,224,38731,1,0
243,194,38905,1,0
257,176,38962,1,0
272,159,39020,1,0
257,176,39078,1,2
276,240,39251,1,0
343,244,39425,1,0
333,176,39598,1,0
333,176,39685,1,0
333,176,39772,1,2
325,109,39945,1,0
296,90,40032,1,0
262,82,40119,1,2
201,110,40292,1,2
134,99,40465,1,0
105,116,40552,1,0
102,149,40639,1,2
102,216,40812,1,0
103,249,40899,1,0
126,273,40986,1,2
170,222,41159,1,2
215,171,41332,1,2
238,146,41419,1,0
262,82,41592,1,2
295,180,41679,1,0
268,200,41853,1,2
256,176,41910,1,2
288,136,41968,1,2
268,200,42026,1,0
208,152,42199,1,2
152,96,42373,1,0
128,72,42460,1,0
128,72,42546,1,2
153,144,42720,1,2
174,207,42893,1,0
184,239,42980,1,2
212,257,43066,1,0
279,262,43240,1,2
325,212,43413,1,0
338,181,43500,1,0
319,152,43587,1,2
248,168,43760,1,2
184,128,43934,1,0
152,104,44020,1,0
120,120,44107,1,2
120,192,44280,1,0
136,224,44338,1,0
160,248,44396,1,0
184,272,44454,1,2
200,240,44540,1,0
216,208,44627,1,2
248,144,44801,1,6
216,80,44974,1,2
288,56,45147,1,0
256,72,45234,1,0
288,56,45321,1,2
328,120,45494,1,2
296,184,45668,1,2
304,152,45841,1,0
296,192,45928,1,2
248,256,46014,1,2
200,200,46188,1,2
144,152,46361,1,0
112,136,46448,1,0
80,112,46535,1,2
96,144,46621,1,2
112,48,46708,1,0
144,64,46795,1,0
176,88,46882,1,2
248,64,47055,1,0
272,88,47142,1,0
304,112,47228,1,2
240,144,47402,1,0
304,184,47575,1,6
264,248,47749,1,0
152,192,47922,1,2
208,240,48095,1,0
208,240,48182,1,0
248,232,48269,1,2
176,88,48442,1,2
248,96,48616,1,0
272,104,48673,1,0
296,120,48731,1,0
312,144,48789,1,2
240,168,48962,1,2
96,120,49309,1,0
96,120,49396,1,0
96,120,49483,1,2
96,120,49656,1,0
96,120,49743,1,0
96,120,49829,1,2
168,112,50003,1,2
192,96,50061,1,0
208,112,50119,1,0
192,128,50176,1,0
160,192,50350,1,2
160,264,50523,1,0
200,264,50610,1,0
264,224,50783,1,0
296,200,50870,1,0
312,128,51043,1,0
296,96,51130,1,0
240,144,51303,1,0
208,168,51390,1,0
152,120,51564,1,0
128,144,51650,1,0
112,216,51824,1,0
136,248,51910,1,0
208,240,52084,1,0
248,248,52171,1,0
304,200,52344,1,0
288,168,52431,1,0
336,112,52604,1,0
360,88,52691,1,0
400,152,52864,1,0
416,184,52951,1,0
352,144,53124,1,0
368,240,53298,1,0
344,272,53384,1,0
296,216,53558,1,0
272,184,53645,1,0
224,128,53818,1,0
184,120,53905,1,0
120,152,54078,1,0
128,184,54165,1,0
168,248,54338,1,0
192,216,54425,1,0
176,144,54598,1,0
184,120,54685,1,0
160,48,54858,1,0
168,80,54945,1,0
96,96,55119,1,0
128,112,55205,1,0
200,136,55379,1,0
232,200,55552,1,0
240,240,55639,1,0
264,168,55812,1,0
296,184,55899,1,0
304,256,56072,1,0
280,224,56159,1,0
288,152,56332,1,0
288,104,56419,1,0
232,72,56592,1,0
176,40,56679,1,0
152,112,56853,1,0
136,144,56939,1,0
128,216,57113,1,0
152,248,57199,1,0
216,120,57373,1,0
184,112,57460,1,0
112,104,57633,1,0
104,136,57720,1,0
176,168,57893,1,0
208,184,57980,1,0
272,152,58153,1,0
288,120,58240,1,0
312,192,58413,1,0
344,168,58500,1,0
272,192,58673,1,2
208,232,58847,1,0
176,248,58934,1,0
120,192,59107,1,0
128,152,59194,1,0
136,80,59367,1,0
104,104,59454,1,0
176,96,59627,1,0
192,128,59714,1,0
176,200,59887,1,0
144,216,59974,1,0
216,216,60147,1,0
224,256,60234,1,0
208,184,60408,1,0
184,160,60494,1,0
184,104,60668,1,0
312,152,60754,1,0
248,112,60928,1,0
216,96,61014,1,0
184,72,61101,1,2
136,128,61275,1,0
128,168,61361,1,0
112,200,61448,1,2
152,264,61621,1,0
224,256,61795,1,0
280,200,61968,1,2
296,128,62142,1,0
352,80,62315,1,0
384,104,62402,1,0
352,120,62488,1,0
352,160,62662,1,2
352,232,62835,1,0
344,272,62922,1,0
304,272,63009,1,2
240,240,63182,1,0
248,200,63269,1,0
240,184,63355,1,2
200,120,63529,1,2
136,80,63702,1,0
112,112,63789,1,2
88,184,63962,1,2
104,216,64049,1,0
160,168,64223,1,0
160,240,64396,1,0
232,264,64569,1,2
264,200,64743,1,0
272,176,64829,1,0
296,128,64916,1,2
256,64,65090,1,0
216,64,65176,1,0
192,88,65263,1,2
120,64,65436,1,0
88,128,65610,1,2
112,160,65697,1,0
144,136,65783,1,2
152,208,65957,1,2
216,168,66130,1,0
240,160,66188,1,0
264,160,66246,1,0
288,168,66303,1,2
256,192,66390,1,0
224,208,66477,1,0
224,296,66564,1,2
224,280,66650,1,0
288,248,66824,1,0
344,192,66997,1,0
320,120,67171,1,0
296,96,67257,1,0
264,80,67344,1,2
200,88,67517,1,0
192,56,67604,1,0
160,80,67691,1,2
128,144,67864,1,2
96,208,68038,1,0
128,192,68124,1,0
240,200,68211,1,2
208,264,68384,1,2
136,256,68558,1,0
112,224,68645,1,2
152,232,68731,1,2
168,208,68905,1,0
176,136,69078,1,2
240,104,69251,1,2
272,88,69338,1,2
304,72,69425,1,0
336,48,69512,1,2
376,48,69598,1,0
368,120,69772,1,0
248,208,70119,1,0
288,144,70292,1,2
336,200,70465,1,0
352,232,70552,1,0
312,232,70639,1,2
248,272,70812,1,2
192,224,70986,1,0
176,208,71043,1,0
168,184,71101,1,0
176,160,71159,1,8
280,56,71506,1,0
248,72,71592,1,2
256,112,71679,1,2
328,96,71853,1,0
304,96,71910,1,2
360,120,71968,1,2
336,152,72026,1,2
280,200,72199,1,2
288,288,72373,1,0
216,264,72546,1,2
176,160,72720,1,0
168,120,72806,1,0
160,88,72893,1,2
112,144,73066,1,2
120,216,73240,1,0
152,224,73327,1,0
192,216,73413,1,2
232,152,73587,1,2
288,96,73760,1,2
296,128,73847,1,2
304,168,73934,1,0
296,240,74107,1,0
352,192,74280,1,2
400,136,74454,1,0
424,112,74540,1,2
400,80,74627,1,2
376,48,74714,1,0
344,72,74801,1,0
272,96,74974,1,2
200,104,75147,1,0
160,112,75234,1,0
136,136,75321,1,2
168,200,75494,1,2
224,248,75668,1,0
256,224,75754,1,0
288,208,75841,1,2
256,144,76014,1,2
328,144,76188,1,0
352,144,76246,1,0
376,144,76303,1,0
376,144,76361,1,2
400,120,76448,1,0
424,96,76535,1,0
384,88,76621,1,0
344,88,76708,1,2
272,72,76882,1,2
216,120,77055,1,0
192,112,77113,1,0
192,112,77171,1,0
192,112,77228,1,2
160,176,77402,1,0
160,200,77460,1,0
160,224,77517,1,0
160,248,77575,1,2
208,304,77749,1,2
264,256,77922,1,0
256,216,78009,1,0
272,184,78095,1,2
328,136,78269,1,0
392,96,78442,1,0
376,128,78529,1,0
376,168,78616,1,2
336,232,78789,1,0
352,200,78876,1,0
80,72,78962,1,2
136,120,79136,1,2
80,168,79309,1,0
96,192,79367,1,2
120,200,79425,1,2
144,208,79483,1,2
176,192,79569,1,2
208,168,79656,1,0
192,104,79829,1,2
256,64,80003,1,0
272,96,80090,1,0
264,136,80176,1,2
240,208,80350,1,2
304,168,80523,1,0
376,168,80697,1,2
376,192,80754,1,0
368,216,80812,1,0
360,240,80870,1,0
216,256,81217,1,4
48,112,81737,1,4
296,56,82257,1,4
144,216,82777,1,4
192,160,83124,1,12
296,208,83471,1,0
264,192,83558,1,0
296,208,83645,1,0
248,64,83818,1,0
320,88,83991,1,0
392,104,84165,1,0
376,176,84338,1,0
360,248,84512,1,2
288,240,84685,1,0
216,256,84858,1,0
192,184,85032,1,2
176,112,85205,1,0
240,152,85379,1,0
320,88,85552,1,0
304,160,85725,1,2
256,104,85899,1,0
216,40,86072,1,0
240,72,86159,1,0
240,72,86246,1,0
304,104,86419,1,0
252,146,86592,1,0
152,112,86766,1,2
152,168,86939,1,0
152,224,87113,1,0
208,224,87286,1,2
264,224,87460,1,0
264,168,87633,1,0
264,112,87806,1,0
224,155,87980,1,0
218,95,88153,1,0
158,92,88327,1,2
131,145,88500,1,0
131,145,88587,1,0
131,145,88673,1,2
144,202,88847,1,2
202,214,89020,1,2
260,225,89194,1,2
296,109,89367,1,0
314,157,89540,1,2
333,204,89714,1,0
306,249,89887,1,2
264,217,90061,1,0
227,179,90234,1,2
175,179,90408,1,0
128,155,90581,1,2
162,116,90754,1,0
197,77,90928,1,2
228,118,91101,1,0
264,81,91275,1,2
296,121,91448,1,0
330,82,91621,1,2
347,63,91708,1,2
366,45,91795,1,0
388,92,91968,1,0
410,138,92142,1,4
373,174,92315,1,4
301,249,92662,1,4
250,235,92835,1,4
250,131,93182,1,4
247,78,93355,1,4
143,91,93702,1,4
144,142,93876,1,4
253,242,94223,1,4
304,185,94916,1,0
277,115,95090,1,2
205,95,95263,1,0
132,79,95436,1,2
152,150,95610,1,0
172,221,95783,1,2
235,182,95957,1,0
275,243,96130,1,2
213,285,96303,1,0
286,297,96477,1,2
354,268,96650,1,0
363,194,96824,1,2
334,125,96997,1,0
319,91,97084,1,0
319,91,97171,1,0
282,99,97257,1,0
246,109,97344,1,0
246,109,97431,1,0
246,109,97517,1,0
192,57,97691,1,0
177,130,97864,1,2
200,200,98038,1,0
154,258,98211,1,2
224,233,98384,1,0
294,209,98558,1,2
365,187,98731,1,0
294,208,98905,1,2
278,135,99078,1,0
232,72,99251,1,2
184,64,99425,1,0
136,120,99598,1,2
152,192,99772,1,0
176,168,99858,1,0
176,168,99945,1,2
232,120,100119,1,2
288,72,100292,1,2
288,72,100379,1,2
288,72,100465,1,0
296,144,100639,1,2
352,192,100812,1,0
280,216,100986,1,2
208,232,101159,1,0
280,216,101332,1,2
232,160,101506,1,0
176,112,101679,1,2
136,176,101853,1,0
200,216,102026,1,2
232,232,102113,1,2
264,240,102199,1,0
296,168,102373,1,0
248,112,102546,1,2
280,88,102633,1,2
320,80,102720,1,0
368,136,102893,1,0
408,200,103066,1,2
392,232,103153,1,2
352,240,103240,1,0
296,192,103413,1,0
176,280,103760,1,0
120,232,103934,1,0
120,80,104280,1,0
192,104,104454,1,0
336,64,104801,1,0
288,120,104974,1,0
344,168,105147,1,2
280,208,105321,1,0
256,240,105408,1,0
296,248,105494,1,0
336,256,105581,1,0
200,240,105668,1,2
184,168,105841,1,2
144,112,106014,1,0
192,56,106188,1,2
192,56,106275,1,2
192,56,106361,1,0
264,80,106535,1,2
288,152,106708,1,0
280,224,106882,1,0
280,264,106968,1,0
248,248,107055,1,2
200,192,107228,1,2
192,120,107402,1,0
192,120,107488,1,2
192,120,107575,1,0
192,120,107662,1,0
216,96,107749,1,2
144,88,107922,1,2
200,40,108095,1,2
224,16,108182,1,2
240,48,108269,1,0
272,64,108356,1,2
304,80,108442,1,0
272,144,108616,1,2
344,144,108789,1,0
368,144,108847,1,0
368,144,108905,1,0
368,144,108962,1,2
320,200,109136,1,2
248,208,109309,1,0
224,208,109367,1,0
200,216,109425,1,0
200,216,109483,1,2
136,176,109656,1,2
152,104,109829,1,2
168,72,109916,1,0
208,64,110003,1,2
208,64,110090,1,0
208,64,110176,1,2
280,96,110350,1,2
352,80,110523,1,2
352,120,110610,1,2
352,160,110697,1,0
328,136,110783,1,2
352,168,110870,1,0
320,184,110957,1,2
288,200,111043,1,0
256,216,111130,1,0
256,216,111217,1,2
200,168,111390,1,2
152,112,111564,1,0
152,112,111650,1,0
152,112,111737,1,2
152,112,111824,1,2
152,112,111910,1,0
136,184,112084,1,0
120,256,112257,1,2
128,216,112344,1,0
128,216,112431,1,0
128,216,112517,1,0
128,216,112604,1,2
192,176,112777,1,2
248,120,112951,1,0
264,96,113009,1,0
280,80,113066,1,0
280,80,113124,1,2
296,152,113298,1,0
296,152,113356,1,0
296,152,113413,1,0
296,152,113471,1,2
224,176,113645,1,0
264,240,113818,1,0
272,264,113876,1,0
272,264,113934,1,0
272,264,113991,1,2
200,256,114165,1,2
176,184,114338,1,2
160,152,114425,1,2
152,120,114512,1,2
128,48,114685,1,2
160,30,114772,1,2
200,56,114858,1,0
264,88,115032,1,0
232,72,115119,1,0
208,96,115205,1,2
248,160,115379,1,2
320,160,115552,1,0
280,160,115639,1,0
320,152,115725,1,2
248,168,115899,1,2
176,186,116072,1,0
152,192,116159,1,0
128,199,116246,1,2
137,272,116419,1,0
134,247,116506,1,0
134,247,116592,1,2
127,172,116766,1,0
124,134,116853,1,0
124,134,117026,1,0
124,134,117113,1,0
152,60,117460,1,2
282,130,117806,1,0
212,156,117980,1,0
270,201,118153,1,2
329,64,118500,1,0
296,130,118673,1,2
227,159,118847,1,0
152,158,119020,1,2
117,223,119194,1,0
117,223,119280,1,0
117,223,119367,1,0
187,246,119540,1,2
258,224,119714,1,2
293,213,119801,1,2
293,213,119887,1,0
171,127,120234,1,2
315,91,120581,1,2
243,111,120754,1,2
386,72,121101,1,2
237,65,121448,1,0
188,121,121621,1,2
157,136,121795,1,0
157,136,121968,1,2
228,113,122142,1,0
182,171,122315,1,2
254,158,122488,1,2
290,152,122575,1,2
290,152,122662,1,0
224,186,122835,1,2
158,221,123009,1,2
126,239,123095,1,2
158,221,123182,1,0
225,252,123356,1,0
285,209,123529,1,2
251,225,123616,1,2
276,251,123702,1,0
327,197,123876,1,2
352,170,123962,1,2
378,143,124049,1,0
311,108,124223,1,0
242,80,124396,1,2
266,80,124454,1,2
266,80,124512,1,2
245,93,124569,1,0
178,127,124743,1,0
120,173,124916,1,2
101,189,124974,1,2
101,189,125032,1,2
101,189,125090,1,0
170,214,125263,1,0
242,230,125436,1,0
305,191,125610,1,0
336,171,125697,1,0
336,171,125783,1,0
262,161,125957,1,0
187,158,126130,1,0
224,159,126217,1,0
187,159,126303,1,0
218,91,126477,1,0
288,68,126650,1,0
252,80,126737,1,0
252,80,126824,1,0
252,80,126910,1,0
214,78,126997,1,0
140,90,127171,1,0
103,97,127257,1,0
66,104,127344,1,0
100,169,127517,1,0
100,169,127604,1,0
100,169,127691,1,0
174,169,127864,1,0
315,125,128211,1,6
315,125,128384,1,4
315,125,128558,1,4
315,125,128731,1,6
315,125,128905,1,4
315,125,129078,1,4
167,106,129425,1,0
191,109,129483,1,0
191,109,129540,1,0
191,109,129598,1,0
166,179,129772,1,0
238,164,129945,1,2
274,158,130032,1,0
274,158,130119,1,0
317,181,130234,1,0
317,181,130350,1,0
245,199,130465,1,0
204,227,130581,1,0
144,271,130697,1,0
193,273,130812,1,2
230,275,130899,1,2
267,277,130986,1,0
339,261,131159,1,0
332,187,131332,1,2
329,149,131419,1,2
327,111,131506,1,0
331,184,131679,1,0
218,89,131853,1,2
241,117,131940,1,2
241,117,132026,1,0
194,174,132199,1,0
120,161,132373,1,2
121,198,132460,1,2
121,161,132546,1,0
194,174,132720,1,0
258,210,132893,1,0
244,244,132980,1,0
210,258,133066,1,0
258,210,133240,1,0
308,155,133413,1,2
334,128,133500,1,2
360,101,133587,1,0
296,139,133760,1,0
225,113,133934,1,2
190,101,134020,1,2
190,101,134107,1,0
162,169,134280,1,0
91,144,134454,1,2
125,156,134540,1,2
162,169,134627,1,0
176,241,134801,1,0
238,200,134974,1,2
269,180,135061,1,2
237,199,135147,1,0
290,146,135321,1,0
353,108,135494,1,2
353,108,135581,1,2
353,108,135668,1,0
349,181,135841,1,0
311,244,136014,1,2
292,276,136101,1,2
254,278,136188,1,0
192,237,136361,1,0
130,195,136535,1,2
99,174,136621,1,2
99,174,136708,1,0
192,237,136882,1,0
130,195,137056,1,2
99,174,137142,1,2
99,174,137229,1,0
192,237,137402,1,0
130,195,137576,1,2
99,174,137662,1,2
99,174,137749,1,0
192,237,137922,1,0
130,195,138096,1,2
99,174,138182,1,2
99,174,138269,1,0
157,128,138442,1,0
223,160,138616,1,0
99,174,138789,1,2
238,124,139136,1,0
306,96,139309,1,0
228,222,139656,1,0
190,285,139829,1,0
54,224,140176,1,0
100,166,140263,1,0
136,168,140350,1,0
141,104,140524,1,2
162,74,140610,1,2
197,86,140697,1,0
231,99,140784,1,0
231,99,140870,1,0
231,99,140957,1,0
262,118,141044,1,2
291,139,141130,1,2
264,165,141217,1,0
237,191,141304,1,0
264,165,141391,1,0
237,191,141477,1,0
237,191,141564,1,0
237,191,141651,1,0
237,191,141737,1,0
237,191,141824,1,0
237,191,141911,1,0
270,175,141997,1,0
237,191,142084,1,0
174,151,142171,1,2
154,119,142258,1,2
120,133,142344,1,2
123,170,142431,1,0
127,206,142518,1,0
133,242,142604,1,0
133,242,142691,1,0
169,249,142778,1,0
169,249,142865,1,0
169,249,142951,1,0
205,255,143038,1,0
241,262,143125,1,0
204,255,143211,1,0
240,262,143298,1,0
276,270,143385,1,0
308,253,143471,1,0
338,231,143558,1,2
368,209,143645,1,2
368,209,143732,1,0
331,214,143818,1,0
368,209,143905,1,0
381,174,143992,1,2
381,174,144078,1,0
356,179,144165,1,0
327,155,144252,1,0
289,152,144339,1,0
252,149,144425,1,0
214,149,144512,1,0
180,164,144599,1,0
146,179,144685,1,0
113,196,144772,1,0
142,218,144859,1,2
175,232,144945,1,0
211,240,145032,1,2
235,238,145119,1,0
259,236,145206,1,0
294,246,145292,1,0
355,239,145379,1,0
379,237,145466,1,0
379,237,145552,1,0
402,208,145639,1,0
417,174,145726,1,0
399,141,145813,1,0
362,139,145899,1,0
327,153,145986,1,0
290,115,146073,1,0
253,116,146159,1,0
217,128,146246,1,0
180,134,146333,1,0
143,130,146419,1,2
130,175,146506,1,0
130,199,146593,1,0
166,206,146680,1,0
201,215,146766,1,0
237,222,146853,1,0
259,251,146940,1,2
226,269,147026,1,0
193,287,147113,1,0
161,306,147200,1,0
129,325,147287,1,0
122,288,147373,1,0
112,251,147460,1,0
87,245,147547,1,2
87,245,147633,1,0
79,208,147720,1,0
83,171,147807,1,0
88,134,147893,1,0
110,104,147980,1,0
146,110,148067,1,2
182,116,148154,1,0
166,206,148240,1,0
166,206,148327,1,0
199,190,148414,1,0
232,175,148500,1,0
200,200,148587,1,0
260,150,148674,1,0
278,133,148760,1,0
278,133,148847,1,0
302,104,148934,1,0
326,75,149021,1,0
288,64,149107,1,2
256,80,149194,1,0
232,104,149281,1,0
232,104,149367,1,0
232,104,149454,1,0
232,104,149541,1,2
192,96,149628,1,2
152,88,149714,1,2
152,112,149801,1,0
152,112,149888,1,0
128,144,149974,1,0
136,184,150061,1,0
152,216,150148,1,0
184,232,150234,1,0
200,200,150321,1,2
232,192,150408,1,0
264,176,150495,1,0
232,192,150581,1,2
264,176,150668,1,0
296,152,150755,1,0
328,144,150841,1,0
352,112,150928,1,2
352,112,151015,1,0
336,96,151102,1,0
296,88,151188,1,0
272,120,151275,1,0
232,120,151362,1,0
224,88,151448,1,0
184,96,151535,1,2
144,104,151622,1,0
144,144,151708,1,0
152,184,151795,1,0
184,168,151882,1,0
184,208,151969,1,2
192,240,152055,1,0
216,208,152142,1,0
248,192,152229,1,0
288,192,152315,1,2
272,176,152402,1,0
272,176,152489,1,0
304,152,152576,1,0
336,128,152662,1,0
368,104,152749,1,0
400,120,152836,1,2
384,104,152922,1,0
384,128,153009,1,0
408,152,153096,1,2
416,192,153182,1,0
416,232,153269,1,0
384,208,153356,1,0
344,216,153443,1,0
304,208,153529,1,2
264,200,153616,1,0
224,168,153703,1,0
208,144,153789,1,0
184,96,153876,1,2
168,128,153963,1,0
152,160,154050,1,0
136,192,154136,1,0
112,224,154223,1,0
144,240,154310,1,0
176,256,154396,1,0
176,256,154483,1,0
176,256,154570,1,2
208,248,154656,1,0
240,232,154743,1,0
200,240,154830,1,0
232,216,154917,1,2
248,200,155003,1,0
264,184,155090,1,0
304,136,155177,1,0
336,112,155263,1,2
360,112,155350,1,0
360,112,155437,1,0
320,104,155524,1,0
280,96,155610,1,0
240,88,155697,1,0
200,80,155784,1,0
176,112,155870,1,0
152,144,155957,1,2
184,160,156044,1,0
152,184,156130,1,0
144,216,156217,1,0
184,208,156304,1,2
208,200,156391,1,0
208,200,156477,1,0
240,176,156564,1,0
264,152,156651,1,0
288,128,156737,1,0
304,160,156824,1,0
312,192,156911,1,2
280,216,156997,1,0
248,232,157084,1,0
216,256,157171,1,0
176,256,157258,1,2
144,272,157344,1,0
112,280,157431,1,0
112,240,157518,1,0
96,208,157604,1,2
96,168,157691,1,0
104,144,157778,1,0
104,144,157865,1,0
120,112,157951,1,0
128,72,158038,1,0
128,48,158125,1,0
128,48,158211,1,2
152,72,158298,1,0
176,96,158385,1,0
184,136,158471,1,0
216,152,158558,1,2
240,184,158645,1,0
280,192,158732,1,0
312,200,158818,1,0
328,168,158905,1,0
344,136,158992,1,0
336,112,159078,1,2
360,80,159165,1,0
384,112,159252,1,0
384,152,159339,1,0
384,192,159425,1,0
384,232,159512,1,0
352,248,159599,1,2
352,248,159685,1,0
352,248,159772,1,0
320,264,159859,1,2
288,272,159945,1,0
248,280,160032,1,0
208,288,160119,1,0
216,248,160206,1,2
224,216,160292,1,0
224,176,160379,1,0
232,152,160466,1,0
232,112,160552,1,0
224,80,160639,1,2
216,56,160697,1,0
224,80,160755,1,0
216,56,160813,1,0
192,40,160870,1,0
192,40,160928,1,0
176,64,160986,1,0
168,88,161044,1,0
160,112,161102,1,0
160,112,161159,1,0
152,152,161246,1,0
144,184,161333,1,0
144,224,161419,1,0
128,256,161506,1,0
128,256,161593,1,0
120,224,161680,1,2
264,240,162026,1,0
304,248,162113,1,0
344,248,162200,1,0
304,248,162287,1,0
344,248,162373,1,0
312,176,162546,1,0
288,104,162719,1,0
216,120,162893,1,0
72,152,163240,1,0
128,200,163413,1,0
72,240,163586,1,0
216,216,163933,1,0
280,248,164107,1,0
264,176,164280,1,0
192,160,164453,1,0
264,176,164627,1,0
192,160,164800,1,0
264,176,164974,1,0
232,112,165147,1,0
200,48,165320,1,0
160,112,165494,1,0
112,168,165667,1,0
168,304,166014,1,0
168,304,166188,1,0
168,304,166361,1,0
296,224,166708,1,0
296,224,166881,1,0
296,224,167055,1,0
296,224,167228,1,2
296,224,167401,1,0
296,224,167575,1,0
296,224,167748,1,0
296,224,167922,1,0
272,152,168095,1,2
216,200,168268,1,0
160,152,168442,1,0
240,24,168789,1,0
200,88,168962,1,0
232,152,169136,1,0
112,240,169482,1,0
168,192,169656,1,0
144,264,169829,1,2
184,200,170003,1,0
256,216,170176,1,0
232,144,170349,1,0
184,200,170523,1,0
248,240,170696,1,2
184,200,170870,1,0
248,240,171043,1,0
224,168,171216,1,0
80,128,171563,1,0
152,152,171737,1,0
80,128,171910,1,0
152,104,172083,1,0
184,88,172170,1,0
248,120,172344,1,0
208,128,172430,1,0
248,64,172604,1,2
312,96,172777,1,0
280,88,172864,1,0
352,104,173037,1,0
312,96,173124,1,0
280,160,173297,1,12
240,224,173471,1,4
256,192,173644,12,0,175552
256,192,175899,5,4
256,192,176245,12,0,178326
256,192,178673,5,0
256,192,178846,1,0
256,192,179020,12,0,181968
256,192,183008,12,0,183875
248,40,184570,5,0
288,168,184743,1,2
200,64,184916,1,0
248,112,185003,1,0
288,168,185090,1,2
168,112,185263,1,0
48,176,185436,1,2
168,112,185609,1,0
112,144,185696,1,0
168,112,185783,1,2
168,248,185956,1,0
168,200,186014,1,0
160,152,186072,1,0
168,200,186130,1,2
296,152,186303,1,0
256,168,186361,1,0
216,184,186419,1,0
256,160,186477,1,2
320,40,186650,1,0
296,80,186708,1,0
280,120,186766,1,0
280,120,186823,1,2
264,256,186997,1,0
264,208,187055,1,0
256,256,187112,1,0
256,208,187170,1,2
144,288,187344,1,2
104,24,187690,1,2
200,280,188037,1,0
152,152,188211,1,0
160,112,188557,1,4
128,40,188904,1,0
24,272,189078,1,0
200,176,189164,1,0
256,144,189251,1,2
360,56,189425,1,0
328,80,189482,1,0
328,80,189540,1,0
288,104,189598,1,2
152,96,189771,1,0
192,72,189829,1,0
232,48,189887,1,0
192,72,189945,1,2
56,64,190118,1,0
144,168,190292,1,2
64,56,190465,1,0
104,112,190552,1,0
64,56,190638,1,2
200,32,190812,1,0
232,184,190985,1,2
120,256,191158,1,0
176,216,191245,1,0
216,160,191332,1,2
120,64,191505,1,0
120,64,191592,1,0
120,64,191679,1,2
256,56,191852,1,0
208,56,191910,1,0
160,64,191968,1,0
208,56,192026,1,2
312,72,192199,1,0
248,72,192286,1,2
248,72,192459,1,2
248,72,192546,1,0
152,160,192719,1,2
56,256,192893,1,0
40,264,193066,1,2
40,264,193153,1,2
56,256,193240,1,0
72,120,193413,1,2
192,64,193586,1,0
56,72,193760,1,2
104,64,193818,1,2
144,72,193875,1,2
104,64,193933,1,0
232,104,194107,1,2
120,176,194280,1,0
96,208,194974,1,0
160,168,195667,1,0
8,320,196014,1,2
144,88,196361,1,0
64,200,196534,1,0
200,176,196708,1,2
416,8,197055,1,0
304,88,197228,1,2
200,168,197401,1,0
248,40,197575,1,2
248,176,197748,1,0
248,128,197806,1,0
256,176,197864,1,0
248,128,197922,1,2
256,264,198095,1,2
248,128,198268,1,2
248,176,198326,1,2
248,128,198384,1,2
208,152,198442,1,0
112,144,198789,1,2
112,144,199136,1,0
112,144,199309,1,0
64,256,199656,1,0
248,56,200003,1,0
160,152,200176,1,2
264,64,200349,1,0
216,112,200436,1,0
216,112,200523,1,0
216,112,200696,1,0
216,112,200870,1,2
344,80,201043,1,2
304,88,201101,1,2
264,96,201159,1,2
304,88,201216,1,0
168,104,201390,1,0
32,112,201563,1,2
80,112,201621,1,2
32,112,201679,1,2
80,104,201737,1,0
192,184,201910,1,0
272,72,202083,1,2
336,72,202170,1,2
272,72,202257,1,0
176,168,202430,1,2
80,264,202604,1,0
184,176,202777,1,2
216,144,202835,1,2
256,120,202893,1,2
216,144,202951,1,0
288,256,203124,1,2
152,256,203297,1,0
88,136,203471,1,2
56,80,203557,1,2
96,136,203644,1,0
24,24,203818,1,2
96,136,203991,1,0
352,48,204338,1,2
224,96,204511,1,0
136,352,204858,1,2
176,224,205031,1,0
8,16,205378,1,4
344,112,206072,1,0
240,200,206419,1,0
160,80,206766,1,2
160,80,206852,1,0
208,80,206939,1,0
184,144,207026,1,0
168,208,207112,1,0
232,216,207199,1,0
224,152,207286,1,0
160,176,207373,1,0
224,152,207459,1,2
288,120,207546,1,0
280,56,207633,1,0
160,80,207719,1,0
224,72,207806,1,2
280,56,207893,1,0
280,56,207979,1,0
344,64,208066,1,0
392,112,208153,1,2
344,112,208240,1,0
344,112,208326,1,0
184,144,208413,1,0
248,160,208500,1,2
312,160,208586,1,2
240,216,208673,1,0
264,152,208760,1,0
280,88,208846,1,0
288,72,208933,1,0
224,80,209020,1,2
200,120,209107,1,0
200,112,209193,1,0
136,136,209280,1,0
72,136,209367,1,2
120,88,209453,1,0
64,128,209540,1,2
56,88,210060,1,0
368,224,210407,1,2
304,200,210494,1,0
312,264,210581,1,0
176,168,210754,1,0
280,80,210841,1,2
224,120,210927,1,0
280,80,211014,1,0
224,120,211101,1,0
256,176,211188,1,0
320,152,211274,1,2
320,152,211361,1,2
312,136,211448,1,0
312,136,211534,1,0
312,136,211621,1,0
312,136,211708,1,0
248,168,211794,1,0
184,200,211881,1,0
120,224,211968,1,2
168,232,212055,1,0
176,248,212141,1,0
168,184,212228,1,0
232,152,212315,1,2
272,136,212401,1,0
272,136,212488,1,0
208,168,212575,1,0
240,104,212662,1,0
272,48,212748,1,0
232,96,212835,1,2
232,96,212922,1,2
232,96,213008,1,0
192,120,213095,1,0
192,120,213182,1,0
256,104,213268,1,0
320,96,213355,1,0
256,104,213442,1,0
320,80,213529,1,2
360,56,213615,1,0
296,72,213702,1,0
352,104,213789,1,0
288,120,213875,1,0
224,144,213962,1,0
240,208,214049,1,2
240,208,214136,1,2
240,208,214222,1,2
240,208,214309,1,0
240,208,214396,1,2
272,176,214482,1,0
280,112,214569,1,0
272,176,214656,1,0
208,152,214742,1,0
176,184,214829,1,0
176,184,214916,1,0
200,144,215003,1,0
112,120,215089,1,0
144,120,215176,1,0
192,96,215263,1,0
256,88,215349,1,0
192,80,215436,1,0
128,72,215523,1,0
128,72,215609,1,0
216,80,215696,1,0
152,72,215783,1,2
216,88,215870,1,0
152,72,215956,1,0
216,72,216043,1,0
280,56,216130,1,2
224,128,216216,1,0
256,96,216303,1,0
320,72,216390,1,2
264,112,216477,1,0
208,152,216563,1,0
280,56,216650,1,2
224,128,216737,1,0
256,96,216823,1,0
320,72,216910,1,2
264,112,216997,1,0
208,152,217083,1,0
280,56,217170,1,2
256,96,217257,1,0
256,96,217343,1,0
320,72,217430,1,2
264,112,217517,1,0
208,152,217603,1,0
280,56,217690,1,2
224,128,217777,1,0
256,96,217863,1,0
320,72,217950,1,2
264,112,218037,1,0
208,152,218123,1,0
152,120,218211,1,2
152,120,218297,1,2
152,120,218384,1,0
112,72,218471,1,0
152,120,218557,1,2
152,120,218644,1,2
152,120,218730,1,0
112,72,218818,1,0
152,120,218904,1,2
152,120,218991,1,2
152,120,219077,1,0
136,184,219164,1,0
112,248,219251,1,0
176,232,219338,1,2
232,200,219425,1,0
264,168,219511,1,0
264,168,219598,1,0
280,104,219685,1,2
280,104,219771,1,0
280,104,219858,1,0
280,104,219945,1,0
216,128,220031,1,2
280,104,220118,1,0
328,112,220205,1,0
328,112,220292,1,0
288,160,220378,1,0
328,216,220465,1,0
328,280,220552,1,0
280,240,220638,1,2
280,240,220725,1,0
256,240,220812,1,0
208,232,220899,1,0
128,216,220985,1,0
128,216,221072,1,0
128,216,221159,1,0
144,176,221245,1,2
144,176,221332,1,0
168,152,221375,1,0
192,128,221419,1,0
128,104,221505,1,0
136,40,221592,1,2
128,104,221679,1,0
136,40,221766,1,0
128,104,221852,1,0
192,80,221939,1,2
256,56,222026,1,0
296,48,222083,1,0
248,56,222141,1,0
296,48,222199,1,0
296,96,222257,1,2
296,144,222315,1,0
296,144,222373,1,0
232,128,222459,1,2
208,192,222546,1,0
208,192,222633,1,0
208,192,222719,1,0
168,248,222806,1,2
208,192,222893,1,2
168,248,222979,1,0
208,192,223066,1,0
152,224,223153,1,2
144,160,223240,1,2
104,104,223326,1,0
104,104,223413,1,0
136,96,223500,1,0
248,56,223586,1,0
256,120,223673,1,0
256,152,223760,1,0
312,144,223846,1,0
360,104,223933,1,0
384,80,224020,1,0
320,104,224107,1,0
320,136,224193,1,0
320,200,224280,1,0
304,264,224367,1,0
248,224,224453,1,2
232,136,224540,1,0
240,88,224627,1,0
184,56,224714,1,0
248,224,224800,1,2
232,136,224887,1,0
240,88,224974,1,0
192,136,225060,1,0
248,224,225147,1,2
232,136,225234,1,0
240,88,225321,1,0
184,128,225407,1,0
248,224,225494,1,2
224,184,225581,1,0
232,136,225667,1,0
184,128,225754,1,0
152,144,225841,1,0
224,128,225927,1,2
288,96,226014,1,0
168,40,226188,2,4,B|112:80,8,67.4999952316285
160,112,228268,1,12
336,256,228615,1,12
128,80,228962,1,8
328,264,229049,1,0
280,216,229136,1,0
328,264,229309,1,0
280,216,229395,1,0
328,264,229569,1,0
280,216,229655,1,0
328,264,229829,1,0
280,216,229915,1,0
328,264,230089,1,0
280,216,230175,1,0
328,264,230349,1,0
280,216,230435,1,0
328,264,230609,1,0
280,216,230695,1,0
328,264,230870,1,0
280,216,230956,1,0
328,264,231130,1,0
280,216,231216,1,0
184,120,231390,1,2
96,16,231563,1,2
328,264,231737,1,0
280,216,231823,1,0
328,264,231997,1,0
280,216,232083,1,0
328,264,232257,1,0
280,216,232343,1,0
328,264,232517,1,0
280,216,232603,1,0
328,264,232777,1,0
280,216,232863,1,0
328,264,233037,1,0
280,216,233123,1,0
328,264,233297,1,0
280,216,233383,1,0
328,264,233557,1,0
280,216,233643,1,0
328,264,233818,1,0
280,216,233904,1,0
152,168,234078,1,2
152,104,234164,1,0
152,104,234251,1,0
216,80,234338,1,0
240,144,234425,1,0
192,192,234511,1,0
128,176,234598,1,0
328,264,234771,1,0
280,216,234857,1,0
328,264,235031,1,0
280,216,235117,1,0
328,264,235291,1,0
280,216,235377,1,0
328,264,235551,1,0
280,216,235637,1,0
328,264,235811,1,0
280,216,235899,1,0
328,264,236071,1,0
280,216,236159,1,0
328,264,236331,1,0
280,216,236419,1,0
328,264,236591,1,0
280,216,236679,1,0
176,128,236852,1,0
136,72,236938,1,8
176,40,237112,1,2
328,264,237286,1,0
280,216,237372,1,0
328,264,237546,1,0
280,216,237632,1,0
328,264,237806,1,0
280,216,237892,1,0
328,264,238066,1,0
280,216,238152,1,0
328,264,238326,1,0
280,216,238412,1,0
328,264,238586,1,0
280,216,238672,1,0
192,112,238846,1,0
328,112,239020,1,0
240,88,239136,1,0
264,176,239251,1,0
184,208,239367,1,2
120,152,239482,1,0
56,88,239598,1,0
80,176,239714,1,2
104,88,239829,1,0
176,40,239945,1,0
144,112,240060,1,0
208,88,240147,1,0
328,264,240320,1,0
280,216,240406,1,0
328,264,240581,1,0
280,216,240667,1,0
328,264,240841,1,0
280,216,240927,1,0
328,264,241101,1,0
280,216,241187,1,0
328,264,241361,1,0
280,216,241447,1,0
328,264,241621,1,0
280,216,241707,1,0
328,264,241881,1,0
280,216,241967,1,0
328,264,242141,1,0
280,216,242227,1,0
328,264,242401,1,0
280,216,242487,1,8
168,136,242662,1,2
328,264,242835,1,0
280,216,242921,1,0
328,264,243095,1,0
280,216,243181,1,0
328,264,243355,1,0
280,216,243441,1,0
328,264,243615,1,0
280,216,243701,1,0
328,264,243875,1,0
280,216,243961,1,0
328,264,244136,1,0
280,216,244222,1,0
328,264,244396,1,0
280,216,244482,1,0
328,264,244656,1,0
280,216,244742,1,0
328,264,244916,1,0
280,216,245002,1,0
328,264,245176,1,0
280,216,245262,1,0
328,264,245436,1,0
280,216,245522,1,0
328,264,245696,1,0
280,216,245782,1,0
328,264,245957,1,0
280,216,246043,1,0
328,264,246217,1,0
280,216,246303,1,0
328,264,246477,1,0
280,216,246563,1,0
328,264,246737,1,0
280,216,246823,1,0
328,264,246997,1,0
280,216,247083,1,0
328,264,247170,1,0
280,216,247256,1,0
328,264,247430,1,0
280,216,247516,1,0
328,264,247690,1,0
280,216,247776,1,0
328,264,247951,1,0
280,216,248037,1,8
200,104,248211,1,2
328,264,248384,1,0
280,216,248470,1,0
328,264,248644,1,0
280,216,248730,1,0
328,264,248904,1,0
280,216,248990,1,0
328,264,249164,1,0
280,216,249250,1,0
328,264,249425,1,0
280,216,249511,1,0
328,264,249685,1,0
280,216,249771,1,0
216,96,249945,1,0
120,120,250060,1,0
160,200,250176,1,0
120,120,250292,1,2
160,200,250407,1,2
160,152,250465,1,0
160,104,250523,1,0
184,16,250638,1,0
208,104,250754,1,2
192,240,250870,1,2
240,168,250985,1,0
360,104,251159,1,4
240,168,251332,1,4
360,104,251505,1,4
384,240,251679,1,4
