osu file format v13

[General]
AudioFilename: Demetori - Reichi no Taiyou Shinkou _ Nuclear Fusion.mp3
AudioLeadIn: 3000
PreviewTime: 99
Countdown: 0
SampleSet: Normal
StackLeniency: 0.7
Mode: 0
LetterboxInBreaks: 1
WidescreenStoryboard: 1

[Editor]
Bookmarks: 57159,106060
DistanceSpacing: 1
BeatDivisor: 4
GridSize: 8
TimelineZoom: 3.199999

[Metadata]
Title:Solar Sect of Mystic Wisdom ~ Nuclear Fusion
TitleUnicode:霊知の太陽信仰 ~ Nuclear Fusion
Artist:Demetori
ArtistUnicode:Demetori
Creator:[Hijiri Byakuren]
Version:Lunatic
Source:Touhou
Tags:Reiuji Utsuho Reichi no Taiyou Shinkou 曼衍珠汝華 Nada Upasana Pundarika Subterranean Animism 東方地霊殿 Onosakihito
BeatmapID:311864
BeatmapSetID:52401

[Difficulty]
HPDrainRate:6
CircleSize:4
OverallDifficulty:8
ApproachRate:9
SliderMultiplier:1.6
SliderTickRate:2

[Events]
//Background and Video events
0,0,"BG.jpg",0,0
//Break Periods
2,61851,71803
//Storyboard Layer 0 (Background)
//Storyboard Layer 1 (Fail)
//Storyboard Layer 2 (Pass)
//Storyboard Layer 3 (Foreground)
//Storyboard Sound Samples
//Background Colour Transformations
3,100,163,162,255

[TimingPoints]
261,324.324324324324,6,1,1,50,1,0
2693,346.820809248555,6,1,1,50,1,0
3386,346.820809248555,6,1,1,50,1,0
13096,-83.3333333333333,6,1,1,65,0,0
14484,-100,6,1,1,50,0,0
28357,-100,6,1,1,50,0,0
83848,-133.333333333333,6,1,1,30,0,0
92172,-100,6,1,1,50,0,0
94946,-83.3333333333333,6,1,1,50,0,1
106218,-90.9090909090909,6,1,1,50,0,0
115755,-133.333333333333,6,1,1,50,0,0
122692,-125,6,1,1,65,0,0
123386,-111.111111111111,6,1,1,50,0,0
124079,-100,6,1,1,50,0,0
128241,-100,6,1,1,50,0,1
140553,-100,6,1,0,50,0,0

[Colours]
Combo1 : 85,170,255
Combo2 : 85,255,85
Combo3 : 224,230,26
Combo4 : 255,85,85

[HitObjects]
128,328,261,6,0,P|192:344|224:344,1,80,4|8,0:0|0:0,0:0:0:0:
288,336,585,1,8,0:0:0:0:
168,208,747,2,0,P|104:192|72:192,1,80,4|8,0:0|0:0,0:0:0:0:
8,192,1071,1,8,0:0:0:0:
168,208,1233,6,0,P|232:224|264:224,1,80,4|8,0:0|0:0,0:0:0:0:
328,224,1558,1,8,0:0:0:0:
192,88,1720,2,0,P|128:72|96:72,1,80,4|8,0:0|0:0,0:0:0:0:
32,72,2044,1,8,0:0:0:0:
192,88,2206,6,0,P|256:104|288:104,1,80,4|8,0:0|0:0,0:0:0:0:
352,104,2531,1,8,0:0:0:0:
424,88,2693,6,0,L|472:72,2,40,8|0|8,0:0|0:0|0:0,0:0:0:0:
408,168,3039,1,0,0:0:0:0:
416,248,3213,1,8,0:0:0:0:
448,320,3386,6,0,P|400:352|344:360,1,80,4|8,0:0|0:0,0:0:0:0:
304,328,3732,2,0,L|256:312,1,40,2|8,0:0|0:0,0:0:0:0:
184,320,3992,2,0,L|128:296,1,40,2|8,0:0|0:0,0:0:0:0:
64,304,4253,2,0,L|8:280,1,40,2|8,0:0|0:0,0:0:0:0:
0,256,4426,2,8,P|32:224|80:208,1,80
144,192,4773,6,0,L|200:168,1,40,2|8,0:0|0:0,0:0:0:0:
256,200,5033,2,0,L|312:176,1,40,2|8,0:0|0:0,0:0:0:0:
368,216,5293,2,0,L|424:192,1,40,2|8,0:0|0:0,0:0:0:0:
440,184,5466,2,8,P|456:128|456:96,1,80,4|8,0:0|0:0,0:0:0:0:
312,32,5813,2,8,P|296:88|296:120,1,80
264,280,6160,6,0,P|224:328|176:352,1,80,4|8,0:0|0:0,0:0:0:0:
128,360,6507,2,0,L|64:368,1,40,2|8,0:0|0:0,0:0:0:0:
88,288,6767,2,0,L|32:296,1,40,2|8,0:0|0:0,0:0:0:0:
48,216,7027,1,4,0:0:0:0:
16,144,7201,6,0,P|72:128|112:128,1,80,10|8,0:0|0:0,0:0:0:0:
168,160,7547,2,0,P|192:160|224:152,1,40,2|8,0:0|0:0,0:0:0:0:
256,96,7807,2,0,P|275:92|295:93,1,40,2|8,0:0|0:0,0:0:0:0:
368,56,8068,1,4,0:0:0:0:
432,96,8241,6,0,P|448:152|448:192,1,80,8|8,0:0|0:0,0:0:0:0:
304,336,8588,2,0,P|288:280|288:240,1,80,8|8,0:0|0:0,0:0:0:0:
440,176,8935,6,0,P|376:160|352:160,1,80,4|8,0:0|0:0,0:0:0:0:
288,176,9281,1,8,0:0:0:0:
208,192,9455,2,0,L|136:208,1,40,2|8,0:0|0:0,0:0:0:0:
96,168,9715,1,2,0:0:0:0:
112,128,9802,2,0,L|208:104,1,80,8|8,0:0|0:0,0:0:0:0:
256,56,10149,1,8,0:0:0:0:
352,176,10322,5,2,0:0:0:0:
336,216,10409,2,0,L|240:240,1,80,8|8,0:0|0:0,0:0:0:0:
240,272,10669,1,8,0:0:0:0:
176,320,10842,1,8,0:0:0:0:
96,344,11016,6,8,P|64:288|56:256,1,80,4|8,0:0|0:0,0:0:0:0:
144,48,11362,2,8,P|176:104|184:136,1,80
40,200,11709,6,0,P|80:216|128:216,1,80,4|8,0:0|0:0,0:0:0:0:
192,200,12056,1,8,0:0:0:0:
264,176,12229,2,0,L|312:152,1,40,2|8,0:0|0:0,0:0:0:0:
352,96,12490,2,0,L|400:72,1,40,2|8,0:0|0:0,0:0:0:0:
456,40,12750,5,0,0:0:0:0:
352,208,12923,1,4,0:0:0:0:
176,304,13096,6,8,P|112:320|48:328,1,95.9999970703126,4|8,0:0|0:0,0:0:0:0:
336,80,13443,2,8,P|400:64|464:56,1,95.9999970703126,4|8,0:0|0:0,0:0:0:0:
130,248,13790,6,8,P|67:230|7:205,1,95.9999970703126,4|8,0:0|0:0,0:0:0:0:
381,135,14137,2,8,P|444:153|504:178,1,95.9999970703126,4|8,0:0|0:0,0:0:0:0:
119,178,14484,6,8,P|72:136|48:96,1,80,4|8,0:0|0:0,0:0:0:0:
128,80,14831,2,0,P|136:56|128:24,1,40,2|8,0:0|0:0,0:0:0:0:
208,120,15091,2,0,P|200:144|200:176,1,40,10|8,0:0|0:0,0:0:0:0:
288,80,15351,1,8,0:0:0:0:
360,48,15524,2,0,P|384:48|408:64,2,40,8|0|8,0:0|0:0|0:0,0:0:0:0:
328,176,15871,6,8,P|320:208|320:232,2,40
400,152,16218,1,8,0:0:0:0:
456,208,16391,2,0,P|453:227|447:246,1,40,2|8,0:0|0:0,0:0:0:0:
432,280,16565,2,8,P|392:304|352:312,1,80
280,312,16912,2,8,P|240:320|176:352,1,80
72,240,17258,6,8,P|48:232|16:232,2,40,4|8|8,0:0|0:0|0:0,0:0:0:0:
152,256,17605,1,8,0:0:0:0:
240,208,17779,1,2,0:0:0:0:
240,208,17865,1,0,0:0:0:0:
240,208,17952,1,8,0:0:0:0:
160,152,18125,1,8,0:0:0:0:
80,128,18299,2,0,P|60:125|41:118,2,40,2|8|8,0:0|0:0|0:0,0:0:0:0:
184,40,18646,5,8,0:0:0:0:
184,40,18732,1,2,0:0:0:0:
184,40,18819,2,0,P|232:48|264:72,1,80,8|0,0:0|0:0,0:0:0:0:
272,144,19079,1,2,0:0:0:0:
272,144,19166,2,8,P|296:160|328:168,1,40
376,128,19339,2,0,P|440:160|480:224,2,120,4|0|8,0:0|0:0|0:0,0:0:0:0:
304,264,20033,5,8,0:0:0:0:
272,288,20120,1,0,0:0:0:0:
232,296,20206,1,8,0:0:0:0:
152,280,20380,1,8,0:0:0:0:
80,248,20553,1,8,0:0:0:0:
64,216,20640,1,0,0:0:0:0:
64,176,20727,1,8,0:0:0:0:
96,104,20900,1,8,0:0:0:0:
160,56,21073,2,0,P|176:46|208:48,2,40,8|8|8,0:0|0:0|0:0,0:0:0:0:
144,328,21420,5,8,0:0:0:0:
144,328,21507,1,2,0:0:0:0:
144,328,21594,2,0,P|192:320|224:296,1,80,8|0,0:0|0:0,0:0:0:0:
240,224,21854,1,2,0:0:0:0:
240,224,21940,2,8,P|264:208|296:200,1,40
352,232,22114,2,0,P|416:200|456:136,2,120,4|8|8,0:0|0:0|0:0,0:0:0:0:
112,208,22807,6,0,P|120:240|144:256,2,40,8|0|8,0:0|0:0|0:0,0:0:0:0:
152,136,23154,1,8,0:0:0:0:
192,64,23328,2,8,P|184:32|168:16,2,40
264,104,23675,1,8,0:0:0:0:
336,144,23848,2,8,P|360:160|400:160,2,40
256,192,24195,12,4,25582,0:0:0:0:
256,192,25929,5,4,0:0:0:0:
144,312,26276,6,0,L|88:320,2,53.3333333333333
368,312,26622,2,0,L|420:319,2,53.3333333333333
256,192,26969,12,4,28010,0:0:0:0:
40,360,28357,6,0,P|128:360|184:336,1,120,4|0,0:0|0:0,0:0:0:0:
192,328,28703,1,8,0:0:0:0:
216,216,28877,1,8,0:0:0:0:
216,216,28964,1,0,0:0:0:0:
216,216,29050,1,8,0:0:0:0:
328,248,29224,1,8,0:0:0:0:
440,240,29397,2,0,P|440:208|424:160,1,80,8|8,0:0|0:0,0:0:0:0:
328,248,29744,6,0,P|328:280|392:352,1,120,4|0,0:0|0:0,0:0:0:0:
416,360,30091,1,8,0:0:0:0:
184,272,30264,2,0,L|96:248,1,80,8|0,0:0|0:0,0:0:0:0:
328,112,30611,2,0,L|416:136,1,80,8|0,0:0|0:0,0:0:0:0:
416,256,30958,6,0,P|352:320|264:320,1,160,4|0,0:0|0:0,0:0:0:0:
286,326,31391,1,0,0:0:0:0:
286,326,31478,1,8,0:0:0:0:
136,280,31651,1,8,0:0:0:0:
136,280,31738,1,0,0:0:0:0:
135,279,31825,2,0,P|96:272|56:274,1,80,8|0,0:0|0:0,0:0:0:0:
96,120,32172,6,0,P|135:121|176:112,1,80,8|0,0:0|0:0,0:0:0:0:
176,112,32432,1,0,0:0:0:0:
176,112,32518,1,8,0:0:0:0:
336,112,32692,2,0,P|375:119|415:117,1,80,12|0,0:0|0:0,0:0:0:0:
176,280,33039,1,2,0:0:0:0:
176,280,33125,1,0,0:0:0:0:
176,280,33212,2,0,P|136:287|96:285,2,80,8|0|8,0:0|0:0|0:0,0:0:0:0:
336,280,33732,1,4,0:0:0:0:
96,120,34079,1,8,0:0:0:0:
336,16,34426,5,2,0:0:0:0:
376,88,34599,2,0,L|440:200,1,120,4|0,0:0|0:0,0:0:0:0:
456,224,34946,1,2,0:0:0:0:
232,320,35120,1,8,0:0:0:0:
312,328,35293,6,0,L|408:336,1,80,4|0,0:0|0:0,0:0:0:0:
472,344,35640,1,8,0:0:0:0:
376,88,35813,1,8,0:0:0:0:
232,320,35987,6,0,L|144:312,1,80,4|0,0:0|0:0,0:0:0:0:
472,344,36333,1,8,0:0:0:0:
232,320,36507,1,4,0:0:0:0:
232,320,36854,5,8,0:0:0:0:
152,296,37027,2,0,B|104:275|88:224|56:211,1,120,4|0,0:0|0:0,0:0:0:0:
64,176,37374,2,0,B|111:155|128:104|159:91,1,120,8|0,0:0|0:0,0:0:0:0:
184,80,37721,1,8,0:0:0:0:
264,64,37894,2,0,P|330:99|322:174,1,160,4|0,0:0|0:0,0:0:0:0:
256,224,38414,2,0,B|216:232|208:312|160:304,1,120,8|0,0:0|0:0,0:0:0:0:
128,304,38761,2,0,P|88:304|48:296,2,80,8|0|8,0:0|0:0|0:0,0:0:0:0:
224,296,39281,6,0,P|310:225|309:179,1,160,4|0,0:0|0:0,0:0:0:0:
310,185,39715,1,0,0:0:0:0:
310,185,39802,1,8,0:0:0:0:
224,96,39975,1,8,0:0:0:0:
224,96,40149,6,0,B|192:88|160:112|104:96,1,120,4|0,0:0|0:0,0:0:0:0:
64,88,40495,1,8,0:0:0:0:
288,96,40669,6,0,B|320:88|352:112|408:96,1,120,4|0,0:0|0:0,0:0:0:0:
448,88,41016,1,8,0:0:0:0:
168,256,41189,6,0,L|72:248,1,80,4|0,0:0|0:0,0:0:0:0:
344,256,41536,2,0,L|440:248,1,80,8|0,0:0|0:0,0:0:0:0:
256,80,41883,1,8,0:0:0:0:
256,80,42056,6,0,P|168:56|88:88,1,160,4|0,0:0|0:0,0:0:0:0:
72,96,42490,1,0,0:0:0:0:
40,120,42576,2,0,P|32:176|32:216,1,80,8|0,0:0|0:0,0:0:0:0:
40,280,42923,2,0,P|96:304|136:304,1,80,8|0,0:0|0:0,0:0:0:0:
144,304,43183,1,0,0:0:0:0:
176,296,43270,1,8,0:0:0:0:
424,304,43443,6,0,P|376:296|328:264,1,80,4|0,0:0|0:0,0:0:0:0:
280,240,43790,1,0,0:0:0:0:
208,200,43964,2,0,P|192:240|192:320,1,120,4|0,0:0|0:0,0:0:0:0:
200,352,44310,1,8,0:0:0:0:
336,336,44484,1,8,0:0:0:0:
432,240,44657,1,8,0:0:0:0:
456,104,44831,1,4,0:0:0:0:
24,120,45177,1,8,0:0:0:0:
24,120,45524,5,2,0:0:0:0:
104,96,45698,2,0,P|128:88|184:48,1,80,4|0,0:0|0:0,0:0:0:0:
224,56,45958,1,8,0:0:0:0:
224,56,46044,2,0,P|272:88|312:96,1,80,8|0,0:0|0:0,0:0:0:0:
344,104,46305,1,0,0:0:0:0:
344,104,46391,5,8,0:0:0:0:
360,232,46565,1,0,0:0:0:0:
200,208,46738,1,8,0:0:0:0:
120,336,46912,1,0,0:0:0:0:
32,256,47085,1,8,0:0:0:0:
272,272,47258,1,4,0:0:0:0:
224,56,47432,1,0,0:0:0:0:
88,160,47605,5,4,0:0:0:0:
88,160,47952,2,0,L|176:168,1,80,4|0,0:0|0:0,0:0:0:0:
424,160,48299,2,0,L|336:168,1,80,8|0,0:0|0:0,0:0:0:0:
256,240,48646,1,8,0:0:0:0:
256,64,48819,1,8,0:0:0:0:
256,240,48992,6,0,P|304:272|408:288,1,160,4|0,0:0|0:0,0:0:0:0:
256,240,49513,2,0,L|216:168,1,80,8|0,0:0|0:0,0:0:0:0:
256,64,49859,2,0,L|304:144,2,80,8|0|8,0:0|0:0|0:0,0:0:0:0:
104,184,50553,6,0,P|96:224|96:248,2,40,8|0|8,0:0|0:0|0:0,0:0:0:0:
120,88,50900,1,8,0:0:0:0:
200,40,51073,2,0,L|240:8,1,40,2|8,0:0|0:0,0:0:0:0:
104,184,51333,2,0,L|73:209,1,40,2|8,0:0|0:0,0:0:0:0:
192,144,51594,1,8,0:0:0:0:
200,40,51767,1,8,0:0:0:0:
344,176,51940,6,0,L|320:232,2,40,8|0|8,0:0|0:0|0:0,0:0:0:0:
384,88,52287,1,8,0:0:0:0:
432,176,52461,2,0,L|464:232,1,40,2|8,0:0|0:0,0:0:0:0:
384,88,52721,2,0,L|401:52,1,40,2|8,0:0|0:0,0:0:0:0:
344,176,52981,1,8,0:0:0:0:
384,88,53154,1,8,0:0:0:0:
120,136,53328,5,8,0:0:0:0:
120,136,53414,1,0,0:0:0:0:
120,136,53501,1,8,0:0:0:0:
80,272,53675,1,2,0:0:0:0:
80,272,53761,2,0,P|128:264|176:280,1,80,8|2,0:0|0:0,0:0:0:0:
192,280,54021,2,0,P|248:288|296:264,1,80,8|2,0:0|0:0,0:0:0:0:
360,224,54368,1,8,0:0:0:0:
472,216,54542,1,8,0:0:0:0:
424,320,54715,6,0,L|472:352,2,40,8|0|8,0:0|0:0|0:0,0:0:0:0:
320,320,55062,1,2,0:0:0:0:
320,320,55149,2,0,L|232:336,1,80,8|2,0:0|0:0,0:0:0:0:
208,328,55409,2,0,L|112:344,1,80,8|2,0:0|0:0,0:0:0:0:
48,344,55755,1,8,0:0:0:0:
48,344,55929,1,8,0:0:0:0:
144,176,56102,6,8,L|200:160,2,40
264,144,56449,1,8,0:0:0:0:
288,216,56622,2,0,L|304:264,1,40,2|8,0:0|0:0,0:0:0:0:
344,120,56883,2,0,L|392:104,1,40,2|8,0:0|0:0,0:0:0:0:
240,64,57143,2,8,L|224:16,2,40
408,248,57490,6,8,L|352:232,2,40
288,216,57836,1,8,0:0:0:0:
264,296,58010,2,0,L|248:344,1,40,2|8,0:0|0:0,0:0:0:0:
208,192,58270,2,0,L|160:176,1,40,2|8,0:0|0:0,0:0:0:0:
312,136,58530,2,8,L|328:88,2,40
424,216,58877,5,8,0:0:0:0:
424,256,58964,1,2,0:0:0:0:
408,296,59050,1,8,0:0:0:0:
376,320,59137,1,2,0:0:0:0:
336,328,59224,1,8,0:0:0:0:
240,336,59397,2,0,L|200:352,1,40,2|8,0:0|0:0,0:0:0:0:
160,264,59657,2,0,L|112:248,1,40,2|8,0:0|0:0,0:0:0:0:
48,320,59917,1,8,0:0:0:0:
48,320,60004,1,8,0:0:0:0:
48,320,60091,1,8,0:0:0:0:
16,224,60264,5,2,0:0:0:0:
8,184,60351,1,0,0:0:0:0:
8,144,60438,1,2,0:0:0:0:
24,112,60524,1,0,0:0:0:0:
56,88,60611,1,2,0:0:0:0:
96,88,60698,1,0,0:0:0:0:
128,112,60784,1,2,0:0:0:0:
160,136,60871,1,0,0:0:0:0:
192,152,60958,6,0,L|256:152,3,40,2|0|2|0,0:0|0:0|0:0|0:0,0:0:0:0:
272,136,61305,1,2,0:0:0:0:
304,112,61391,1,0,0:0:0:0:
336,88,61478,1,2,0:0:0:0:
376,88,61565,1,0,0:0:0:0:
408,104,61651,1,4,0:0:0:0:
392,104,72403,5,8,0:0:0:0:
392,104,72490,1,0,0:0:0:0:
392,104,72576,2,0,P|312:102|256:120,1,120,4|0,0:0|0:0,0:0:0:0:
240,128,72923,1,8,0:0:0:0:
152,200,73096,1,8,0:0:0:0:
152,200,73183,1,0,0:0:0:0:
152,200,73270,1,8,0:0:0:0:
64,272,73443,2,0,P|65:311|78:349,2,80,8|0|8,0:0|0:0|0:0,0:0:0:0:
152,200,73964,6,0,P|143:142|100:101,1,120,4|0,0:0|0:0,0:0:0:0:
64,88,74310,1,8,0:0:0:0:
328,176,74484,2,0,L|405:197,1,80,8|0,0:0|0:0,0:0:0:0:
184,272,74831,2,0,L|106:250,2,80,8|0|8,0:0|0:0|0:0,0:0:0:0:
320,352,75351,6,0,P|384:288|384:200,1,160,4|0,0:0|0:0,0:0:0:0:
384,184,75784,1,0,0:0:0:0:
376,144,75871,2,0,P|368:96|376:40,1,80,8|0,0:0|0:0,0:0:0:0:
192,88,76218,1,8,0:0:0:0:
192,88,76305,1,8,0:0:0:0:
192,88,76391,1,0,0:0:0:0:
174,271,76565,6,8,P|135:263|96:264,2,80
336,272,77085,2,8,P|375:265|415:267,2,80
256,136,77605,2,8,L|256:96|256:56,2,80,8|8|8,0:0|0:0|0:0,0:0:0:0:
256,224,78125,1,4,0:0:0:0:
448,128,78472,1,8,0:0:0:0:
256,40,78819,5,2,0:0:0:0:
184,80,78992,2,0,L|72:144,1,120,4|0,0:0|0:0,0:0:0:0:
48,160,79339,1,2,0:0:0:0:
24,64,79513,1,8,0:0:0:0:
184,80,79686,6,0,L|280:88,1,80,4|0,0:0|0:0,0:0:0:0:
384,96,80033,1,8,0:0:0:0:
272,232,80206,1,8,0:0:0:0:
184,80,80380,5,4,0:0:0:0:
72,216,80553,1,0,0:0:0:0:
432,160,80727,1,8,0:0:0:0:
432,320,80900,6,0,L|432:152,1,160,4|0,0:0|0:0,0:0:0:0:
432,160,81333,1,0,0:0:0:0:
432,160,81420,1,8,0:0:0:0:
96,256,81594,1,8,0:0:0:0:
96,96,81767,2,0,L|96:272,1,160,4|0,0:0|0:0,0:0:0:0:
96,256,82201,1,0,0:0:0:0:
96,256,82287,1,8,0:0:0:0:
256,192,82461,5,8,0:0:0:0:
256,192,82547,1,8,0:0:0:0:
256,192,82634,1,8,0:0:0:0:
256,72,82807,1,8,0:0:0:0:
256,72,82894,1,8,0:0:0:0:
256,72,82981,1,8,0:0:0:0:
136,192,83154,5,8,0:0:0:0:
376,192,83328,1,8,0:0:0:0:
256,304,83501,1,8,0:0:0:0:
256,304,83588,1,8,0:0:0:0:
256,304,83675,1,8,0:0:0:0:
344,48,83848,6,0,L|264:64,1,60.0000022888184,4|0,0:0|0:0,0:0:0:0:
224,72,84195,1,8,0:0:0:0:
176,232,84542,1,8,0:0:0:0:
176,232,84715,2,0,L|200:304,2,60.0000022888184,8|0|8,0:0|0:0|0:0,0:0:0:0:
128,56,85582,1,4,0:0:0:0:
48,176,85929,1,8,0:0:0:0:
56,248,86102,1,0,0:0:0:0:
96,304,86276,1,8,0:0:0:0:
168,336,86449,1,0,0:0:0:0:
168,336,86622,6,0,L|248:320,1,60.0000022888184,4|0,0:0|0:0,0:0:0:0:
288,312,86969,1,8,0:0:0:0:
336,152,87316,1,8,0:0:0:0:
336,152,87490,2,0,L|312:80,2,60.0000022888184,8|0|8,0:0|0:0|0:0,0:0:0:0:
384,328,88357,1,4,0:0:0:0:
240,336,88703,1,8,0:0:0:0:
152,360,88877,1,8,0:0:0:0:
152,360,88964,1,0,0:0:0:0:
152,360,89050,1,8,0:0:0:0:
80,304,89224,1,8,0:0:0:0:
80,304,89397,6,0,L|160:272,1,60.0000022888184,4|0,0:0|0:0,0:0:0:0:
192,256,89744,1,8,0:0:0:0:
360,64,90091,1,8,0:0:0:0:
304,88,90264,2,0,L|232:120,1,60.0000022888184,8|0,0:0|0:0,0:0:0:0:
192,136,90611,1,8,0:0:0:0:
120,304,91131,1,0,0:0:0:0:
120,304,91478,1,8,0:0:0:0:
280,328,91651,1,8,0:0:0:0:
280,328,91738,1,0,0:0:0:0:
280,328,91825,1,8,0:0:0:0:
440,304,91998,1,8,0:0:0:0:
440,304,92172,6,0,L|328:320,1,80,4|0,0:0|0:0,0:0:0:0:
280,328,92518,1,8,0:0:0:0:
48,216,92692,2,0,L|160:232,1,80,4|0,0:0|0:0,0:0:0:0:
208,240,93039,1,8,0:0:0:0:
440,112,93212,2,0,L|328:128,1,80,4|0,0:0|0:0,0:0:0:0:
280,136,93559,1,8,0:0:0:0:
48,24,93732,2,0,L|160:40,1,80,4|0,0:0|0:0,0:0:0:0:
208,48,94079,1,8,0:0:0:0:
392,256,94253,6,8,L|432:360,1,80,4|0,0:0|0:0,0:0:0:0:
120,128,94599,2,0,L|80:24,1,80,4|0,0:0|0:0,0:0:0:0:
400,88,94946,6,0,L|304:104,1,95.9999970703126,4|0,0:0|0:0,0:0:0:0:
256,112,95206,1,0,0:0:0:0:
208,120,95293,1,8,0:0:0:0:
128,176,95466,1,8,0:0:0:0:
104,216,95553,1,0,0:0:0:0:
80,256,95640,1,8,0:0:0:0:
192,272,95813,2,0,L|216:336,2,47.9999985351563,8|0|8,0:0|0:0|0:0,0:0:0:0:
152,144,96160,1,8,0:0:0:0:
256,112,96333,6,8,L|224:16,1,95.9999970703126
376,152,96680,2,8,L|416:256,1,95.9999970703126
136,56,97027,5,8,0:0:0:0:
120,80,97114,1,0,0:0:0:0:
104,104,97201,1,8,0:0:0:0:
88,128,97287,1,0,0:0:0:0:
72,152,97374,1,8,0:0:0:0:
56,176,97461,1,0,0:0:0:0:
40,200,97547,1,8,0:0:0:0:
112,296,97721,6,0,L|208:280,1,95.9999970703126,4|0,0:0|0:0,0:0:0:0:
256,272,97981,1,0,0:0:0:0:
304,264,98068,1,8,0:0:0:0:
384,208,98241,1,8,0:0:0:0:
408,168,98328,1,0,0:0:0:0:
432,128,98414,1,8,0:0:0:0:
320,112,98588,2,0,L|296:48,2,47.9999985351563,8|0|8,0:0|0:0|0:0,0:0:0:0:
360,240,98935,1,8,0:0:0:0:
256,272,99108,6,8,L|240:368,1,95.9999970703126
472,208,99455,2,8,L|488:104,1,95.9999970703126
304,88,99802,5,0,0:0:0:0:
269,104,99888,1,0,0:0:0:0:
233,118,99975,1,8,0:0:0:0:
197,133,100062,1,0,0:0:0:0:
161,148,100149,1,8,0:0:0:0:
126,163,100235,1,0,0:0:0:0:
90,178,100322,1,8,0:0:0:0:
120,328,100495,6,0,L|208:288,1,95.9999970703126,4|0,0:0|0:0,0:0:0:0:
256,280,100755,1,2,0:0:0:0:
304,272,100842,2,0,L|400:232,1,95.9999970703126,8|0,0:0|0:0,0:0:0:0:
440,232,101102,1,2,0:0:0:0:
416,192,101189,2,0,L|440:96,1,95.9999970703126,8|0,0:0|0:0,0:0:0:0:
456,56,101449,1,2,0:0:0:0:
408,56,101536,2,0,L|296:72,1,95.9999970703126,8|0,0:0|0:0,0:0:0:0:
264,80,101796,1,2,0:0:0:0:
216,72,101883,6,0,L|96:48,1,95.9999970703126,4|0,0:0|0:0,0:0:0:0:
72,56,102143,1,2,0:0:0:0:
88,98,102229,2,0,L|111:191,1,95.9999970703126,8|0,0:0|0:0,0:0:0:0:
80,224,102490,1,2,0:0:0:0:
128,232,102576,2,0,L|239:279,1,95.9999970703126,8|0,0:0|0:0,0:0:0:0:
264,280,102836,1,2,0:0:0:0:
312,288,102923,2,0,L|400:328,1,95.9999970703126,8|0,0:0|0:0,0:0:0:0:
448,336,103183,1,2,0:0:0:0:
448,336,103270,6,0,P|448:240|408:144,1,191.999994140625,4|0,0:0|0:0,0:0:0:0:
98,151,103790,2,0,P|63:240|64:336,1,191.999994140625,4|0,0:0|0:0,0:0:0:0:
416,232,104310,2,0,P|344:240|248:336,1,191.999994140625,4|0,0:0|0:0,0:0:0:0:
96,152,104831,2,0,P|168:144|264:48,1,191.999994140625,4|0,0:0|0:0,0:0:0:0:
255,67,105264,1,0,0:0:0:0:
255,67,105351,5,8,0:0:0:0:
384,112,105524,1,0,0:0:0:0:
408,248,105698,1,8,0:0:0:0:
296,328,105871,1,0,0:0:0:0:
176,256,106044,6,0,P|120:248|64:256,1,95.9999970703126,8|0,0:0|0:0,0:0:0:0:
8,296,106391,1,8,0:0:0:0:
16,208,106565,1,8,0:0:0:0:
16,208,106651,1,8,0:0:0:0:
16,208,106738,1,8,0:0:0:0:
96,152,106912,1,2,0:0:0:0:
32,88,107085,1,8,0:0:0:0:
176,256,107258,1,2,0:0:0:0:
336,256,107432,6,0,P|392:248|440:256,1,88.000002685547,8|0,0:0|0:0,0:0:0:0:
504,296,107779,1,8,0:0:0:0:
488,208,107952,1,8,0:0:0:0:
488,208,108039,1,8,0:0:0:0:
488,208,108125,1,8,0:0:0:0:
416,152,108299,1,2,0:0:0:0:
480,88,108472,1,8,0:0:0:0:
336,256,108646,1,2,0:0:0:0:
256,56,108819,6,0,L|256:144,1,88.000002685547,8|0,0:0|0:0,0:0:0:0:
256,168,109079,1,0,0:0:0:0:
256,192,109166,1,8,0:0:0:0:
168,232,109339,1,8,0:0:0:0:
160,200,109426,1,0,0:0:0:0:
152,168,109513,1,8,0:0:0:0:
344,232,109686,1,8,0:0:0:0:
352,200,109773,1,0,0:0:0:0:
360,168,109859,1,8,0:0:0:0:
256,336,110033,1,8,0:0:0:0:
256,336,110120,1,0,0:0:0:0:
256,336,110206,6,0,L|256:240,1,88.000002685547,8|0,0:0|0:0,0:0:0:0:
256,216,110466,1,0,0:0:0:0:
256,184,110553,1,8,0:0:0:0:
168,104,110727,1,8,0:0:0:0:
160,136,110813,1,8,0:0:0:0:
152,168,110900,1,8,0:0:0:0:
344,104,111073,1,8,0:0:0:0:
352,136,111160,1,8,0:0:0:0:
360,168,111247,1,8,0:0:0:0:
256,336,111420,2,0,L|256:280,1,44.0000013427735,8|0,0:0|0:0,0:0:0:0:
336,288,111594,6,0,P|400:280|432:256,1,88.000002685547,8|0,0:0|0:0,0:0:0:0:
256,240,111940,1,8,0:0:0:0:
192,184,112114,2,0,P|168:168|144:168,1,44.0000013427735,8|0,0:0|0:0,0:0:0:0:
120,168,112287,1,8,0:0:0:0:
88,168,112374,1,0,0:0:0:0:
56,160,112461,1,8,0:0:0:0:
32,136,112547,1,0,0:0:0:0:
24,104,112634,2,0,P|32:80|88:40,1,88.000002685547,8|0,0:0|0:0,0:0:0:0:
224,48,112981,6,0,P|160:56|128:80,1,88.000002685547,8|0,0:0|0:0,0:0:0:0:
256,136,113328,1,8,0:0:0:0:
320,200,113501,2,0,P|344:216|368:216,1,44.0000013427735,8|0,0:0|0:0,0:0:0:0:
392,216,113675,1,8,0:0:0:0:
424,216,113761,1,0,0:0:0:0:
456,224,113848,1,8,0:0:0:0:
480,248,113935,1,0,0:0:0:0:
488,280,114021,2,0,P|480:304|424:344,1,88.000002685547,8|0,0:0|0:0,0:0:0:0:
152,80,114368,6,0,P|144:136|152:192,1,88.000002685547,4|0,0:0|0:0,0:0:0:0:
168,200,114628,1,0,0:0:0:0:
200,216,114715,1,8,0:0:0:0:
280,280,114888,2,8,P|256:336|208:360,1,88.000002685547
232,104,115235,2,8,P|256:48|304:24,1,88.000002685547
360,264,115582,1,8,0:0:0:0:
168,296,115755,5,8,0:0:0:0:
168,296,115842,1,0,0:0:0:0:
168,296,115929,2,0,P|152:320|56:296,1,120.000004577637,4|0,0:0|0:0,0:0:0:0:
24,280,116362,1,0,0:0:0:0:
24,280,116449,2,8,P|16:256|16:216,1,60.0000022888184
56,176,116796,2,8,P|64:152|64:112,1,60.0000022888184
96,64,117143,5,8,0:0:0:0:
96,64,117229,1,0,0:0:0:0:
96,64,117316,2,0,P|160:56|216:64,1,120.000004577637,4|0,0:0|0:0,0:0:0:0:
272,80,117836,2,8,P|312:88|344:80,1,60.0000022888184
384,56,118183,2,8,P|413:53|442:61,1,60.0000022888184
432,120,118530,5,8,0:0:0:0:
432,120,118617,1,0,0:0:0:0:
432,120,118703,2,0,P|368:128|312:120,1,120.000004577637,4|0,0:0|0:0,0:0:0:0:
256,104,119224,2,8,P|216:96|184:104,1,60.0000022888184
136,104,119570,2,8,P|106:106|77:98,1,60.0000022888184
32,136,119917,6,0,L|-16:104,2,30.0000011444092
64,184,120264,1,8,0:0:0:0:
64,248,120438,1,8,0:0:0:0:
40,304,120611,2,0,L|0:344,2,30.0000011444092
104,304,120958,1,8,0:0:0:0:
163,304,121131,1,8,0:0:0:0:
224,304,121305,5,8,0:0:0:0:
251,322,121391,1,0,0:0:0:0:
278,340,121478,1,8,0:0:0:0:
320,264,121651,1,8,0:0:0:0:
352,264,121738,1,0,0:0:0:0:
384,264,121825,1,8,0:0:0:0:
352,176,121998,1,8,0:0:0:0:
376,160,122085,1,0,0:0:0:0:
400,144,122172,1,8,0:0:0:0:
312,96,122345,1,8,0:0:0:0:
312,64,122432,1,0,0:0:0:0:
312,32,122518,1,8,0:0:0:0:
112,80,122692,5,8,0:0:0:0:
99,76,122779,1,0,0:0:0:0:
88,70,122865,1,8,0:0:0:0:
176,96,123039,2,8,P|224:104|264:96,1,64
78,135,123386,5,8,0:0:0:0:
67,117,123472,1,0,0:0:0:0:
62,96,123559,1,8,0:0:0:0:
152,221,123732,2,8,P|189:251|240:269,1,71.9999978027344
0,122,124079,5,8,0:0:0:0:
0,89,124166,1,0,0:0:0:0:
8,59,124253,1,8,0:0:0:0:
50,283,124426,2,8,P|67:328|98:363,1,80
256,120,124773,2,8,P|247:90|217:49,1,80
256,320,125120,1,8,0:0:0:0:
256,320,125206,1,0,0:0:0:0:
256,320,125293,1,8,0:0:0:0:
408,304,125466,6,0,L|440:344,1,40,2|8,0:0|0:0,0:0:0:0:
104,304,125727,2,0,L|72:344,1,40,2|8,0:0|0:0,0:0:0:0:
256,224,125987,1,2,0:0:0:0:
256,224,126073,1,8,0:0:0:0:
256,224,126160,2,0,L|256:144,1,80,4|0,0:0|0:0,0:0:0:0:
432,80,126507,2,0,L|432:176,1,80,4|0,0:0|0:0,0:0:0:0:
432,304,126854,5,0,0:0:0:0:
432,304,126940,1,0,0:0:0:0:
432,304,127027,2,0,P|312:288|264:296,1,160,4|0,0:0|0:0,0:0:0:0:
88,176,127547,2,0,P|112:224|144:248,1,80,4|0,0:0|0:0,0:0:0:0:
424,208,127894,2,0,P|400:160|368:136,1,80,4|0,0:0|0:0,0:0:0:0:
144,48,128241,5,4,0:0:0:0:
64,192,128414,1,0,0:0:0:0:
248,176,128588,1,4,0:0:0:0:
368,344,128761,5,4,0:0:0:0:
264,208,128935,1,4,0:0:0:0:
440,192,129108,1,0,0:0:0:0:
152,312,129455,6,0,P|112:328|56:336,2,80,8|0|8,0:0|0:0|0:0,0:0:0:0:
303,330,129975,2,0,P|279:317|254:308,2,53.3333333333333,8|0|8,0:0|0:0|0:0,0:0:0:0:
384,304,130322,2,0,P|424:320|456:344,2,53.3333333333333,8|0|8,0:0|0:0|0:0,0:0:0:0:
160,208,130669,6,0,P|120:184|64:176,1,80,4|0,0:0|0:0,0:0:0:0:
352,176,131016,2,0,P|392:200|448:208,1,80
280,280,131362,2,0,P|232:304|184:312,1,80,4|0,0:0|0:0,0:0:0:0:
128,320,131709,1,8,0:0:0:0:
232,104,131883,2,0,P|280:80|328:72,1,80,4|0,0:0|0:0,0:0:0:0:
384,64,132229,1,8,0:0:0:0:
280,280,132403,2,0,P|263:330|234:370,1,80,4|0,0:0|0:0,0:0:0:0:
232,103,132750,6,0,P|243:65|262:30,2,80,4|0|0,0:0|0:0|0:0,0:0:0:0:
227,199,133270,1,8,0:0:0:0:
293,267,133443,1,8,0:0:0:0:
392,256,133617,6,0,P|416:216|424:176,1,80,4|0,0:0|0:0,0:0:0:0:
440,80,133964,1,8,0:0:0:0:
119,128,134137,2,0,P|98:161|88:200,1,80,4|0,0:0|0:0,0:0:0:0:
72,304,134484,1,8,0:0:0:0:
256,280,134657,2,0,P|304:272|344:280,1,80,4|0,0:0|0:0,0:0:0:0:
255,104,135004,6,0,P|216:111|177:107,2,80,4|0|0,0:0|0:0|0:0,0:0:0:0:
384,80,135524,1,8,0:0:0:0:
448,216,135698,1,0,0:0:0:0:
344,336,135871,1,8,0:0:0:0:
176,312,136044,6,0,P|120:304|96:288,2,80,4|0|0,0:0|0:0|0:0,0:0:0:0:
336,72,136565,2,0,P|392:80|416:96,2,80,4|0|0,0:0|0:0|0:0,0:0:0:0:
160,144,137085,2,0,P|104:168|64:176,1,80,4|0,0:0|0:0,0:0:0:0:
352,240,137432,2,0,P|408:216|448:208,1,80,4|0,0:0|0:0,0:0:0:0:
312,104,137779,5,0,0:0:0:0:
192,280,137952,1,8,0:0:0:0:
160,144,138125,1,0,0:0:0:0:
352,240,138299,5,4,0:0:0:0:
232,64,138472,1,0,0:0:0:0:
120,240,138646,1,0,0:0:0:0:
352,240,138819,1,4,0:0:0:0:
106,87,139166,6,0,P|146:90|184:104,1,80,4|0,0:0|0:0,0:0:0:0:
405,296,139686,2,0,P|365:293|328:280,1,80,4|0,0:0|0:0,0:0:0:0:
440,56,140206,1,0,0:0:0:0:
56,336,140553,1,4,0:0:0:0:
