osu file format v13

[General]
AudioFilename: Demetori - Reichi no Taiyou Shinkou _ Nuclear Fusion.mp3
AudioLeadIn: 3000
PreviewTime: 99
Countdown: 0
SampleSet: Normal
StackLeniency: 0.7
Mode: 0
LetterboxInBreaks: 1
WidescreenStoryboard: 0

[Editor]
DistanceSpacing: 0.9
BeatDivisor: 2
GridSize: 8
TimelineZoom: 1.8

[Metadata]
Title:Solar Sect of Mystic Wisdom ~ Nuclear Fusion
TitleUnicode:霊知の太陽信仰 ~ Nuclear Fusion
Artist:Demetori
ArtistUnicode:Demetori
Creator:[Hijiri Byakuren]
Version:Easy
Source:Touhou
Tags:Reiuji Utsuho Reichi no Taiyou Shinkou 曼衍珠汝華 Nada Upasana Pundarika Subterranean Animism 東方地霊殿 Onosakihito
BeatmapID:160208
BeatmapSetID:52401

[Difficulty]
HPDrainRate:2
CircleSize:3
OverallDifficulty:1
ApproachRate:4
SliderMultiplier:1
SliderTickRate:1

[Events]
//Background and Video events
0,0,"BG.jpg",0,0
//Break Periods
2,84048,93626
//Storyboard Layer 0 (Background)
//Storyboard Layer 1 (Fail)
//Storyboard Layer 2 (Pass)
//Storyboard Layer 3 (Foreground)
//Storyboard Sound Samples
//Background Colour Transformations
3,100,163,162,255

[TimingPoints]
261,324.324324324324,6,1,1,50,1,0
2693,346.820809248555,6,1,1,50,1,0
3386,346.820809248555,6,1,1,50,1,0
94946,-100,6,1,1,60,0,1
106044,-100,6,1,1,50,0,0
117143,-133.333333333333,6,1,1,50,0,0
128241,-100,6,1,1,60,0,1
140553,-100,6,1,0,60,0,0

[Colours]
Combo1 : 85,170,255
Combo2 : 85,255,85
Combo3 : 224,230,26
Combo4 : 255,85,85

[HitObjects]
258,192,3386,6,0,P|194:144|90:208,1,200,2|0,0:0|0:0,0:0:0:0:
176,240,4426,1,8,0:0:0:0:
104,296,4773,2,0,P|144:328|216:320,3,100
285,305,6160,6,0,P|331:205|283:141,1,200,2|0,0:0|0:0,0:0:0:0:
239,220,7201,1,8,0:0:0:0:
161,266,7547,2,0,P|155:187|176:152,3,100
215,97,8935,6,0,P|270:68|409:109,1,200,2|0,0:0|0:0,0:0:0:0:
454,168,9975,1,8,0:0:0:0:
476,255,10322,2,0,L|376:255,3,100
308,321,11709,6,0,P|252:350|113:312,1,200,2|0,0:0|0:0,0:0:0:0:
170,244,12750,1,8,0:0:0:0:
259,244,13096,1,4,0:0:0:0:
213,69,13790,1,8,0:0:0:0:
120,223,14484,6,0,P|208:258|317:202,1,200,4|0,0:0|0:0,0:0:0:0:
353,147,15524,1,8,0:0:0:0:
402,71,15871,2,0,P|450:55|514:87,2,100,0|0|8,0:0|0:0|0:0,0:0:0:0:
232,120,17258,6,0,B|232:256|232:256|280:304,1,200,4|0,0:0|0:0,0:0:0:0:
440,224,18646,2,0,B|440:88|440:88|392:40,1,200,4|0,0:0|0:0,0:0:0:0:
216,72,20033,6,0,P|166:147|236:247,1,200,4|0,0:0|0:0,0:0:0:0:
260,160,21073,1,8,0:0:0:0:
350,160,21420,2,0,L|462:160,2,100,0|0|8,0:0|0:0|0:0,0:0:0:0:
194,251,22807,6,0,L|402:251,1,200,4|0,0:0|0:0,0:0:0:0:
347,76,24195,2,0,L|139:76,1,200,4|0,0:0|0:0,0:0:0:0:
176,256,25582,6,0,P|104:248|64:112,2,200,4|0|0,0:0|0:0|0:0,0:0:0:0:
200,80,27663,1,0,0:0:0:0:
336,192,28357,6,0,P|256:208|240:304,1,150,4|2,0:0|0:0,0:0:0:0:
320,280,29224,2,0,P|352:280|376:288,1,50,0|8,0:0|0:0,0:0:0:0:
448,320,29744,1,2,0:0:0:0:
480,192,30264,6,0,P|488:143|478:94,2,100
384,184,31305,2,0,L|384:234,2,50,0|0|0,0:0|0:0|0:0,0:0:0:0:
344,160,31825,2,0,P|312:136|232:144,1,100,8|0,0:0|0:0,0:0:0:0:
256,224,32518,2,0,P|192:272|72:248,1,200,8|0,0:0|0:0,0:0:0:0:
160,184,33559,1,0,0:0:0:0:
160,184,33732,6,0,P|131:110|199:31,1,150,8|0,0:0|0:0,0:0:0:0:
224,120,34599,1,0,0:0:0:0:
312,120,34946,1,8,0:0:0:0:
376,184,35293,2,0,L|480:184,2,100,0|0|8,0:0|0:0|0:0,0:0:0:0:
256,128,36507,6,0,P|283:211|227:290,1,150,2|0,0:0|0:0,0:0:0:0:
192,200,37374,2,0,P|120:184|40:208,1,150,0|8,0:0|0:0,0:0:0:0:
120,320,38414,1,8,0:0:0:0:
120,320,38761,2,0,L|70:320,2,50,0|0|0,0:0|0:0|0:0,0:0:0:0:
168,312,39281,6,0,P|240:296|304:240,1,150,10|0,0:0|0:0,3:0:0:0:
328,160,40149,1,8,0:0:0:0:
384,88,40495,1,0,0:0:0:0:
384,88,40669,2,0,P|416:160|352:240,1,150,8|0,0:0|0:0,0:0:0:0:
304,248,41536,2,0,P|280:264|256:296,1,50,0|8,0:0|0:0,0:0:0:0:
210,350,42056,6,0,P|146:342|74:254,1,150,2|0,0:0|0:0,0:0:0:0:
60,199,42923,1,8,0:0:0:0:
98,69,43443,1,4,0:0:0:0:
232,55,43964,1,8,0:0:0:0:
232,55,44310,2,0,L|182:55,2,50,8|0|0,0:0|0:0|0:0,0:0:0:0:
280,56,44831,6,0,P|352:72|400:144,1,150,2|0,0:0|0:0,0:0:0:0:
400,224,45698,2,8,P|368:256|312:272,1,100
224,280,46391,2,8,P|167:283|106:311,2,100,8|0|8,0:0|0:0|0:0,0:0:0:0:
312,184,47605,6,0,P|304:120|216:48,1,150,4|0,0:0|0:0,0:0:0:0:
160,56,48472,1,8,0:0:0:0:
120,184,48992,1,4,0:0:0:0:
216,272,49513,1,8,0:0:0:0:
296,224,49859,2,0,L|360:184,2,50,0|0|8,0:0|0:0|0:0,0:0:0:0:
216,272,50553,6,0,P|240:328|376:328,1,200,4|0,0:0|0:0,0:0:0:0:
432,280,51594,1,0,0:0:0:0:
440,192,51940,2,0,P|400:120|272:120,1,200,4|0,0:0|0:0,0:0:0:0:
112,96,53328,6,0,P|56:176|128:240,1,200,4|0,0:0|0:0,0:0:0:0:
176,168,54368,1,0,0:0:0:0:
240,96,54715,2,0,P|296:169|236:238,1,200,4|0,0:0|0:0,0:0:0:0:
168,72,56102,6,0,P|148:148|168:288,1,200,4|0,0:0|0:0,0:0:0:0:
248,288,57143,1,0,0:0:0:0:
336,264,57490,2,0,P|349:165|328:68,1,200,4|0,0:0|0:0,0:0:0:0:
152,72,58877,6,0,P|111:159|152:247,2,200,4|0|0,0:0|0:0|0:0,0:0:0:0:
232,168,60958,1,0,0:0:0:0:
232,168,61651,6,0,P|200:120|248:32,1,150,4|8,0:0|0:0,0:0:0:0:
304,104,62518,2,0,L|360:104,1,50,0|8,0:0|0:0,0:0:0:0:
448,104,63039,1,2,0:0:0:0:
448,240,63559,2,0,P|414:277|349:278,2,100,0|0|8,0:0|0:0|0:0,0:0:0:0:
400,160,64599,6,0,L|450:160,2,50,0|0|0,0:0|0:0|0:0,0:0:0:0:
352,160,65120,2,0,P|312:168|288:224,1,100,8|0,0:0|0:0,0:0:0:0:
288,304,65813,2,0,P|224:272|232:144,1,200,8|0,0:0|0:0,0:0:0:0:
288,96,66854,1,0,0:0:0:0:
288,96,67027,6,0,P|360:128|368:232,1,150,8|0,0:0|0:0,0:0:0:0:
312,248,67894,2,8,P|288:312|296:360,1,100
384,336,68588,2,0,L|484:336,2,100,8|0|8,0:0|0:0|0:0,0:0:0:0:
387,193,69802,6,0,P|395:105|323:41,1,150,4|0,0:0|0:0,0:0:0:0:
315,136,70669,2,0,P|243:152|163:128,1,150,0|8,0:0|0:0,0:0:0:0:
248,242,71709,1,8,0:0:0:0:
336,240,72056,2,0,L|408:240,1,50,8|0,0:0|0:0,0:0:0:0:
432,240,72403,1,0,0:0:0:0:
476,239,72576,6,0,P|496:160|472:96,1,150,4|0,0:0|0:0,0:0:0:0:
400,48,73443,1,8,0:0:0:0:
312,32,73790,1,0,0:0:0:0:
312,32,73964,2,0,P|288:96|320:200,1,150,8|0,0:0|0:0,0:0:0:0:
376,224,74831,2,0,P|424:232|448:224,1,50,8|0,0:0|0:0,0:0:0:0:
510,237,75351,6,0,P|502:173|414:101,1,150,8|0,0:0|0:0,0:0:0:0:
352,112,76218,1,8,0:0:0:0:
224,144,76738,1,4,0:0:0:0:
208,280,77258,1,8,0:0:0:0:
280,336,77605,2,0,L|368:336,1,50,8|0,0:0|0:0,0:0:0:0:
365,334,77952,1,8,0:0:0:0:
409,334,78125,6,0,P|441:286|449:166,1,150,4|0,0:0|0:0,0:0:0:0:
445,106,78992,2,0,P|381:74|325:66,1,100,8|0,0:0|0:0,0:0:0:0:
278,117,79686,2,0,P|230:109|182:77,2,100,8|0|8,0:0|0:0|0:0,0:0:0:0:
183,214,80900,6,0,P|243:270|307:278,1,150,4|0,0:0|0:0,0:0:0:0:
397,274,81767,1,8,0:0:0:0:
376,140,82287,1,4,0:0:0:0:
256,80,82807,1,8,0:0:0:0:
168,80,83154,2,0,L|118:80,2,50,0|0|8,0:0|0:0|0:0,0:0:0:0:
256,80,83848,1,4,0:0:0:0:
144,304,94946,6,0,L|96:200,1,100,0|8,0:0|0:0,0:0:0:0:
192,200,95640,2,0,L|240:304,1,100,0|8,0:0|0:0,0:0:0:0:
304,344,96333,2,0,P|352:368|416:360,2,100,0|0|8,0:0|0:0|0:0,0:0:0:0:
368,280,97374,1,8,0:0:0:0:
400,200,97721,6,0,L|448:96,1,100,0|8,0:0|0:0,0:0:0:0:
352,88,98414,2,0,L|304:192,1,100,0|8,0:0|0:0,0:0:0:0:
264,256,99108,2,0,P|224:280|168:272,2,100,0|0|8,0:0|0:0|0:0,0:0:0:0:
200,192,100149,1,8,0:0:0:0:
144,120,100495,6,0,P|120:192|80:208,1,100,0|8,0:0|0:0,0:0:0:0:
184,240,101189,2,0,P|232:208|288:200,1,100,0|8,0:0|0:0,0:0:0:0:
304,112,101883,2,0,P|264:120|216:80,2,100,0|0|8,0:0|0:0|0:0,0:0:0:0:
384,80,102923,1,8,0:0:0:0:
424,160,103270,5,4,0:0:0:0:
368,280,103790,1,4,0:0:0:0:
240,320,104310,1,4,0:0:0:0:
120,256,104831,1,4,0:0:0:0:
256,256,105351,6,0,L|320:256,3,50,0|0|0|0,0:0|0:0|0:0|0:0,0:0:0:0:
352,248,106044,6,0,P|368:200|368:136,1,100,0|8,0:0|0:0,0:0:0:0:
328,72,106738,2,0,P|280:64|224:72,1,100,0|8,0:0|0:0,0:0:0:0:
184,152,107432,2,0,P|187:201|203:249,2,100
120,216,108472,1,0,0:0:0:0:
112,304,108819,6,0,P|176:328|224:328,1,100,2|0,0:0|0:0,0:0:0:0:
296,320,109513,1,8,0:0:0:0:
408,248,110033,1,4,0:0:0:0:
408,112,110553,1,8,0:0:0:0:
408,112,110900,1,4,0:0:0:0:
144,152,111594,6,0,P|128:200|128:264,1,100,0|8,0:0|0:0,0:0:0:0:
208,288,112287,2,0,P|256:296|312:288,1,100,0|8,0:0|0:0,0:0:0:0:
392,248,112981,2,0,P|388:198|372:150,1,100,0|0,0:0|0:0,0:0:0:0:
336,72,113675,1,8,0:0:0:0:
256,40,114021,1,4,0:0:0:0:
256,40,114368,6,0,L|192:40|96:40,2,150,8|0|0,0:0|0:0|0:0,0:0:0:0:
344,40,115755,2,0,P|384:96|400:240,1,200,4|0,0:0|0:0,0:0:0:0:
376,352,117143,6,0,P|288:352|224:336,1,150.000005722046
128,248,118530,2,0,P|232:248|304:272,1,150.000005722046
392,184,119917,2,0,P|380:140|380:36,1,150.000005722046
248,16,121305,2,0,L|128:112,1,150.000005722046
96,240,122692,5,0,0:0:0:0:
216,304,123386,2,0,L|304:336,2,75.0000028610231
328,232,124773,2,0,L|368:160,1,75.0000028610231,0|8,0:0|0:0,0:0:0:0:
392,104,125466,6,0,P|320:112|256:104,2,112.500004291535,8|0|0,0:0|0:0|0:0,0:0:0:0:
440,88,126854,2,0,P|464:160|464:256,1,150.000005722046,4|0,0:0|0:0,0:0:0:0:
312,328,128241,6,0,P|253:309|285:136,1,250,4|0,0:0|0:0,0:0:0:0:
304,72,129455,2,0,L|141:78,1,150,4|0,0:0|0:0,0:0:0:0:
72,112,130322,1,4,0:0:0:0:
24,192,130669,6,0,P|23:255|121:340,1,200,4|0,0:0|0:0,0:0:0:0:
248,304,131883,1,4,0:0:0:0:
152,208,132403,1,4,0:0:0:0:
152,208,132750,6,0,P|213:122|362:138,1,250,4|0,0:0|0:0,0:0:0:0:
448,216,134137,1,4,0:0:0:0:
312,240,134657,1,4,0:0:0:0:
312,240,135004,6,0,P|305:158|481:86,1,300,4|0,0:0|0:0,0:0:0:0:
448,216,136565,1,4,0:0:0:0:
344,304,137085,1,4,0:0:0:0:
343,304,137432,6,0,P|264:328|184:240,1,200,4|0,0:0|0:0,0:0:0:0:
184,208,138299,2,0,L|206:95,1,100,4|0,0:0|0:0,0:0:0:0:
216,64,138819,1,8,0:0:0:0:
128,88,139166,6,0,L|66:99,1,50,0|8,0:0|0:0,0:0:0:0:
64,184,139686,2,0,L|126:173,1,50,0|8,0:0|0:0,0:0:0:0:
112,265,140206,2,0,B|62:290|62:290|9:285,1,100,0|4,0:0|0:0,0:0:0:0:
