osu file format v9

[General]
AudioFilename: 08 - Septette for the Dead Princess Ascending Into Naught.mp3
AudioLeadIn: 1500
PreviewTime: 76813
Countdown: 1
SampleSet: Normal
StackLeniency: 0.7
Mode: 0
LetterboxInBreaks: 1

[Editor]
DistanceSpacing: 2
BeatDivisor: 4
GridSize: 8

[Metadata]
Title:Septette for the Dead Princess
Artist:Demetori
Creator:Cyclone
Version:"Scarlet Destiny"
Source:Touhou
Tags:

[Difficulty]
HPDrainRate:8
CircleSize:4
OverallDifficulty:9
ApproachRate:8
SliderMultiplier:2
SliderTickRate:2

[Events]
//Background and Video events
0,0,"Remilia.jpg"
//Break Periods
2,12354,24178
2,103712,375665
2,386486,401214
//Storyboard Layer 0 (Background)
//Storyboard Layer 1 (Fail)
//Storyboard Layer 2 (Pass)
//Storyboard Layer 3 (Foreground)
//Storyboard Sound Samples
//Background Colour Transformations
3,100,163,162,255

[TimingPoints]
154.39135059553,387.096774193548,4,1,0,100,1,0
63158,-62.5,4,1,0,100,0,0
63545,-100,4,1,0,100,0,0
64513,193.548387096774,4,1,0,100,1,0
64561,-66.6666666666667,4,1,0,100,0,0
65190,387.096774193548,4,1,0,100,1,0
89383,-50,4,1,0,100,0,0
89964,-100,4,1,0,100,0,0
324545,387.096774193548,4,1,0,100,1,0

[Colours]
Combo1 : 255,191,223
Combo2 : 255,0,0
Combo3 : 255,255,255
Combo4 : 151,151,204

[HitObjects]
256,192,154,1,0
120,80,3251,1,0
392,80,4799,1,0
256,328,5767,2,0,B|256:280,3,33.3333333333333
104,296,6347,5,0
104,88,6735,1,8
256,192,7122,1,0
256,192,7315,1,0
408,88,7702,1,0
416,192,7896,1,8
392,264,8025,1,0
392,264,8089,1,0
392,264,8154,1,0
328,304,8283,1,8
256,320,8412,1,0
256,320,8541,1,0
184,304,8670,1,8
120,264,8799,1,0
120,264,8864,1,0
120,264,8928,1,0
96,192,9057,1,8
120,120,9186,1,0
184,80,9315,1,0
256,64,9444,1,4
256,360,10993,5,0
224,248,11186,1,0
288,248,11283,1,0
256,136,11476,1,0
144,80,11767,5,0
176,56,11831,1,0
216,48,11896,1,0
256,48,11960,1,0
296,48,12025,1,0
336,56,12089,1,0
368,80,12154,1,0
168,72,24928,5,0
352,64,25509,2,0,B|464:136|296:336,1,300
208,320,26283,1,0
120,240,26476,1,0
64,56,27057,6,0,B|56:232|256:232,1,300
376,216,27831,1,0
456,128,28025,1,0
360,32,28606,6,0,B|352:200|208:232|144:72|272:80,1,300
168,160,29380,1,0
88,248,29573,1,0
256,192,30154,12,0,31122
8,40,31702,6,0,B|520:40,1,500
504,344,33251,6,0,B|-8:344,1,500
32,192,34412,5,0
72,192,34509,1,0
112,192,34606,1,0
192,192,34799,2,0,B|368:192,1,150
384,192,35186,1,0
472,192,35380,2,0,B|472:264|376:264,1,100
472,192,35767,2,0,B|480:112|264:120,1,200
112,64,36541,5,0
112,64,36638,1,0
112,64,36735,1,0
112,64,36831,1,0
112,64,36928,5,0
152,64,37025,1,0
192,80,37122,1,0
216,112,37218,1,0
224,152,37315,1,0
392,328,37896,5,0
392,328,37960,1,0
392,328,38025,1,0
392,328,38089,1,0
392,56,38476,1,0
480,192,39638,6,0,B|248:192,1,200
56,72,40412,6,0,B|256:72,1,200
336,72,40993,1,0
368,88,41089,1,0
416,152,41283,1,0
416,192,41380,1,0
368,256,41573,2,0,B|144:256,1,200
112,312,42154,1,0
56,256,42347,1,0
112,192,42541,1,0
152,192,42638,1,0
232,192,42831,1,0
272,192,42928,1,0
352,192,43122,2,0,B|424:192|448:136|424:80|352:80,1,200
272,80,43702,5,0
232,80,43799,1,0
192,80,43896,1,0
112,80,44089,2,0,B|32:120,1,50
64,184,44380,2,0,B|120:208,1,50
192,208,44670,2,0,B|320:208,1,100,0|0
336,208,44960,1,0
376,208,45057,1,0
288,288,45251,5,0
328,288,45347,1,0
368,288,45444,1,0
368,368,45638,1,0
408,360,45735,1,0
440,336,45831,1,0
456,296,45928,1,8
456,256,46025,1,0
456,96,46218,5,8
256,32,46606,6,0,B|256:176|256:176|256:80,1,200,4|0
160,120,47186,1,0
160,168,47283,1,0
352,120,47476,1,0
352,168,47573,1,0
256,120,47767,2,0,B|256:336,1,200
312,368,48347,1,0
256,384,48444,1,0
200,368,48541,1,0
256,264,48735,1,0
256,216,48831,1,0
256,112,49025,1,0
256,64,49122,1,0
160,64,49315,2,0,B|40:64|40:192,1,200
40,344,49896,5,0
160,256,50089,1,0
280,344,50283,1,0
392,240,50476,1,0
448,192,50573,1,0
392,144,50670,1,0
280,40,50864,1,0
160,136,51057,1,0
40,40,51251,2,0,B|40:168,1,100
40,200,51541,1,0
40,256,51638,1,0
160,344,51831,1,0
352,344,52025,5,4
352,344,52218,1,4
352,192,52412,1,0
352,192,52509,1,4
464,48,52799,6,0,B|520:272|296:272,1,300,4|0
256,320,53767,1,0
256,192,53960,1,0
256,64,54154,1,0
48,48,54347,2,0,B|-8:272|216:272,1,300,4|0
256,320,55315,1,0
256,192,55508,1,0
256,64,55702,1,0
456,8,55896,6,0,B|464:136|336:128,1,200
256,128,56476,1,0
174,127,56670,2,0,B|47:119|55:247,1,200
56,328,57251,1,0
160,336,57444,5,0
208,336,57541,1,0
256,336,57638,1,0
304,336,57735,1,0
352,336,57831,1,0
408,264,58025,1,0
352,192,58218,1,0
304,192,58315,1,0
256,192,58412,1,0
160,48,58606,1,0
208,48,58702,1,0
256,48,58799,1,0
304,48,58896,1,0
352,48,58993,1,0
424,120,59186,5,0
352,192,59380,2,0,B|272:120,1,100,2|0
208,48,59767,1,0
176,80,59864,1,2
144,120,59960,1,8
224,184,60154,2,0,B|304:256,1,100,6|0
224,320,60541,6,0,B|128:232,1,100,4|0
112,216,60831,1,2
80,184,60928,1,8
80,80,61122,1,0
128,56,61218,1,4
176,40,61315,1,2
224,56,61412,1,4
272,80,61509,1,0
176,120,61702,2,0,B|176:232,1,100,6|0
176,320,62089,5,0
280,320,62283,2,0,B|352:320,2,50,2|0|8
176,320,62670,1,0
128,320,62767,1,4
80,272,62960,1,0
80,224,63057,1,4
80,224,63251,2,0,B|72:328|176:320,1,160,10|0
272,320,63638,5,0
368,296,63831,1,8
416,280,63928,1,0
448,240,64025,1,8
448,144,64218,1,4
416,104,64315,1,2
368,88,64412,1,4
376,192,64609,6,12,B|32:192,1,299.999991059304,12|12
72,192,65190,5,4
72,96,65383,1,2
96,48,65480,1,0
136,24,65577,2,0,B|184:-8|232:24,1,100,14|0
272,48,65867,1,2
304,88,65964,1,0
304,136,66060,1,0
272,176,66157,2,2,B|264:232|320:272,1,100,14|10
309,263,66544,1,4
392,320,66738,5,0
464,248,66931,2,0,B|464:160,1,50,10|4
464,198,67125,1,10
464,48,67415,1,4
448,96,67512,1,2
408,128,67609,1,10
360,136,67706,1,0
264,136,67899,2,0,B|209:133|168:184,1,100,14|4
112,256,68286,5,4
112,256,68480,1,0
112,56,68673,1,14
112,256,68867,1,0
208,256,69060,1,0
256,256,69157,1,8
304,256,69254,1,0
304,56,69448,1,14
304,256,69641,1,0
408,256,69835,2,0,B|408:152,1,100,4|2
408,152,70125,1,0
408,156,70222,1,10
408,56,70415,1,0
304,56,70609,5,2
256,64,70706,1,0
224,104,70802,1,8
120,104,70996,1,8
80,128,71093,1,8
56,176,71190,1,2
80,224,71286,1,0
120,248,71383,2,0,B|280:248,1,150
270,248,71770,1,0
424,248,71964,5,4
424,48,72351,1,0
424,48,72544,1,2
424,48,72738,1,2
352,120,72931,1,8
328,120,73028,1,8
304,120,73125,1,6
280,120,73222,1,2
256,120,73319,1,6
192,48,73512,1,4
168,272,73899,5,0
256,320,74093,1,0
344,272,74286,1,0
256,192,74480,12,0,74867
256,192,75060,5,0
256,192,75254,12,0,75641
256,192,75835,5,0
256,192,76028,12,0,76802
160,56,76996,6,0,B|256:0|352:56,1,200
440,96,77577,2,0,B|336:144,1,100
349,246,77964,2,0,B|440:288,1,100
472,192,78351,1,0
376,192,78544,2,0,B|176:192,1,200
144,96,79125,2,0,B|40:144,1,100
53,246,79512,2,0,B|143:287,1,100
256,336,79899,1,0
256,232,80093,2,0,B|256:32,1,200
355,32,80673,6,0,B|480:128,1,150
336,192,81254,1,0
440,192,81448,2,0,B|432:280|320:296,1,150
232,192,82028,1,0
232,292,82222,2,0,B|143:280|96:192|143:104|233:92,1,300
32,336,83189,6,0,B|32:128,1,200
32,188,83770,2,0,B|32:60,1,100
32,144,84157,2,0,B|32:32,1,100
32,144,84544,1,0
216,192,84738,2,0,B|212:331|348:331,1,200
480,188,85319,6,0,B|480:60,1,100
480,144,85706,2,0,B|480:32,1,100
480,144,86093,1,0
296,192,86287,2,0,B|300:331|164:331,1,200
408,328,86867,5,0
256,72,87157,1,0
104,328,87448,1,0
256,312,87641,5,0
408,56,87931,1,0
104,56,88222,1,0
64,192,88415,6,0,B|80:184|80:184|96:200|96:200|112:184|112:184|128:200|128:200|144:184|144:184|160:200|160:200|176:184|176:184|192:200|192:200|208:184|208:184|224:200|224:200|240:184|240:184|256:200|256:200|272:184|272:184|288:200|288:200|304:184|304:184|320:200|320:200|336:184|336:184|352:200,1,400
456,192,89383,6,0,B|40:192,1,400
64,64,89964,6,0,B|176:64,1,100
264,64,90351,1,0
360,64,90544,1,0
400,96,90641,1,0
440,192,90835,1,0
408,192,90931,1,0
368,192,91028,1,0
336,192,91125,1,0
400,288,91319,1,0
448,320,91512,6,0,B|336:320,1,100
248,320,91899,1,0
152,320,92092,1,0
112,288,92189,1,0
72,192,92383,1,0
104,192,92479,1,0
144,192,92576,1,0
176,192,92673,1,0
112,96,92867,1,0
256,136,93060,6,0,B|256:264,1,100
256,288,93351,2,0,B|256:128,1,150
160,96,93835,1,0
200,72,93931,1,0
312,72,94125,1,0
352,96,94222,1,0
256,136,94415,1,0
256,32,94609,2,0,B|256:352,1,300
256,192,95577,12,0,95964
256,328,96157,6,0,B|312:328|368:288,1,100
424,192,96544,1,0
351,299,96738,2,0,B|312:328|256:336|200:328|159:299,1,200
256,224,97319,1,0
256,192,97415,1,0
256,160,97512,1,0
256,56,97706,6,0,B|200:56|144:96,1,100
88,192,98093,1,0
161,85,98287,2,0,B|200:56|256:48|312:56|353:85,1,200
160,88,98867,1,4
350,83,99060,1,0
256,224,99254,6,0,B|256:288|304:320|352:320,1,150
256,224,99835,1,0
162,319,100028,2,0,B|208:320|256:288|256:224,1,150
256,80,100609,1,0
256,192,100802,12,0,101189
480,352,101383,5,0
32,32,101770,6,0,B|144:120,1,100
256,192,102157,12,0,103512
248,192,376415,5,0
352,192,376512,6,0,B|424:192,2,50
352,88,376803,2,0,B|408:88,2,50
352,88,377093,1,0
248,88,377190,1,0
112,88,377319,1,0
120,224,377448,1,0
208,328,377577,1,0
344,328,377706,1,0
464,264,377835,1,0
464,128,377964,5,0
368,160,378061,1,0
312,240,378157,1,0
216,208,378254,1,0
264,120,378351,2,0,B|200:80|224:80,2,50
264,120,378641,1,0
160,144,378738,6,0,B|96:168,1,50
113,161,378932,1,0
112,264,379028,2,0,B|160:288,1,50
156,286,379222,1,0
248,320,379319,1,0
248,320,379415,2,0,B|312:320,1,50
400,320,379641,1,0
464,240,379770,2,0,B|448:136,2,66.6666666666667
512,368,380157,1,0
416,272,380286,5,0
336,208,380383,1,0
256,144,380480,1,0
176,88,380577,1,0
80,72,380674,1,0
256,328,380867,1,0
96,272,381061,1,0
176,208,381158,1,0
256,144,381255,1,0
336,88,381352,1,0
432,72,381449,1,0
48,192,381641,6,0,B|104:192,2,50
96,272,381932,1,0
184,320,382028,1,0
280,328,382125,2,0,B|280:272,1,50
280,278,382319,1,0
280,176,382415,2,0,B|280:112,2,50
104,80,382803,1,0
304,80,382996,1,0
216,256,383190,1,0
512,360,383383,5,0
416,328,383480,1,0
336,264,383577,1,0
288,176,383674,1,0
256,80,383770,1,0
224,176,383867,1,0
128,208,383964,1,0
48,272,384061,1,0
0,360,384158,1,0
96,328,384254,1,0
176,264,384351,1,0
224,176,384448,1,0
256,80,384544,1,0
472,64,384932,5,0
472,160,385028,2,0,B|472:240,1,50
368,64,385222,1,0
368,160,385319,2,0,B|368:224,1,50
368,64,385512,1,0
168,64,385706,5,0
168,168,385803,1,0
168,267,385899,1,0
168,64,385996,1,0
168,168,386093,2,0,B|304:168,1,100
256,192,401964,12,0,413577
256,192,414351,12,0,425964
