osu file format v9

[General]
AudioFilename: 03 Innumerable Eyes.mp3
AudioLeadIn: 2000
PreviewTime: 106059
Countdown: 0
SampleSet: Normal
StackLeniency: 0.5
Mode: 0
LetterboxInBreaks: 1

[Editor]
Bookmarks: 10158,34947,55631,96053,126210,146579,187000,229316,247631
DistanceSpacing: 1.2
BeatDivisor: 4
GridSize: 4

[Metadata]
Title:Satori Maiden ~ Innumerable Eyes
Artist:Demetori
Creator:rickyboi
Version:Extra Stage
Source:Touhou
Tags:3rd Eye Nyan Zun Nada Upasana Pundarika Komeiji

[Difficulty]
HPDrainRate:8
CircleSize:4
OverallDifficulty:8
ApproachRate:9
SliderMultiplier:2.2
SliderTickRate:2

[Events]
//Background and Video events
0,0,"BG.jpg"
//Break Periods
2,30552,34331
2,86131,95436
2,177079,186384
//Storyboard Layer 0 (Background)
//Storyboard Layer 1 (Fail)
//Storyboard Layer 2 (Pass)
//Storyboard Layer 3 (Foreground)
//Storyboard Sound Samples
//Background Colour Transformations
3,100,0,0,0

[TimingPoints]
37,315.789473684211,4,1,1,70,1,0
35089,-200,4,1,1,70,0,0
35405,-100,4,1,1,70,0,0
136458,-100,4,1,1,80,0,1
155405,-95.2380952380952,4,1,1,80,0,1
155721,-90.9090909090909,4,1,1,80,0,1
156037,-86.9565217391304,4,1,1,80,0,1
156352,-83.3333333333333,4,1,1,80,0,1
156668,-80,4,1,1,80,0,1
165510,-66.6666666666667,4,1,1,80,0,1
166773,-80,4,1,1,80,0,1
176879,-100,4,1,1,70,0,0
198352,-100,4,2,0,5,0,0
198826,-100,4,1,1,70,0,0
200405,-100,4,1,1,5,0,0
200563,-100,4,1,1,70,0,0
201194,-100,4,1,1,70,0,0
202142,-100,4,1,1,80,0,1
221247,-100,4,1,1,5,0,1
221721,-100,4,1,1,80,0,1
227405,-100,4,1,1,70,0,0
227563,-100,4,1,1,40,0,0
229300,-100,4,1,1,70,0,0
229931,-100,4,1,1,40,0,0
231826,-100,4,1,1,70,0,0
235300,-100,4,1,1,70,0,0
236089,-100,4,1,1,70,0,0
247615,-100,4,1,1,80,0,1
257405,-100,4,1,1,80,0,0

[Colours]
Combo1 : 85,85,255
Combo2 : 255,128,192
Combo3 : 128,0,255
Combo4 : 255,0,255

[HitObjects]
200,92,37,1,12
132,176,194,1,0
132,176,352,1,0
316,292,510,1,12
388,204,667,1,0
388,204,825,1,0
232,360,984,6,0,B|144:296,1,110,12|0
143,296,1300,1,0
280,24,1458,2,0,B|369:92,1,110,12|0
367,91,1773,1,0
152,192,1931,6,0,B|116:244|144:296,1,110,12|0
360,192,2247,2,0,B|396:140|368:88,1,110,12|0
152,192,2563,6,0,B|188:136|188:136|189:85,1,110,12|0
189,92,2879,1,0
360,192,3037,2,0,B|324:248|324:248|324:300,1,110,12|0
324,292,3353,1,0
452,128,3510,5,12
360,64,3668,1,0
360,64,3826,1,0
216,256,3984,2,0,B|128:192,1,110,12|0
224,136,4300,5,0
224,136,4379,1,0
224,136,4458,1,12
372,204,4615,2,0,B|420:180,2,55,0|0|12
292,336,4931,1,0
292,336,5010,1,0
292,336,5089,1,12
184,200,5247,5,0
184,200,5405,1,0
372,204,5563,1,12
372,40,5721,1,0
372,40,5879,1,0
204,28,6037,6,0,B|252:60|252:124,1,110,12|0
372,40,6352,1,0
176,116,6510,2,0,B|124:152|124:208,1,110,12|0
32,140,6826,1,0
204,200,6984,5,8
360,312,7142,1,0
316,148,7300,1,0
472,268,7458,1,0
428,156,7615,5,8
396,124,7694,1,0
352,120,7773,1,0
316,148,7852,1,0
288,180,7931,1,0
264,216,8010,1,0
248,256,8089,1,8
216,288,8168,1,0
176,304,8247,1,0
136,292,8326,1,0
108,256,8405,2,0,B|128:192,3,55,8|0|8|0
152,164,8721,1,0
184,132,8800,1,0
224,116,8879,5,12
436,60,9037,1,0
340,212,9194,1,8
424,352,9352,2,0,B|460:308,2,55,0|0|0
248,320,9668,1,0
248,320,9747,1,0
248,320,9826,1,12
88,280,9984,6,0,B|44:336,2,55,8|8|4
56,172,10300,1,0
164,152,10458,2,0,B|232:64,1,110,8|0
384,96,10773,2,0,B|420:140|412:200,1,110
296,288,11089,1,8
216,192,11247,5,0
216,192,11405,1,0
144,288,11563,1,0
80,192,11721,2,0,B|64:96|176:96|176:96,1,110,8|0
128,104,12037,1,0
200,20,12194,1,0
296,76,12352,1,8
460,44,12510,5,0
460,44,12589,1,0
460,44,12668,2,0,B|448:112|384:128,1,110,4|0
336,216,12984,1,8
248,152,13142,1,0
424,288,13300,2,0,B|392:344|336:344,1,110
256,280,13615,6,0,B|200:296|200:296|168:344,2,110,8|0|0
128,264,14089,1,0
36,204,14247,1,8
128,264,14405,1,0
96,104,14563,2,0,B|184:16,1,110
256,112,14879,5,8
272,96,14958,1,0
288,80,15037,1,0
304,64,15115,1,0
320,48,15194,2,0,B|384:40|424:80|424:80,1,110,4|0
464,176,15510,1,8
384,248,15668,1,0
272,248,15826,2,0,B|216:296|272:352|272:352,1,110,0|0
144,304,16142,5,8
40,104,16300,1,0
88,208,16458,2,0,B|152:192|160:128,1,110
312,68,16773,1,8
344,228,16931,1,0
144,304,17089,5,0
177,143,17247,1,0
344,227,17405,1,8
444,320,17563,6,4,B|384:256|320:368|256:244,1,220,4|4
257,231,17958,1,0
257,217,18037,1,8
353,136,18194,2,0,B|308:108|308:108|252:108,2,110
436,188,18668,1,0
336,32,18826,6,0,B|224:32|224:32|128:96,1,220,4|0
256,192,19300,1,8
192,352,19458,2,0,B|304:352|304:352|402:269,1,220,4|0
386,282,19931,1,0
368,128,20089,5,0
352,112,20168,1,0
336,96,20247,2,0,B|300:72|300:72|272:92|232:76|232:76,1,110,4|0
16,92,20563,1,0
124,64,20721,1,0
60,192,20879,2,0,B|44:272|124:192|124:304,1,110
216,216,21194,5,8
119,266,21352,1,0
200,340,21510,2,0,B|248:372|304:352,1,110
396,296,21826,1,8
300,240,21984,1,0
480,344,22142,6,0,B|528:296|480:232|480:232,1,110,0|0
416,32,22458,2,0,B|364:84|416:144,1,110,8|0
256,32,22773,5,4
56,88,22931,1,0
256,144,23089,2,0,B|192:136|168:80,1,110,0|8
112,192,23405,1,0
112,192,23563,1,0
176,304,23721,2,0,B|112:336|48:288,2,110,8|0|0
336,304,24194,2,0,B|400:336|464:288,2,110,0|8|0
256,192,24668,5,0
404,120,24826,1,12
256,192,24984,1,0
304,36,25142,1,12
160,112,25300,5,0
48,48,25458,2,0,B|0:96|48:156,1,110,0|8
88,248,25773,1,0
184,296,25931,2,0,B|301:347,1,110
408,184,26247,5,0
392,304,26405,1,8
312,232,26563,1,0
368,80,26721,2,0,B|416:112|480:80,2,110,0|8|0
353,75,27115,1,0
339,67,27194,5,8
172,32,27352,1,8
211,172,27510,1,8
48,144,27668,1,8
48,144,27826,6,4,B|48:272|160:336,1,220,4|8
256,316,28300,1,0
300,216,28458,1,0
398,269,28615,1,0
453,174,28773,2,0,B|329:84,1,110,8|0
256,48,29089,5,0
256,48,29168,1,0
256,48,29247,1,0
144,80,29405,2,0,B|80:32,2,55
128,192,29721,5,0
156,220,29800,1,0
192,236,29879,1,0
232,236,29958,1,0
268,224,30037,1,0
300,204,30115,1,0
336,188,30194,1,0
376,188,30273,1,0
412,196,30352,1,4
352,192,34931,5,0
352,192,35010,1,0
352,192,35089,2,0,B|336:184|344:184|344:184|328:192|328:192|320:184|320:184|312:192|312:192|304:184|304:184|296:192|296:192|288:184|288:184|280:192|280:192|272:184|272:184,1,110,0|4
256,80,35563,5,0
160,32,35721,1,8
69,96,35879,2,0,B|21:144|69:208,1,110
172,196,36194,1,0
120,292,36352,2,0,B|168:340|232:284,1,110,8|0
352,192,36668,5,0
376,28,36826,2,0,B|444:24|476:80,1,110,0|8
312,124,37142,1,0
448,220,37300,2,0,B|424:276|372:296|372:296|312:284|260:248,1,220,0|8
112,216,37773,1,0
112,216,37852,1,0
112,216,37931,1,4
80,48,38089,5,0
176,96,38247,1,8
256,32,38405,1,0
360,72,38562,2,0,B|344:136|272:136,2,110,0|0|8
448,160,39036,5,0
464,272,39194,2,0,B|384:256|352:352,1,110
288,224,39510,1,8
224,320,39668,1,0
192,304,39747,1,0
160,288,39826,1,0
128,272,39905,1,0
96,256,39983,1,0
88,148,40141,2,0,B|108:88|164:72,1,110,8|0
257,40,40457,5,4
368,32,40615,2,0,B|420:80|368:144,1,110,0|8
288,192,40931,1,0
384,240,41089,2,0,B|424:288|384:344,2,110,0|0|8
288,296,41563,5,0
132,348,41721,2,0,B|68:340|52:280,1,110
192,192,42036,1,8
88,64,42194,1,0
252,36,42352,2,0,B|312:20|312:20|384:60|384:156,1,220
416,316,42826,1,0
416,316,42905,1,0
416,316,42984,5,4
288,228,43141,2,0,B|228:244|192:192,1,110,0|8
220,40,43458,2,0,B|164:88|88:60|88:60|52:140,1,220
124,228,43931,1,8
204,304,44089,2,0,B|172:368|108:336,2,110
288,228,44562,5,8
361,303,44720,1,0
411,205,44878,1,0
400,176,44957,1,0
384,144,45036,1,0
368,112,45115,1,0
348,80,45194,2,0,B|328:48|296:60|296:60|264:48|264:48|224:120|152:88,1,220,12|4
104,168,45668,5,8
52,72,45826,1,0
44,256,45984,2,0,B|48:336|136:372|212:312,1,220
280,228,46457,1,8
220,68,46615,5,0
384,88,46773,2,0,B|448:96|464:24,2,110,0|0|8
280,228,47247,1,0
312,56,47405,2,0,B|288:140|288:140|208:132|180:232,1,220,0|8
92,144,47879,1,0
92,144,47958,1,0
92,144,48037,1,4
122,323,48194,5,8
44,244,48352,1,0
152,216,48510,2,0,B|232:192|232:192|264:268|344:256,1,220
344,148,48983,1,8
448,304,49141,1,0
440,200,49299,6,0,B|480:148|432:84,1,110
441,98,49615,1,8
280,60,49773,2,0,B|220:68|196:136,1,110
232,324,50089,2,0,B|292:316|316:248,1,110
200,128,50405,1,0
140,36,50563,6,0,B|120:52|76:24|76:24|32:48,1,110,4|0
36,152,50878,1,8
100,240,51036,2,0,B|128:296|100:344,2,110
208,212,51510,1,8
252,316,51668,6,0,B|306:348|356:320,1,110,0|0
316,156,51983,1,0
356,320,52141,1,8
480,204,52299,1,0
320,244,52458,2,0,B|248:244|224:192|224:192|252:132|232:84,1,220
160,32,52931,5,0
144,28,53010,1,0
128,32,53089,2,0,B|96:80|128:144,1,110,12|0
128,240,53405,2,0,B|160:304|112:352,1,110,8|0
416,240,53720,2,0,B|384:304|432:352,1,110,8|0
256,320,54036,5,8
256,304,54115,1,0
256,288,54194,1,0
256,272,54273,1,0
256,256,54352,2,0,B|240:128|432:96,1,220,0|8
304,32,54826,1,4
160,40,54984,6,0,B|128:88,3,55,0|0|0|0
80,112,55300,2,0,B|48:160,3,55
56,228,55615,6,0,B|80:280|156:280,1,110,4|0
256,260,55931,1,8
224,136,56089,1,0
368,216,56247,2,0,B|420:256|420:256|420:316,1,110
260,344,56562,1,8
168,208,56720,1,0
316,280,56878,5,0
428,160,57036,1,0
372,32,57194,2,0,B|340:80|340:80|260:80,1,110,8|0
108,136,57510,1,8
180,56,57668,1,0
220,168,57826,1,0
76,32,57984,1,0
60,48,58062,1,0
44,64,58142,6,0,B|8:116|28:172,1,110,4|0
72,328,58458,1,0
236,328,58615,2,0,B|172:232,1,110
276,188,58931,1,0
272,76,59089,6,0,B|224:44|160:76,2,110,8|0|0
340,164,59562,1,0
400,72,59720,1,12
464,164,59878,1,0
440,272,60037,2,0,B|348:336,1,110
204,256,60352,1,8
224,80,60510,5,0
208,64,60589,1,0
192,48,60668,1,4
84,36,60826,2,0,B|136:88|88:136|88:136,1,110,0|8
40,236,61141,1,0
152,240,61299,2,0,B|104:288|152:336,1,110
256,296,61615,5,8
256,184,61773,2,0,B|304:184|272:104|352:104,1,110
392,20,62089,1,0
464,104,62247,1,8
416,204,62405,1,0
268,132,62562,5,0
324,288,62720,1,0
168,236,62878,1,8
64,336,63036,6,4,B|144:288|0:192|80:128,1,220,4|4
112,32,63510,1,8
224,32,63668,1,0
256,48,63747,1,0
288,64,63826,1,8
392,100,63983,2,0,B|440:124|496:152,1,110,8|0
464,256,64299,6,0,B|320:195|320:195|256:192,1,220,4|0
256,192,64694,1,0
256,192,64773,1,4
256,304,64931,2,0,B|208:336,2,55,0|0|8
420,316,65247,5,0
308,192,65405,1,0
420,72,65562,1,0
256,112,65720,6,0,B|192:120|184:188,1,110,4|0
136,280,66036,1,8
32,304,66194,2,0,B|8:248|44:200,1,110
36,88,66510,1,0
128,32,66668,2,0,B|192:40|208:112,1,110,8|0
228,264,66983,5,0
392,260,67141,2,0,B|456:260|472:180,1,110,0|8
440,32,67457,1,0
392,188,67615,2,0,B|336:128|344:64|344:64|283:41|211:53,1,220,0|8
128,80,68089,1,0
108,100,68168,1,0
88,120,68247,5,4
164,204,68405,1,8
168,316,68562,1,0
76,256,68720,1,0
264,264,68878,2,0,B|296:212|268:144,2,110,0|0|8
380,196,69352,1,0
452,112,69510,2,0,B|372:128|340:32,1,110
360,72,69826,1,8
252,48,69984,5,0
220,64,70062,1,0
188,80,70141,1,0
156,96,70220,1,0
124,112,70299,1,0
52,196,70457,2,0,B|40:260|96:292,1,110,8|0
248,316,70773,5,0
184,228,70931,1,4
340,256,71089,1,8
432,316,71247,2,0,B|468:260|468:260|420:192|456:112,1,220
360,64,71720,1,8
256,64,71878,6,0,B|204:32|148:52,1,110
32,168,72194,1,0
192,136,72352,1,8
128,280,72510,1,0
208,348,72668,2,0,B|240:364|288:344|293:297|288:256|320:224|368:232,1,220,0|8
448,152,73141,1,0
448,152,73220,1,0
448,152,73300,6,0,B|440:88|376:60,1,110,4|0
276,136,73615,1,0
176,204,73773,2,0,B|116:212|64:176|44:116|64:56,1,220
160,108,74247,1,8
256,44,74405,2,0,B|208:8|128:20,2,110
312,152,74878,1,8
376,68,75036,1,0
448,160,75194,5,0
432,192,75273,1,0
416,224,75352,1,0
400,256,75431,1,0
384,288,75510,2,0,B|336:320|272:324,1,110,4|0
204,244,75826,5,4
104,192,75983,1,8
88,304,76141,1,0
32,112,76299,2,0,B|80:56|80:56|160:32|224:80,1,220
260,180,76773,1,8
376,60,76931,5,0
260,180,77089,2,0,B|196:176|164:224,2,110,0|0|8
412,228,77562,1,0
254,282,77721,2,0,B|190:338|114:326|114:326|62:274,1,220,0|8
144,192,78194,1,0
144,192,78273,1,0
144,192,78352,5,4
28,76,78510,1,0
188,36,78668,1,8
144,192,78826,2,0,B|128:248|148:304|200:336|272:328,1,220
280,220,79299,1,8
392,240,79458,1,0
392,240,79615,6,0,B|408:180|464:136|464:136|444:84|380:44|288:48,1,330
252,44,80168,1,0
248,88,80247,2,0,B|204:128|148:88,1,110
144,44,80483,1,0
100,48,80562,2,0,B|32:76|32:76|-4:120|28:216,1,220,8|4
92,320,81036,5,0
240,304,81194,1,8
240,304,81273,1,0
240,304,81352,1,0
256,160,81510,2,0,B|324:124|324:124|380:136|384:184|448:196,1,220,0|8
328,312,81983,5,0
172,364,82141,1,0
204,200,82299,1,0
328,312,82458,1,8
204,200,82615,1,0
40,224,82773,2,0,B|28:144|120:124|120:124|148:48,1,220,0|8
288,32,83247,5,0
304,28,83326,1,0
320,32,83405,2,0,B|352:80|320:144,1,110,12|0
208,112,83720,2,0,B|176:160|208:224,1,110,8|0
400,192,84036,2,0,B|432:240|400:304,1,110,8|0
288,320,84352,5,8
248,336,84431,1,0
204,332,84510,1,0
172,304,84589,1,0
140,276,84668,2,0,B|112:280|88:256,3,55
60,224,84984,2,0,B|24:172|36:104,1,110
200,124,85300,5,8
228,100,85379,1,8
264,92,85458,1,8
300,104,85537,1,0
332,128,85616,1,0
364,144,85694,1,0
404,144,85773,1,0
440,132,85852,1,0
472,108,85931,1,4
96,32,96036,5,4
112,32,96115,1,0
128,32,96194,1,0
144,32,96273,1,0
160,32,96352,1,8
272,36,96510,1,0
104,240,96826,5,0
224,356,96984,1,8
260,196,97142,1,0
440,120,97458,5,0
300,36,97615,1,8
260,196,97773,1,0
96,104,97931,6,0,B|116:156|180:164,1,110
344,164,98247,2,0,B|412:176|428:244,1,110,8|0
80,320,98563,5,4
96,320,98642,1,0
112,320,98721,1,0
128,320,98800,1,0
144,320,98879,1,8
256,324,99037,1,0
36,192,99352,5,0
140,64,99510,1,8
256,192,99668,1,0
376,68,99984,5,0
484,188,100142,1,8
256,192,100300,1,0
256,352,100458,5,0
284,336,100537,1,0
308,312,100615,1,0
328,288,100694,1,0
344,260,100773,1,12
224,148,100931,1,0
128,264,101089,5,0
100,248,101168,1,0
76,224,101247,1,0
60,196,101326,1,0
48,164,101405,1,8
64,64,101563,6,0,B|80:48|80:48|144:80|144:80|160:64,1,110
256,48,101879,1,0
256,160,102037,2,0,B|256:176|256:176|208:224|208:224|208:272,1,110,8|0
112,304,102352,1,0
208,352,102510,1,0
320,352,102668,2,0,B|320:336|320:336|368:288|368:288|368:256,1,110,8|0
204,248,102984,5,0
340,156,103142,1,0
176,144,103300,1,8
312,48,103458,1,0
208,32,103615,5,4
192,48,103694,1,0
176,64,103773,1,0
160,80,103852,1,0
144,100,103931,2,0,B|64:184|64:184,1,110,8|0
56,288,104247,1,8
56,288,104405,1,0
152,332,104563,6,0,B|204:352|248:300|248:300|288:356|344:336,1,220,8|8
448,292,105037,1,8
420,164,105194,1,8
256,144,105352,1,8
396,60,105510,1,8
332,212,105668,1,0
296,52,105826,1,0
132,72,105984,1,0
132,72,106142,6,0,B|20:144|52:288,1,220,4|8
124,340,106615,1,0
236,340,106773,1,0
188,244,106931,1,0
188,244,107089,2,0,B|260:160|148:72|272:24,1,220,8|0
320,112,107563,5,0
380,20,107721,1,8
320,112,107879,2,0,B|396:80|476:136|464:224,1,220
464,220,108352,1,8
324,244,108510,1,0
404,292,108668,6,0,B|388:364|316:356|316:356|280:316|192:336,1,220,0|8
136,232,109142,1,0
32,160,109300,1,0
136,232,109458,1,0
144,100,109615,2,0,B|184:52|236:76|236:76|256:24|336:40,1,220,8|0
448,44,110089,5,0
320,164,110247,1,8
416,144,110405,2,0,B|448:222|405:308|332:316,1,220
333,316,110879,1,8
256,32,111194,6,0,B|112:112|448:128|208:176,1,220,4|8
144,32,111668,2,0,B|64:136|144:236,1,220
256,312,112142,1,8
256,312,112300,1,0
256,32,112458,6,0,B|400:112|64:128|304:176,1,220,0|8
368,32,112931,2,0,B|448:136|368:236,1,220
372,232,113405,2,0,B|348:308|304:312|276:272|220:260|184:288,1,220,8|0
184,136,113879,5,8
88,332,114037,1,0
116,224,114194,2,0,B|40:208|4:116|68:48,1,220
172,28,114668,1,8
256,100,114826,1,0
384,32,114984,6,0,B|464:128,1,110,0|0
384,336,115300,1,12
384,336,115458,1,0
128,336,115615,6,0,B|48:240,1,110
128,32,115931,1,12
128,32,116089,1,0
256,192,116247,6,4,B|224:80|416:208|336:48,1,220,4|8
384,200,116721,1,0
444,344,116879,1,0
304,308,117037,2,0,B|268:260|204:272,2,110,0|8|0
164,344,117510,5,0
92,248,117668,1,0
48,144,117826,1,8
48,144,117984,2,0,B|64:72|136:80|136:168|200:168|224:96,1,220
288,20,118458,1,8
328,120,118615,1,0
412,48,118773,6,0,B|448:64|448:64|452:100|452:100|428:120|384:160|408:232,1,220,0|8
496,176,119247,2,0,B|504:272|436:324|364:308,1,220
248,316,119721,1,0
300,220,119879,1,8
160,256,120037,6,0,B|104:288|112:356,2,110,0|0|8
48,208,120510,2,0,B|176:160|32:80|160:48,1,220
157,48,120984,1,12
448,32,121300,6,4,B|320:128|496:80|480:208,1,220,4|8
384,240,121773,1,0
480,304,121931,1,0
482,197,122089,1,0
384,352,122247,2,0,B|256:352,1,110,8|0
200,272,122563,6,0,B|272:256|264:184|176:184|176:120|248:96,1,220,0|8
288,28,123037,1,0
348,120,123194,1,0
176,32,123352,2,0,B|96:32|96:128,2,110,0|8|0
168,144,123826,6,0,B|200:232|32:208|72:356,1,220,4|8
160,320,124300,1,0
256,264,124458,1,0
352,320,124615,1,0
340,212,124773,2,0,B|404:112,1,110,8|0
256,28,125089,5,0
132,108,125300,1,0
256,188,125510,1,0
256,336,125721,1,12
352,112,126194,5,0
352,112,126273,1,0
352,112,126352,2,0,B|432:112|432:16,2,110,12|0|0
160,112,126826,2,0,B|80:112|80:16,2,110,12|0|0
352,256,127300,6,0,B|432:256|432:352,2,110,12|0|0
160,256,127773,2,0,B|80:256|80:352,2,110,12|0|0
432,48,128247,6,0,B|480:112|416:176,1,110,12|0
336,240,128563,2,0,B|288:304|352:352,1,110,12|0
256,48,128879,5,12
256,48,129037,2,0,B|256:160,1,110
96,48,129352,2,0,B|96:160,1,110,8|0
96,159,129668,1,0
96,288,129826,5,8
96,288,129984,2,0,B|208:336,1,110
416,288,130300,2,0,B|304:336,1,110,8|0
316,331,130615,1,0
256,256,130773,6,0,B|144:192|400:144|224:64,1,220,4|4
256,81,131247,1,0
416,80,131405,6,0,B|464:32,2,55
320,160,131721,1,0
192,112,131879,1,0
192,112,131958,1,0
192,112,132037,1,0
96,208,132194,1,0
224,288,132352,6,0,B|176:336,2,55
368,288,132668,1,0
448,192,132826,1,0
448,176,132905,1,0
448,160,132984,1,0
448,48,133142,1,0
336,48,133300,5,0
256,152,133458,1,0
176,48,133615,1,0
96,144,133773,6,0,B|240:192|-48:272|144:320,1,220,4|8
256,224,134247,1,8
416,144,134405,6,8,B|272:192|560:272|368:320,1,220,4|8
408,306,134879,1,8
256,320,135037,6,0,B|256:192|256:112|256:64,1,220,4|8
256,100,135510,1,8
154,60,135668,6,0,B|222:16|294:17|369:66,1,220,4|0
384,176,136142,1,0
368,192,136221,1,0
352,208,136300,1,0
336,224,136379,1,0
320,240,136458,5,4
396,316,136615,1,0
440,216,136773,2,0,B|464:152|416:104,1,110,8|0
208,68,137089,1,0
340,40,137247,1,0
260,180,137405,1,8
192,320,137563,5,0
100,240,137721,2,0,B|56:196|80:132,1,110
184,176,138037,1,8
240,272,138194,1,0
324,204,138352,2,0,B|424:124,1,110
424,256,138668,1,8
308,84,138826,1,0
196,44,138984,6,0,B|136:80|152:152,1,110,0|0
168,176,139221,1,0
192,212,139300,1,8
280,136,139458,1,0
308,168,139537,1,0
320,208,139615,1,0
320,252,139694,1,0
300,292,139773,1,0
164,348,139931,5,8
184,308,140010,1,0
212,272,140089,1,0
244,244,140168,1,0
280,220,140247,1,0
320,208,140326,1,0
364,204,140405,1,0
404,188,140484,1,0
428,152,140563,2,0,B|456:96,3,55,8|0|0|0
424,68,140879,5,0
384,48,140958,1,0
340,60,141037,1,0
312,92,141115,1,0
300,136,141194,1,8
304,180,141273,1,0
320,208,141352,1,0
380,316,141510,6,0,B|308:328|264:304|228:240|228:240|176:224,1,220,4|8
228,68,141984,1,0
72,120,142142,1,0
228,68,142300,1,0
196,228,142458,1,8
320,208,142615,6,0,B|272:144|188:140|188:140|128:176,1,220
24,304,143089,1,8
24,304,143247,1,0
240,344,143405,1,0
240,344,143563,1,0
160,140,143721,1,8
160,140,143879,1,0
332,192,144037,6,0,B|328:256|268:276,1,110
76,116,144352,2,0,B|80:56|144:40,1,110,8|0
308,36,144668,1,0
308,36,144826,1,0
200,100,144984,5,8
160,228,145142,2,0,B|252:228|304:172|304:172|320:100,1,220,4|0
316,112,145615,1,8
380,300,145773,2,0,B|292:288|288:216|288:216|216:164,1,220,4|0
56,116,146247,1,0
132,184,146405,1,0
60,256,146563,5,4
128,336,146721,2,0,B|192:336|192:256,1,110,0|8
128,88,147036,1,0
172,88,147115,1,0
216,88,147194,2,0,B|276:104|300:152,1,110
320,308,147510,1,8
464,280,147668,5,0
464,236,147747,1,0
464,192,147826,2,0,B|464:96|368:96,1,110
320,160,148142,1,8
180,188,148300,1,0
196,60,148458,5,0
240,60,148537,1,0
276,84,148615,1,0
304,120,148694,1,0
320,160,148773,1,8
332,200,148852,1,0
324,244,148931,1,0
300,280,149010,1,0
260,316,149089,2,0,B|208:332,3,55,0|0|0|0
168,312,149405,5,8
152,272,149484,1,0
152,228,149563,1,0
180,192,149642,1,0
224,168,149721,1,0
272,160,149800,1,0
320,160,149879,1,0
360,176,149958,1,0
396,200,150037,1,8
416,320,150194,6,0,B|528:288|432:208|480:112,1,220,4|0
448,24,150668,1,8
336,32,150826,2,0,B|272:128|224:16|112:32,1,220,4|0
137,30,151300,1,8
48,136,151457,5,0
48,180,151536,1,0
48,224,151615,2,0,B|48:304|112:320,1,110,4|0
192,192,151931,1,8
288,320,152089,1,0
388,192,152247,2,0,B|456:192|456:112,2,110,0|0|8
344,32,152721,5,0
300,32,152800,1,0
256,32,152879,2,0,B|160:32|192:144,1,110
64,48,153194,1,8
112,192,153352,1,0
72,336,153510,2,0,B|128:312|180:340,1,110
224,340,153747,1,0
268,340,153826,2,0,B|324:372|372:340,1,110,8|0
208,48,154142,6,0,B|272:16|336:72,1,110
96,144,154458,1,8
128,288,154615,1,0
256,192,154773,1,0
384,72,154931,1,0
408,108,155010,1,0
428,148,155089,2,0,B|460:196|436:260,1,110,8|0
304,352,155405,6,0,B|248:328|248:328|216:276,1,115.499999655783,8|8
48,224,155721,2,8,B|64:160|64:160|108:124,1,120.999996393919
224,32,156037,6,0,B|284:60|284:60|304:116,1,126.500004146993
480,160,156352,2,0,B|468:228|468:228|416:264,1,132.000003147125
208,352,156668,6,4,B|136:352|136:352|88:308,1,137.49999795109,4|0
196,224,156984,1,8
162,78,157142,2,0,B|128:32|128:32|48:32,1,137.49999795109
56,164,157458,1,0
384,144,157615,6,0,B|316:144|316:144|264:68,1,137.49999795109,8|0
408,40,157931,1,0
448,244,158089,2,0,B|376:244|376:244|340:304,1,137.49999795109,0|8
464,364,158405,1,0
316,192,158563,6,0,B|236:80,1,137.49999795109
192,192,158879,2,0,B|276:304,1,137.49999795109,8|0
464,96,159194,6,0,B|448:20|360:24,1,137.49999795109,0|0
256,116,159510,1,8
148,32,159668,2,0,B|64:28|48:108,1,137.49999795109
168,156,159984,1,0
380,128,160142,6,0,B|372:220|284:212,1,137.49999795109,8|0
168,156,160458,1,0
80,260,160615,2,0,B|96:344|184:332,1,137.49999795109,0|8
304,332,160931,1,0
304,140,161089,5,0
400,236,161247,1,0
488,136,161405,1,8
400,40,161563,1,0
100,180,161721,6,0,B|180:168|212:244,1,137.49999795109,4|0
304,140,162037,1,8
400,236,162194,2,0,B|340:292|272:240,1,137.49999795109
136,240,162510,1,0
80,116,162668,6,0,B|4:148|16:232,1,137.49999795109,8|0
72,352,162984,1,0
200,300,163142,2,0,B|252:248|252:248|252:180,1,137.49999795109,0|8
156,84,163458,1,0
424,40,163615,5,0
392,176,163773,1,0
288,88,163931,1,8
392,176,164089,1,0
392,300,164247,6,4,B|336:356|260:304,1,137.49999795109,4|0
196,192,164563,1,8
220,56,164721,2,0,B|140:24|96:104,1,137.49999795109
56,224,165037,1,0
188,256,165194,1,8
88,352,165352,1,0
328,52,165510,6,0,B|420:76|432:180,1,164.999995082617,4|0
312,304,165826,2,0,B|228:272|212:180,1,164.999995082617,12|0
376,212,166142,1,4
252,104,166300,1,0
188,256,166458,1,8
44,176,166615,1,0
56,48,166773,6,0,B|124:92|184:48,1,137.49999795109,4|0
224,180,167089,1,8
260,296,167247,2,0,B|396:296,1,137.49999795109
397,296,167563,1,0
325,50,167721,6,0,B|364:116|320:180,1,137.49999795109,8|0
200,108,168037,1,0
72,152,168194,2,0,B|0:196|20:284,1,137.49999795109,0|8
156,252,168510,1,0
384,76,168668,6,0,B|284:168,1,137.49999795109
284,308,168984,2,0,B|384:216,1,137.49999795109,8|0
32,320,169300,6,0,B|32:248|32:248|72:196,1,137.49999795109,4|0
192,216,169615,1,8
256,96,169773,2,0,B|184:96|184:96|136:48,1,137.49999795109
4,80,170089,1,0
108,168,170247,6,0,B|96:244|160:296,1,137.49999795109,8|0
384,256,170563,1,0
288,152,170721,1,0
480,152,170879,1,8
384,56,171037,1,0
248,256,171194,6,0,B|216:324|216:324|164:358,1,137.49999795109,0|0
248,256,171509,1,12
340,360,171667,1,0
204,156,171826,6,0,B|272:188|340:156,1,137.49999795109,4|0
260,40,172142,1,8
132,92,172300,2,0,B|76:152|124:216,1,137.49999795109
184,340,172615,1,0
312,288,172773,6,0,B|368:228|320:164,1,137.49999795109,8|0
440,96,173089,1,0
320,164,173247,1,0
200,96,173405,1,8
80,164,173563,1,0
316,24,173721,6,0,B|252:152,1,137.49999795109
252,284,174037,2,0,B|116:284,1,137.49999795109,12|0
48,164,174352,5,4
64,128,174431,1,0
80,96,174510,1,0
204,36,174668,1,8
260,176,174826,2,0,B|260:248,2,68.7499989755452,8|8|8
304,36,175142,1,8
432,96,175300,1,0
448,128,175379,1,0
464,164,175458,1,4
460,296,175615,6,0,B|396:260|328:300,1,137.49999795109,8|0
56,296,175931,2,0,B|120:332|188:300,1,137.49999795109,8|0
256,220,176247,5,0
144,144,176405,1,0
368,144,176563,1,8
368,144,176721,1,8
256,60,176879,1,4
192,208,186984,5,4
128,128,187142,1,0
192,48,187300,1,8
256,128,187458,2,0,B|288:240|384:0|432:128,1,220,0|0
432,208,187931,1,8
300,308,188089,5,0
256,148,188247,2,0,B|212:88|212:88|172:88,1,110
108,300,188563,1,8
308,224,188721,1,0
200,232,188879,2,0,B|144:192|88:208|88:208|48:164|72:104,1,220,0|8
192,64,189352,5,0
224,48,189431,1,0
256,32,189510,1,4
352,96,189668,1,0
448,160,189826,1,8
352,96,189984,2,8,B|320:128|320:128|340:188|320:256|320:256|288:288,1,220,0|0
192,288,190458,5,8
96,336,190615,2,0,B|56:280|104:224,2,110
192,288,191089,1,8
192,192,191247,2,0,B|196:157|156:140|156:140|108:156|64:144|64:144|35:122|32:80,1,220
128,48,191721,1,8
348,56,191879,5,0
348,56,191958,1,0
348,56,192037,1,4
284,144,192194,1,0
176,120,192352,1,8
96,196,192510,2,0,B|68:244|120:308|120:308|148:328|220:288,1,220
308,240,192984,1,8
424,120,193142,5,0
448,300,193300,2,0,B|424:300|424:300|384:348|384:348|344:348,1,110
144,304,193615,2,0,B|160:320|160:320|224:288|224:288|256:304,1,110,8|0
48,240,193931,2,0,B|144:208|0:80|144:48,1,220,0|8
256,96,194406,5,0
272,80,194484,1,0
288,64,194563,2,0,B|352:16|416:48,1,110,12|0
416,208,194879,2,0,B|368:160|288:144,1,110,8|0
288,336,195194,2,0,B|336:288|416:272,1,110,8|0
176,336,195510,5,0
160,336,195589,1,0
144,336,195668,1,0
128,336,195747,1,0
112,336,195826,2,0,B|108:332|108:332|112:328|112:328|104:324|104:324|112:320|112:320|108:316|108:316|64:272|64:272|68:264|68:264|60:260|60:260|68:256|68:256|60:252|60:252|68:248|68:248|60:244|60:244|72:204|72:204|76:196|76:196|80:196|80:196|84:196|84:196|88:196|88:196|88:188|88:188|88:184,1,220,0|8
88,188,196300,1,0
256,128,196458,6,8,B|240:52,2,73.3333333333333
384,176,196773,2,0,B|448:132,2,73.3333333333333,0|0|0
280,256,197089,1,4
256,192,197168,12,0,198747
128,176,198825,5,0
128,176,198904,1,0
128,176,198983,1,0
256,304,199194,1,0
256,48,199404,1,0
384,176,199615,1,4
96,288,200088,6,4,B|176:352|176:160|256:192|256:192|336:96,1,330
64,112,200878,5,0
96,96,200957,1,0
128,80,201036,1,0
160,64,201115,1,0
192,64,201194,2,0,B|256:64|256:64|320:96|320:96|368:96,1,165,8|8
376,96,201509,1,8
464,176,201667,6,0,B|432:224|432:224|432:320|432:320|364:360,1,220,4|0
160,352,202141,6,4,B|32:336|48:192,1,220,4|8
128,144,202615,1,0
128,32,202773,1,0
224,96,202930,2,0,B|272:144|224:208,1,110,0|8
352,160,203246,1,0
304,32,203405,6,0,B|352:80|352:80|440:80|448:176,1,220,0|8
448,284,203879,2,0,B|416:380|288:156|236:280,1,220
320,352,204352,1,8
258,249,204510,1,0
192,352,204667,6,0,B|40:352|80:184,1,220,0|8
80,96,205142,2,0,B|148:128|160:192|160:192|256:192,1,220
224,64,205615,1,8
356,80,205773,1,0
452,172,205930,5,0
304,240,206088,1,0
432,344,206246,1,12
144,180,206562,5,0
100,340,206720,1,0
144,180,206878,1,12
304,240,207037,1,0
160,48,207194,6,0,B|240:-32|297:126|368:16,1,220,4|8
392,128,207667,1,0
468,48,207825,1,0
392,128,207983,1,0
288,144,208141,2,0,B|292:252|344:240|392:208|424:256|416:320,1,220,8|0
180,348,208615,5,0
344,348,208773,1,8
256,284,208930,2,0,B|240:172|112:364|128:140,1,220
32,224,209404,5,8
32,80,209562,1,0
176,32,209720,2,0,B|240:128|320:32|320:32|368:48,1,220,0|8
480,112,210194,2,0,B|400:192|480:272|480:272|448:336,1,220
352,352,210667,5,8
272,240,210825,1,0
192,352,210983,2,0,B|160:288|48:352|48:352|0:304,1,220,0|8
112,192,211457,2,0,B|144:192|144:192|176:160|176:160|176:112,2,110
256,64,211930,1,8
480,32,212246,6,0,B|368:0|416:176|304:144,1,220,4|8
32,352,212720,2,0,B|144:384|96:208|208:240,1,220,0|0
256,328,213194,1,8
256,328,213351,1,0
480,352,213509,6,0,B|400:320|400:320|416:240|320:240,1,220,0|8
224,176,213983,2,0,B|192:144|192:144|240:96|192:32|192:32|128:32,1,220
48,176,214457,1,8
128,288,214615,5,0
144,304,214694,1,0
160,320,214773,2,0,B|224:352|256:272|256:272|336:272|336:336|336:336|336:336,1,220,0|8
464,128,215246,2,0,B|416:192|416:192|336:128|256:144,1,220
256,32,215720,5,8
192,192,215878,1,0
112,48,216036,1,0
192,192,216194,2,0,B|176:208|176:208|176:272|176:272|144:304,1,110,0|8
368,256,216509,2,0,B|384:272|384:272|448:272|448:272|480:304,2,110
256,336,216983,1,8
372,96,217141,5,8
360,116,217220,1,8
348,136,217300,2,0,B|312:188|232:164|232:164|180:152|148:240,1,220,4|8
288,240,217773,1,0
184,96,217930,1,0
88,240,218089,2,0,B|32:256|4:312,2,110,0|8|0
216,344,218562,5,0
380,344,218720,1,0
380,344,218799,1,0
380,344,218878,1,8
276,216,219036,1,0
420,216,219194,2,0,B|448:164|448:164|448:112,1,110
308,52,219509,1,8
88,44,219667,5,0
108,64,219746,1,0
128,80,219825,2,0,B|160:128|192:64|224:144,1,110,12|0
144,208,220141,1,0
144,208,220299,2,0,B|168:240|60:256|172:336,1,110,12|0
368,336,220615,1,0
272,204,220773,1,8
456,64,220930,5,8
428,64,221009,1,8
400,64,221088,2,0,B|336:64|336:64|256:160|176:32|176:32|32:144,1,440,4|8
144,240,221878,1,8
240,344,222036,1,0
296,208,222194,1,0
352,96,222351,6,0,B|384:96|384:96|448:160|368:224|368:224|416:272,1,220,4|8
160,96,222825,2,8,B|128:96|128:96|64:160|144:224|144:224|96:272,1,220,0|0
256,192,223299,1,8
256,192,223457,1,0
304,336,223615,6,4,B|352:304|352:304|368:208|368:208|432:160,1,220,4|8
224,48,224088,2,0,B|176:80|176:80|160:176|160:176|96:224,1,220,0|0
320,128,224562,1,8
192,256,224720,1,0
32,32,224878,6,4,B|32:144|160:64|184:164,1,220,4|8
256,48,225351,1,0
336,160,225509,2,0,B|392:136|412:76,2,110,0|0|8
448,240,225983,1,0
344,320,226141,5,0
300,320,226220,1,0
256,320,226299,1,0
212,320,226378,1,0
168,320,226457,1,12
352,48,226773,6,8,B|416:80|416:144,1,110
144,48,227088,2,8,B|80:64|80:144,1,110
256,160,227404,5,4
208,260,227563,2,0,B|256:296|312:260,1,110
484,100,227879,2,0,B|416:187,2,110
88,196,228352,6,0,B|20:283,2,110
256,336,228826,1,0
308,236,228984,2,0,B|256:200|204:236,1,110
152,160,229300,6,0,B|256:80|372:176,1,220,4|4
120,100,229931,6,0,B|92:52|92:52|24:32,2,110
400,216,230405,2,0,B|425:269|425:269|477:289,2,110
144,208,230879,6,0,B|92:312,2,110
368,176,231352,2,0,B|420:72,2,110
184,160,231826,5,0
160,196,231905,1,0
152,236,231984,1,0
168,272,232063,1,0
200,296,232142,1,0
244,308,232221,1,0
288,308,232300,1,0
328,288,232379,1,0
360,256,232458,6,0,B|408:224|476:256,2,110,4|0|0
400,64,232931,5,4
400,64,233089,1,0
400,64,233247,1,0
184,108,233405,5,4
184,108,233563,1,0
184,108,233721,1,0
64,336,233879,5,8
180,220,234037,1,0
336,304,234194,6,0,B|368:348,3,36.6666666666667,8|8|8|8
256,192,234510,1,0
368,112,234668,1,0
256,48,234826,2,0,B|192:-48|144:176|32:16,1,220,4|0
64,188,235300,5,8
96,216,235379,1,8
132,244,235458,1,8
256,192,235615,1,0
416,264,235774,1,0
276,348,235931,1,0
416,264,236089,6,0,B|480:216|480:216|480:40,1,220,4|0
352,152,236563,1,8
288,32,236721,2,0,B|224:80|224:80|224:224,1,220,4|0
48,48,237195,2,0,B|96:96|144:48,1,110,8|0
104,184,237510,5,4
64,296,237668,2,0,B|96:344|96:344|176:344,1,110,0|8
216,248,237984,1,0
272,144,238142,2,0,B|320:144|320:144|368:192,1,110
460,240,238458,5,8
332,292,238616,2,0,B|368:340|368:340|432:340,1,110,0|0
200,336,238931,1,0
300,204,239089,1,8
144,144,239247,1,0
48,336,239405,6,0,B|48:288|48:288|96:224,1,110
133,42,239721,2,0,B|160:96|160:96|144:144,1,110,8|0
416,48,240037,6,0,B|368:64|368:64|352:128,1,110,4|0
464,176,240352,1,8
376,248,240510,2,0,B|344:296|344:296|280:296,1,110
256,192,240826,1,0
200,96,240984,6,0,B|152:96|152:96|104:192,1,110,8|0
256,192,241300,1,0
212,352,241458,1,0
104,228,241615,1,8
256,192,241773,1,0
336,288,241931,6,0,B|400:320|400:320|448:288,1,110
432,96,242247,2,0,B|368:64|368:64|320:80,1,110,8|0
256,192,242563,5,4
192,96,242721,2,0,B|160:64|160:64|64:64,1,110,0|8
128,192,243037,1,0
80,288,243195,2,0,B|112:320|112:320|192:320,1,110
320,320,243510,5,8
200,224,243668,1,0
416,224,243826,1,0
292,116,243984,1,0
320,320,244142,2,0,B|320:256|320:256|296:216,1,110,8|0
224,48,244458,5,0
444,48,244616,1,0
424,88,244695,1,0
404,128,244774,1,0
236,148,244931,2,0,B|200:220|116:204|116:204|56:148,1,220,4|0
40,284,245405,6,0,B|72:332|72:332|136:332,1,110,8|0
256,332,245721,1,0
336,132,245879,1,0
184,192,246037,1,8
312,236,246194,6,0,B|380:256|412:212|412:212|420:160|476:116,1,220
336,132,246668,1,8
256,28,246826,1,0
144,112,246984,2,0,B|88:72,2,55
144,244,247300,1,0
144,244,247379,1,0
144,244,247458,1,0
288,336,247616,5,4
368,240,247774,2,0,B|336:192|368:128,1,110,0|8
448,48,248089,1,0
288,48,248247,1,0
192,144,248405,6,0,B|224:192|192:256,2,110,0|8|0
48,80,248879,1,0
48,272,249037,1,0
128,176,249195,2,0,B|160:192|160:192|208:192|208:192|240:208,1,110,8|0
416,48,249510,6,0,B|376:92|376:92|376:152,1,110,4|0
398,337,249826,2,0,B|432:300|432:300|432:240,1,110,12|0
256,176,250142,6,4,B|224:144|224:144|224:80,1,110,4|0
96,48,250458,1,8
48,192,250616,2,0,B|96:192|96:192|144:240,1,110
224,320,250931,1,0
336,240,251089,5,8
256,112,251247,1,0
416,112,251405,2,0,B|432:144|432:144|384:176|448:240,1,110,12|0
256,112,251721,1,12
112,192,251879,5,0
112,192,251958,1,0
112,192,252037,1,8
32,272,252195,1,8
112,352,252352,1,8
192,272,252510,1,8
336,352,252668,5,4
416,272,252826,1,0
496,352,252984,1,8
416,272,253142,1,0
496,192,253300,1,0
416,96,253458,1,0
336,192,253616,5,8
336,16,253774,1,0
256,96,253931,1,0
128,64,254089,1,0
192,192,254247,1,8
60,184,254405,1,0
88,320,254563,6,0,B|104:352|104:352|184:352,1,110,4|0
260,264,254879,2,0,B|288:240|288:240|288:160,1,110,12|0
416,120,255195,5,4
388,96,255274,1,0
352,84,255352,1,0
312,80,255431,1,0
272,84,255510,1,0
128,32,255668,5,4
128,64,255747,1,0
128,96,255826,1,0
128,128,255905,1,0
128,160,255984,1,0
96,264,256142,5,4
124,288,256221,1,0
160,300,256299,1,0
200,304,256378,1,0
240,300,256457,1,0
384,352,256616,5,4
384,320,256695,1,0
384,288,256774,1,0
384,256,256852,1,0
384,224,256931,1,0
256,192,257089,5,4
256,192,257405,1,4
