osu file format v9

[General]
AudioFilename: Demetori - Satori ~ 3rd eyes ~.mp3
AudioLeadIn: 0
PreviewTime: 35488
Countdown: 0
SampleSet: Soft
StackLeniency: 0.7
Mode: 0
LetterboxInBreaks: 1

[Editor]
Bookmarks: 10225
DistanceSpacing: 1
BeatDivisor: 4
GridSize: 4

[Metadata]
Title:Satori Maiden ~ Innumerable Eyes
Artist:Demetori
Creator:pieguy1372
Version:Hard
Source:Touhou
Tags:komeiji subterranean animism leyko zsr123 th11 manenjushaka nada upasana pundarika zun 3rd eye

[Difficulty]
HPDrainRate:5
CircleSize:4
OverallDifficulty:6
ApproachRate:8
SliderMultiplier:1.7
SliderTickRate:1

[Events]
//Background and Video events
0,0,"^o^.jpg"
//Break Periods
2,58431,65060
2,88747,95376
2,136747,145902
2,159483,166112
//Storyboard Layer 0 (Background)
//Storyboard Layer 1 (Fail)
//Storyboard Layer 2 (Pass)
//Storyboard Layer 3 (Foreground)
//Storyboard Sound Samples
//Background Colour Transformations
3,100,163,162,255

[TimingPoints]
126,315.789473684211,4,1,1,90,1,0
33599,-100,4,1,1,100,0,0
35494,-100,4,1,1,90,0,1
55704,-100,4,1,1,90,0,0
65810,-100,4,1,1,90,0,1
86020,-100,4,1,1,90,0,0
125810,-200,4,2,1,100,0,0
126441,-100,4,1,1,90,0,0
128652,-100,4,2,1,5,0,0
128731,-100,4,1,1,90,0,0
176968,-100,4,1,1,90,0,1
197178,-100,4,1,1,90,0,0
199073,-100,4,2,1,5,0,0

[Colours]
Combo1 : 255,255,0
Combo2 : 0,255,255
Combo3 : 128,0,245
Combo4 : 255,0,0

[HitObjects]
80,128,10231,2,0,B|144:64|240:96,1,170,4|8
216,176,10704,2,0,B|309:207|373:143,1,170,0|0
440,88,11178,2,0,B|440:264,1,170,8|0
360,280,11652,2,0,B|328:312|352:360,2,85,0|8|0
288,232,12126,1,0
160,120,12441,1,8
108,280,12757,6,0,B|196:264|232:160,1,170,0|8
252,88,13231,2,0,B|340:104|376:208,1,170
400,276,13704,2,0,B|320:340|232:288,1,170,8|0
164,256,14178,2,0,B|120:240|72:276,2,85,0|8|0
224,196,14652,1,0
112,68,14968,1,8
280,40,15283,6,0,B|364:64|404:148,1,170,0|8
404,235,15757,2,0,B|364:320|280:344,1,170
200,312,16231,2,0,B|112:272,2,85,8|0|0
196,228,16704,2,0,B|108:188,2,85,0|8|0
224,148,17178,5,0
268,76,17336,1,0
340,120,17494,1,8
296,192,17652,1,0
168,304,17968,5,0
168,304,18126,1,8
336,304,18441,1,0
336,304,18599,1,0
456,184,18915,2,0,B|388:136|328:196|280:152,1,170
272,76,19389,1,8
200,120,19547,2,0,B|132:168|72:108|24:152,1,170
35,143,20020,1,8
120,292,20336,6,0,B|188:368|280:336,1,170,4|8
336,280,20810,2,0,B|268:204|176:236,1,170,0|0
120,176,21283,2,0,B|120:88,1,85,8|0
200,124,21599,2,0,B|200:36,2,85,0|0|8
268,172,22073,1,0
268,172,22231,1,0
416,88,22547,1,8
440,252,22862,6,0,B|384:328|284:288,1,170,0|8
216,244,23336,2,0,B|140:188|180:88,1,170
248,40,23810,1,8
332,40,23968,1,0
404,84,24126,2,0,B|472:148,2,85,0|0|8
352,152,24599,1,0
276,112,24757,2,0,B|244:192,1,85
168,152,25073,2,0,B|136:232,1,85,8|0
72,288,25389,6,0,B|116:332|184:324|216:264,1,170,0|8
272,204,25862,2,0,B|316:160|384:168|416:228,1,170
488,272,26336,2,0,B|488:92,1,170,8|0
420,48,26810,1,0
340,72,26968,2,0,B|252:72,1,85,8|0
188,124,27283,5,0
256,176,27441,1,0
324,124,27599,1,8
256,72,27757,1,0
96,124,28073,5,0
96,124,28231,2,0,B|48:200|100:284,2,170,8|0|8
220,240,29178,5,0
220,240,29336,1,0
296,280,29494,1,8
296,280,29652,1,0
376,248,29810,1,0
376,248,29968,1,0
404,168,30126,1,8
404,168,30283,1,0
344,108,30441,5,4
344,108,30599,2,0,B|408:44,2,85
168,108,31231,2,0,B|104:44,2,85
168,276,31862,6,0,B|104:340,2,85
344,276,32494,2,0,B|408:340,2,85
332,104,33126,5,0
256,68,33283,1,0
180,104,33441,1,0
148,280,33757,5,0
256,332,33914,1,0
364,280,34072,1,4
152,168,35494,6,0,B|72:200|72:200|40:288,1,170,4|8
128,264,35968,2,0,B|208:232|208:232|240:144,1,170
296,216,36441,1,10
372,180,36599,1,2
416,108,36757,6,0,B|344:48|252:48,1,170,2|10
184,88,37231,1,2
152,168,37389,2,0,B|172:256|256:312,2,170,2|8|0
72,136,38178,5,0
104,56,38336,1,8
184,88,38494,2,0,B|364:88,2,170
152,168,39283,6,0,B|116:248|176:328,1,170,0|8
260,312,39757,2,0,B|296:232|236:152,1,170
284,80,40231,1,8
364,48,40389,1,0
444,80,40547,6,0,B|444:168|444:168|384:240,1,170,4|8
340,164,41020,2,0,B|287:226|287:226|287:314,1,170
200,316,41494,1,8
132,264,41652,1,0
100,184,41810,6,2,B|72:152|88:104,1,85
156,52,42126,2,0,B|184:84|168:132,1,85,10|0
212,204,42441,2,0,B|292:256|372:204,1,170,2|8
448,52,43073,5,0
364,68,43231,1,0
312,136,43389,1,8
232,168,43547,2,0,B|152:220|72:168,2,170
268,244,44336,6,0,B|348:192|428:244,2,170,0|8|0
120,324,45283,1,8
64,260,45441,1,0
64,176,45599,6,0,B|64:92|64:92|152:32,1,170,4|8
212,84,46073,2,0,B|212:168|212:168|124:228,1,170,0|0
200,280,46547,1,10
284,280,46704,1,2
364,252,46862,6,0,B|440:200|416:96,1,170,2|10
340,64,47336,1,2
256,64,47494,2,0,B|180:116|204:220,1,170,2|8
64,312,48126,5,0
148,332,48283,2,0,B|236:332,1,85,0|8
316,308,48599,2,0,B|400:280|420:176,1,170
380,108,49073,1,8
304,68,49231,1,0
220,68,49389,6,0,B|196:132|124:152|76:108,1,170,0|8
136,48,49862,2,0,B|136:216,1,170
60,260,50336,1,8
136,300,50494,1,0
212,260,50652,6,0,B|288:220|288:220|372:244,1,170,4|8
440,288,51126,2,0,B|480:212|480:212|456:128,1,170,0|0
400,68,51599,1,8
316,48,51757,1,0
232,60,51915,6,2,B|140:60,1,85
16,136,52231,2,0,B|101:136,1,85,10|0
236,216,52547,2,0,B|64:216,1,170,2|8
332,20,53178,6,0,B|332:108,1,85,2|0
180,192,53494,2,0,B|180:104,1,85,10|0
332,192,53810,2,0,B|332:280,1,85,2|0
180,364,54126,2,0,B|180:320,2,42.5,2|0|0
96,300,54441,6,0,B|104:216|192:168,1,170,2|8
272,192,54915,2,0,B|360:144|368:60,1,170,2|0
288,32,55389,2,0,B|240:32,2,42.5,10|0|0
256,192,55704,12,4,58231
164,192,65810,6,0,B|192:108|288:68,1,170,4|8
340,132,66283,2,0,B|312:216|216:256,1,170,0|0
144,276,66757,1,10
164,192,66915,1,2
228,252,67073,6,0,B|296:324|388:300,1,170,2|10
432,232,67547,1,2
436,148,67704,2,0,B|368:76|276:100,1,170,2|8
112,72,68336,5,0
72,148,68494,1,0
72,232,68652,1,8
112,308,68810,2,0,B|192:352|276:308,1,170
348,264,69283,1,8
348,264,69441,1,0
408,204,69599,6,0,B|436:120|348:56,1,170,0|8
290,117,70073,2,0,B|262:201|348:264,1,170,0|0
280,316,70547,1,8
212,264,70704,1,0
144,316,70862,6,0,B|84:264|84:264|84:168,1,170,4|8
152,120,71336,2,0,B|212:172|212:172|212:268,1,170,0|0
292,228,71810,2,0,B|380:228,1,85,8|0
456,192,72126,5,2
416,116,72283,1,2
340,156,72441,1,10
300,80,72598,1,0
220,112,72757,2,0,B|152:168|60:124,1,170,2|8
124,284,73389,5,0
68,220,73547,1,0
40,300,73704,1,8
124,284,73862,2,0,B|192:228|284:272,1,170
283,271,74336,1,8
444,220,74652,6,0,B|492:140|444:56,2,170,0|8|0
360,240,75441,1,0
360,240,75520,1,0
360,240,75599,2,0,B|328:208|332:152,1,85,8|0
328,76,75915,6,0,B|264:72|252:152|176:140,1,170,4|8
100,104,76389,2,0,B|100:280,1,170
164,332,76862,1,10
228,276,77020,1,2
296,328,77178,6,0,B|384:312|384:312|432:240,1,170,2|10
436,160,77652,1,2
368,112,77810,2,0,B|280:128|280:128|232:200,2,170,2|8|0
316,44,78599,5,0
232,44,78757,1,8
152,68,78915,2,0,B|76:120|68:220,1,170
108,288,79389,1,8
108,288,79547,1,0
192,308,79704,6,0,B|268:256|276:156,1,170,0|8
252,84,80178,2,0,B|240:40,2,42.5,0|0|2
336,100,80494,2,0,B|380:68,2,42.5,0|0|10
396,260,80968,6,0,B|316:296|316:296|240:236,1,170,4|8
184,192,81441,1,0
184,192,81520,1,0
184,192,81599,2,0,B|56:192,2,127.5
228,116,82231,6,2,B|276:44,1,85
324,116,82547,2,0,B|412:116,1,85,10|0
368,192,82862,2,0,B|416:264|416:264|372:336,1,170,2|8
156,336,83494,6,0,B|116:324|84:292,1,85,2|0
172,220,83810,2,0,B|136:192|124:148,1,85,10|0
236,132,84126,2,0,B|216:92|228:48,1,85,2|0
332,80,84441,2,0,B|380:80,2,42.5,10|0|0
396,192,84757,6,0,B|384:288|300:324,1,170,2|8
212,324,85231,2,0,B|128:288|116:192,1,170,2|0
156,120,85704,2,0,B|208:120,2,42.5,10|0|0
256,192,86020,12,4,88547
140,136,96126,6,0,B|92:136,2,42.5,4|0|0
208,88,96441,1,8
292,88,96599,2,0,B|380:88,1,85
452,132,96915,1,0
380,176,97073,2,0,B|288:176,1,85,8|0
210,177,97389,6,0,B|162:173|140:136,1,85
208,88,97704,2,0,B|256:92|280:132,1,85,8|0
316,208,98020,2,2,B|338:245|386:249,2,85,2|2|10
316,208,98494,1,2
252,264,98652,6,0,B|252:312,2,42.5
176,304,98968,1,8
96,272,99126,2,0,B|60:240|60:196,1,85
84,116,99441,1,0
152,64,99599,2,0,B|240:64,1,85,8|0
208,144,99915,6,0,B|312:144,1,85
264,224,100231,2,0,B|368:224,1,85,8|0
432,212,100547,1,2
380,144,100704,1,2
348,224,100862,1,10
316,304,101020,1,2
232,304,101178,6,0,B|188:304,2,42.5,4|0|0
196,224,101494,1,8
120,184,101652,2,0,B|72:168|64:116,1,85
148,104,101968,1,0
224,144,102126,2,0,B|312:144,1,85,8|0
324,60,102441,5,0
404,84,102599,1,0
464,144,102757,2,0,B|464:228,1,85,8|0
412,296,103073,2,2,B|376:324|328:312,2,85,2|2|10
380,216,103547,1,2
332,148,103704,6,0,B|368:116,2,42.5
212,116,104020,1,8
212,116,104178,1,0
180,236,104336,6,0,B|144:268,2,42.5
300,268,104652,1,8
300,268,104810,1,0
376,172,104968,6,0,B|448:128,2,85,0|0|8
256,144,105441,1,0
136,172,105599,2,0,B|64:128,2,85,0|0|8
256,144,106073,1,0
256,20,106231,6,0,B|344:0|416:56,1,170,4|8
464,128,106704,1,0
380,136,106862,2,0,B|332:212|388:304,1,170,0|8
312,344,107336,1,0
240,300,107494,6,0,B|288:224|232:132,2,170,0|8|0
68,300,108441,1,8
28,224,108599,1,0
52,144,108757,6,0,B|116:72|216:100,1,170,0|8
224,180,109231,2,0,B|314:205|378:133,1,170,0|0
432,72,109704,1,8
432,244,110020,6,0,B|368:300|368:300|272:300,1,170,0|8
116,272,110652,2,0,B|180:216|180:216|276:216,1,170,0|8
400,112,111283,6,0,B|324:156|280:72|228:100,1,170,4|8
156,68,111757,1,0
76,216,112073,1,0
76,216,112231,1,8
240,260,112547,6,0,B|332:236|356:144,1,170,0|8
408,80,113020,1,0
408,252,113336,1,0
408,252,113494,1,8
256,328,113810,5,2
152,136,114126,2,2,B|68:136,1,85,10|2
360,248,114599,2,2,B|444:248,1,85,2|10
256,56,115073,6,0,B|232:104|288:164|252:224,1,170,2|8
184,272,115547,1,0
108,232,115704,2,0,B|88:144|176:88,1,170,2|8
256,56,116178,1,0
336,88,116336,6,0,B|424:144|404:232,1,170,4|8
340,284,116810,1,0
256,296,116968,2,0,B|164:296,2,85,0|0|8
264,210,117441,1,0
232,132,117599,6,0,B|172:56|72:96,1,170,0|8
112,172,118073,2,0,B|172:248|272:208,1,170,0|0
320,144,118547,1,8
376,80,118704,1,0
452,120,118862,6,0,B|452:296,1,170,0|8
376,328,119336,2,0,B|376:152,1,170
376,158,119810,1,8
332,84,119968,1,0
252,56,120126,6,0,B|176:96|176:96|132:180,1,170,0|8
132,340,120757,2,0,B|208:300|208:300|252:216,1,170,0|8
344,84,121389,6,0,B|432:120|460:216,1,170,4|8
408,276,121862,2,0,B|320:240|292:144,1,170
256,80,122336,1,8
168,300,122652,6,0,B|80:264|52:168,1,170,0|8
104,108,123125,2,0,B|192:144|220:240,1,170
256,304,123599,1,8
440,192,123915,5,2
256,80,124231,1,10
256,80,124389,1,2
72,192,124704,1,2
72,192,124862,1,10
256,304,125178,5,2
288,196,125389,1,0
176,212,125599,1,0
256,304,125810,2,0,B|424:304,1,170,2|4
256,192,126520,12,0,128652
64,148,128968,6,0,B|212:68,1,170,0|8
300,68,129441,2,0,B|448:148,1,170
448,236,129915,2,0,B|300:316,1,170,8|0
212,316,130388,2,0,B|64:236,1,170
60,148,130862,5,2
172,20,131178,1,10
284,148,131494,6,0,B|312:180|364:172,1,85,4|0
361,172,131810,1,8
420,236,131968,2,0,B|392:268|340:260,1,85
342,260,132284,1,0
276,312,132441,6,0,B|248:280|196:288,1,85,8|0
198,287,132757,1,0
140,224,132915,2,0,B|168:192|220:200,1,85,0|8
217,199,133231,1,0
256,124,133389,5,2
300,48,133547,1,2
212,48,133704,1,10
256,124,133862,1,2
364,316,134178,6,0,B|452:316,1,85,0|8
449,316,134494,1,2
144,192,134810,6,0,B|56:192,1,85,0|8
59,192,135126,1,2
364,68,135441,6,0,B|452:68,1,85,0|8
449,68,135757,1,2
452,152,135915,6,0,B|508:152,2,56.6666666666667
412,192,136231,2,0,B|396:248,2,56.6666666666667,8|0|0
396,136,136547,1,4
108,120,146652,6,0,B|80:80|96:24,2,85,4|0|8
156,188,147126,2,0,B|128:228|144:284,2,85,0|0|0
192,112,147599,1,8
192,112,147757,1,0
268,72,147915,6,0,B|352:48,1,85
340,132,148231,2,0,B|424:144,1,85,8|0
380,216,148547,2,0,B|448:264,2,85,0|0|8
296,216,149020,1,0
220,256,149178,6,0,B|184:336,2,85,0|0|8
144,220,149652,2,0,B|60:176|96:72,1,170
168,28,150126,1,8
248,56,150283,6,2,B|332:100|296:204,1,170,2|2
248,272,150757,1,8
248,272,150915,2,2,B|416:272,1,170
448,192,151389,1,8
428,108,151547,1,0
352,68,151704,6,0,B|272:16|180:64,1,170,4|8
132,120,152178,2,0,B|212:172|304:124,1,170
376,148,152652,1,8
292,296,152968,6,0,B|212:328|212:328|116:268,1,170,0|8
80,224,153441,2,0,B|160:192|160:192|256:252,1,170
312,212,153915,1,8
188,92,154231,6,0,B|120:44,2,85,0|0|8
324,92,154704,2,0,B|392:44,2,85
256,200,155178,2,0,B|256:292,1,85,8|0
340,276,155494,5,0
380,192,155652,1,0
340,108,155810,1,8
256,68,155968,1,0
172,108,156126,1,0
132,192,156284,1,0
172,276,156442,1,8
256,316,156600,1,0
256,192,156757,12,4,159283
164,120,166862,6,0,B|124:144|80:120,2,85,4|0|8
248,116,167336,2,0,B|252:156|216:192,2,85
200,44,167810,2,0,B|236:12|296:40,2,85,8|0|0
248,116,168283,6,0,B|328:164|408:104,1,170
484,68,168757,1,0
440,232,169073,1,8
296,320,169389,6,0,B|208:320,2,85,0|0|8
256,244,169862,2,0,B|168:244,2,85,0|0|0
216,168,170336,2,0,B|128:168,2,85,8|0|0
176,92,170810,6,0,B|256:48|348:88,1,170
400,144,171283,2,0,B|444:224|404:316,1,170,0|8
407,307,171757,1,0
324,304,171915,6,0,B|288:324|240:304,1,85,4|0
241,304,172231,1,8
188,236,172389,2,0,B|152:256|104:236,1,85
105,236,172704,1,0
104,152,172862,2,0,B|140:132|188:152,1,85,8|0
186,151,173177,1,0
236,80,173336,6,0,B|272:60|320:80,1,85,0|8
318,79,173651,1,0
396,116,173810,2,0,B|448:200|376:292,1,170,0|8
256,192,174441,12,0,176652
116,140,176968,38,0,B|68:68,2,85,4|0|8
184,88,177441,2,0,B|232:156|232:156|328:156,1,170
376,92,177915,1,10
452,132,178073,1,2
424,212,178231,6,0,B|404:256|436:292,2,85,2|0|10
320,260,178704,1,2
216,216,178862,2,0,B|252:132|196:52,1,170,2|8
112,56,179336,1,0
96,140,179494,6,0,B|88:184|40:212,2,85,0|0|8
168,184,179968,2,0,B|200:244|260:256|316:212,2,170
248,156,180757,6,0,B|292:84|292:84|376:64,1,170,0|8
452,100,181231,2,0,B|452:280,1,170
396,336,181704,1,8
364,256,181862,1,0
312,324,182020,6,0,B|220:324,2,85,4|0|8
280,244,182494,2,0,B|228:176|228:176|136:176,1,170
64,208,182968,1,8
132,260,183126,1,0
144,176,183283,5,2
168,68,183441,1,2
268,40,183599,1,10
244,148,183757,1,0
344,120,183915,2,0,B|360:168|448:156|464:240,1,170,2|8
380,252,184389,1,0
300,228,184547,6,0,B|256:204|212:220,2,85,0|0|8
304,312,185020,2,0,B|228:356|136:300,2,170
380,252,185810,6,0,B|428:176|376:88,1,170,0|8
296,68,186283,2,0,B|248:144|300:232,1,170,0|0
216,248,186757,1,8
136,220,186915,1,0
80,156,187073,6,0,B|56:120|68:72,2,85,4|0|8
164,136,187547,2,0,B|216:152|256:80|336:92,1,170
416,196,188020,1,10
284,224,188178,1,2
324,92,188336,6,0,B|308:0,2,85,2|0|10
416,196,188810,1,2
284,224,188968,2,0,B|228:308|128:272,1,170,2|8
56,124,189599,5,0
112,60,189757,1,0
184,104,189915,1,8
256,56,190073,2,0,B|348:28|424:88,1,170
452,160,190547,1,8
452,160,190704,1,0
424,240,190862,6,0,B|352:296|264:232,1,170,0|8
236,316,191336,2,0,B|151:254|79:310,1,170,0|0
40,232,191810,1,8
40,148,191968,1,0
112,104,192126,6,0,B|112:16,2,85,4|0|8
160,176,192599,2,0,B|216:244|324:208,1,170
320,124,193073,1,8
320,124,193231,1,0
400,96,193389,5,2
500,152,193547,1,2
488,268,193704,1,10
376,304,193862,1,0
316,212,194020,2,0,B|112:212,1,170,2|8
260,84,194652,6,0,B|344:84,1,85,2|0
268,124,194968,2,0,B|184:124,1,85,10|0
292,60,195283,6,0,B|376:60,1,85,2|0
224,148,195599,2,0,B|140:148,1,85,10|0
88,216,195915,6,0,B|148:276|148:276|244:276,1,170,2|8
400,252,196389,2,0,B|340:192|340:192|244:192,1,170,2|0
256,108,196862,2,0,B|256:48,2,56.6666666666667,10|0|0
256,192,197178,12,0,199073
