osu file format v9

[General]
AudioFilename: Demetori - Satori ~ 3rd eyes ~.mp3
AudioLeadIn: 0
PreviewTime: 35488
Countdown: 0
SampleSet: Soft
StackLeniency: 0.7
Mode: 0
LetterboxInBreaks: 1

[Editor]
Bookmarks: 10225
DistanceSpacing: 0.99
BeatDivisor: 4
GridSize: 4

[Metadata]
Title:Satori Maiden ~ Innumerable Eyes
Artist:Demetori
Creator:pieguy1372
Version:Easy
Source:Touhou
Tags:komeiji subterranean animism leyko zsr123 th11 manenjushaka nada upasana pundarika zun 3rd eye

[Difficulty]
HPDrainRate:2
CircleSize:3
OverallDifficulty:2
ApproachRate:3
SliderMultiplier:1
SliderTickRate:1

[Events]
//Background and Video events
0,0,"^o^.jpg"
//Break Periods
2,58431,64370
2,88747,94686
2,136747,145212
2,159483,165422
//Storyboard Layer 0 (Background)
//Storyboard Layer 1 (Fail)
//Storyboard Layer 2 (Pass)
//Storyboard Layer 3 (Foreground)
//Storyboard Sound Samples
//Background Colour Transformations
3,100,163,162,255

[TimingPoints]
126,315.789473684211,4,1,1,90,1,0
33599,-100,4,1,1,100,0,0
34231,-100,4,1,1,90,0,0
35494,-100,4,1,1,90,0,1
55704,-100,4,1,1,90,0,0
65810,-100,4,1,1,90,0,1
86020,-100,4,1,1,90,0,0
125810,-100,4,2,1,100,0,0
126441,-100,4,1,1,90,0,0
128336,-100,4,2,1,5,0,0
128494,-100,4,1,1,90,0,0
176336,-100,4,2,1,5,0,0
176494,-100,4,1,1,90,0,0
176968,-100,4,1,1,90,0,1
197178,-100,4,1,1,90,0,0
199073,-100,4,2,1,5,0,0

[Colours]
Combo1 : 255,255,0
Combo2 : 0,255,255
Combo3 : 128,0,245
Combo4 : 255,0,0

[HitObjects]
160,80,10231,2,0,B|80:112|56:184,4,150,4|0|0|0|0
256,48,12441,1,0
352,80,12757,6,0,B|432:112|456:184,4,150
256,48,14968,1,0
256,144,15283,6,0,B|256:304,3,150
120,352,17178,2,0,B|16:240,1,150
120,128,18126,5,8
312,80,18757,1,0
424,248,19389,1,8
232,296,20020,1,0
160,224,20336,6,0,B|120:152|160:80,4,150,4|0|0|0|0
256,224,22547,1,0
352,224,22862,6,0,B|392:152|352:80,4,150
256,224,25073,1,0
184,296,25389,6,0,B|256:336|328:296,3,150
456,224,27283,2,0,B|456:72,1,150
304,56,28231,5,8
160,192,28862,1,0
256,192,29178,2,0,B|360:192,2,100
436,272,30441,6,0,B|388:340|304:312,1,150,4|0
208,312,31231,2,0,B|136:240,1,100
136,144,31862,2,0,B|208:72,1,100
304,72,32494,2,0,B|376:144,1,100
376,240,33126,2,0,B|304:312,1,100
256,224,33757,6,0,B|256:176,2,50,0|0|4
80,192,35494,5,4
256,104,36126,1,8
432,192,36757,2,2,B|328:192,2,100,2|2|10
256,280,38020,5,0
152,112,38652,1,8
336,48,39283,2,0,B|432:88|464:192,1,200,0|8
328,336,40547,5,4
136,288,41178,1,8
68,100,41810,2,2,B|100:56|160:56,2,100,2|2|10
264,140,43073,6,0,B|316:76|400:80,2,150
344,200,44336,2,0,B|320:304|208:352,1,200,0|8
88,192,45599,5,4
256,88,46231,1,8
424,192,46862,1,2
424,192,47178,1,2
424,192,47494,1,10
288,336,48126,6,0,B|176:352|112:264,1,200
84,68,49389,2,0,B|196:52|260:140,1,200,0|0
436,48,50652,5,4
456,244,51283,1,8
284,344,51915,1,2
188,316,52231,1,2
124,240,52547,1,10
224,68,53178,6,2,B|320:32,2,100
196,164,54126,1,2
256,244,54441,2,2,B|416:244,2,150,2|2|2
256,192,55704,12,4,58231
136,128,65810,5,4
328,80,66441,1,8
448,232,67073,1,2
256,280,67704,1,10
64,232,68336,6,0,B|80:160|160:104,2,150
128,304,69599,2,0,B|232:264|240:152,1,200,0|8
416,64,70862,5,4
472,256,71494,1,8
292,336,72126,2,2,B|188:336,2,100
252,140,73389,6,0,B|276:68|356:36,2,150
336,192,74652,2,0,B|384:216|416:272,2,100
208,344,75915,5,4
64,204,76547,1,8
192,52,77178,2,2,B|232:148,2,100,2|2|10
388,88,78441,6,0,B|468:120|496:204,2,150
352,180,79704,2,0,B|416:212|400:260|416:308|352:340,1,200,0|10
296,256,80652,1,2
200,256,80968,5,4
64,112,81599,1,8
256,56,82231,2,2,B|368:56,2,100,2|2|10
168,232,83494,5,2
256,184,83810,1,2
344,232,84126,1,10
256,280,84441,1,2
168,232,84757,2,2,B|104:176|132:92,2,150
256,192,86020,12,4,88547
256,192,96126,5,4
404,60,96757,2,0,B|488:128|452:240,1,200,8|0
272,324,98020,2,2,B|208:236,1,100,10|2
252,152,98652,5,0
64,88,99283,2,0,B|4:188|96:276,1,200,8|0
252,152,100547,2,2,B|352:100,1,100,10|2
428,60,101178,5,4
436,260,101810,2,0,B|348:340|248:280,1,200,8|0
76,188,103073,1,10
116,96,103389,1,2
204,52,103704,5,0
396,100,104336,1,8
360,296,104968,2,0,B|292:224,1,100
248,312,105599,2,0,B|180:240,1,100,8|0
124,156,106231,6,0,B|184:64|296:76,1,200,4|8
460,188,107494,2,0,B|400:280|288:268,1,200,0|8
88,264,108757,6,0,B|48:192|88:120,1,150
216,48,109704,1,0
316,48,110020,2,0,B|428:56|472:160,1,200
296,252,111283,6,0,B|336:316|416:348,2,150
232,172,112547,2,0,B|192:108|112:76,2,150,0|0|0
152,232,113810,5,2
268,72,114441,1,10
412,204,115073,2,2,B|360:304|248:296,1,200,2|10
64,220,116336,6,0,B|104:124,1,100,4|0
200,156,116968,2,0,B|240:60,1,100,8|0
336,60,117599,2,0,B|448:76|488:192,1,200
332,308,118862,6,0,B|180:308,2,150
384,224,120126,2,0,B|324:136|188:136|128:224,1,300
32,208,121389,6,0,B|8:128|72:72,2,150
128,224,122652,2,0,B|104:304|168:360,2,150,0|0|0
228,224,123915,5,2
372,184,124389,1,2
268,80,124862,1,2
288,164,125178,2,0,B|332:360,1,200,2|2
256,192,126441,12,0,128336
60,160,128968,38,0,B|180:72,1,150,4|0
332,72,129915,2,0,B|452:160,1,150
352,272,130862,1,2
256,304,131178,1,2
160,272,131494,6,0,B|92:140|92:140,1,150,4|0
240,152,132441,2,0,B|308:20|308:20,1,150,0|0
436,96,133389,6,2,B|496:148|504:228|504:228,1,150
328,308,134494,1,2
160,216,135126,1,2
344,136,135757,1,2
112,40,136547,5,4
256,192,146652,6,0,B|304:104,1,100,4|0
392,152,147283,2,0,B|344:240,1,100,8|0
256,192,147915,2,0,B|168:144,1,100,0|0
120,232,148547,2,0,B|207:279,1,100,8|0
296,328,149178,6,0,B|400:328,2,100,0|0|8
344,240,150126,1,0
440,212,150441,2,2,B|452:164|428:116,1,100
332,76,151073,2,2,B|280:92|256:136,1,100,2|2
176,192,151704,6,2,B|16:192,2,150
256,136,152968,2,2,B|232:92|232:92|280:84|280:84|256:40,2,150
336,192,154231,2,2,B|496:192,2,150
272,264,155494,5,2
184,224,155810,1,2
112,152,156125,1,2
88,56,156441,1,2
256,192,156757,12,4,159283
104,144,166862,6,0,B|144:72|232:40,1,150,6|0
344,120,167810,2,0,B|416:160|448:248,1,150,2|0
304,296,168757,1,2
208,296,169073,1,2
256,208,169389,5,6
120,144,169862,1,0
256,80,170336,1,2
392,144,170810,1,0
256,208,171283,2,2,B|256:312,1,100
352,336,171915,5,6
472,252,172389,1,0
456,104,172862,1,2
320,44,173336,1,0
200,132,173810,1,2
212,232,174125,1,2
256,192,174441,12,0,176336
176,192,176968,38,0,B|88:72,2,150,4|0|0
256,128,178231,1,2
336,192,178547,1,2
256,256,178862,1,10
64,224,179494,6,0,B|192:72,1,200,0|8
256,256,180757,2,0,B|384:104,1,200,0|8
192,72,182020,6,0,B|40:72,2,150,4|0|0
292,80,183283,1,2
376,132,183599,1,2
428,216,183915,1,10
244,292,184547,6,0,B|304:356|392:344,2,150
148,320,185810,2,0,B|56:256|88:144,1,200
272,72,187073,6,0,B|364:72|364:72|424:72,2,150,4|0|0
184,116,188336,1,2
148,208,188652,1,2
172,304,188968,1,10
368,324,189599,6,0,B|440:292|488:220,2,150
268,324,190862,2,0,B|220:308|188:268,2,100
428,208,192125,5,4
320,40,192757,1,8
128,92,193389,2,2,B|128:196,2,100
320,40,194652,5,2
268,124,194968,1,2
276,224,195283,1,10
224,308,195599,1,2
124,292,195915,2,2,B|76:244|116:188|180:212,2,150
256,192,197178,12,0,199073
