osu file format v14

[General]
AudioFilename: Fate of Sixty Years.mp3
AudioLeadIn: 0
PreviewTime: 307181
Countdown: 0
SampleSet: Soft
StackLeniency: 0.2
Mode: 0
LetterboxInBreaks: 0
WidescreenStoryboard: 1

[Editor]
Bookmarks: 49765,69573,404460,545822,576954,608859
DistanceSpacing: 1.5
BeatDivisor: 3
GridSize: 4
TimelineZoom: 1.6

[Metadata]
Title:Roku Juunenme No Touhou Saiban ~ Fate of Sixty Years
TitleUnicode:六十年目の東方裁判 ~ Fate of Sixty Years
Artist:Demetori
ArtistUnicode:Demetori
Creator:GoldenWolf
Version:Judgement
Source:東方
Tags:徳南 九宝時 UI-70 彼岸花葬 ~the view of spiral riverside~ Progressive Rock ZUN woof
BeatmapID:1102774
BeatmapSetID:519059

[Difficulty]
HPDrainRate:6
CircleSize:4.5
OverallDifficulty:8
ApproachRate:9
SliderMultiplier:1.4
SliderTickRate:1

[Events]
//Background and Video events
0,0,"orz163.jpg",0,0
//Break Periods
//Storyboard Layer 0 (Background)
//Storyboard Layer 1 (Fail)
//Storyboard Layer 2 (Pass)
//Storyboard Layer 3 (Foreground)
//Storyboard Sound Samples

[TimingPoints]
371,521.739130434783,6,2,15,5,1,0
631,500,6,2,15,10,1,0
881,468.75,6,2,15,15,1,0
1349,495.867768595041,6,2,15,20,1,0
1844,444.444444444444,6,2,15,25,1,0
2288,476.190476190476,6,2,15,30,1,0
3240,480,6,2,15,30,1,0
3720,468.75,6,2,15,30,1,0
6063,472.44094488189,6,2,15,30,1,0
7952,486.223662884927,6,2,15,30,1,0
8924,495.867768595041,6,2,15,30,1,0
9915,512.820512820513,6,2,15,30,1,0
10427,566.037735849057,6,2,15,25,1,0
10993,693.64161849711,6,2,15,20,1,0
11339,-100,6,2,15,15,0,0
11686,710.059171597633,6,2,15,10,1,0
12041,-100,6,2,15,5,0,0
12396,512.820512820513,6,2,15,10,1,0
12652,-100,6,2,15,15,0,0
12908,468.75,6,2,15,20,1,0
13376,-100,6,2,15,25,0,0
13845,481.154771451484,6,2,15,30,1,0
15288,475.059382422803,6,2,15,30,1,0
17188,487.80487804878,6,2,15,30,1,0
18163,465.116279069767,6,2,15,30,1,0
20023,472.44094488189,6,2,15,30,1,0
20967,486.223662884927,6,2,15,30,1,0
22425,480,6,2,15,30,1,0
22665,526.315789473684,6,2,15,30,1,0
22928,560.747663551402,6,2,15,30,1,0
23208,-100,6,2,15,20,0,0
23488,540.540540540541,6,2,15,15,1,0
23758,681.818181818182,6,2,15,10,1,0
24098,473.372781065089,6,2,15,15,1,0
24334,-100,6,2,15,20,0,0
24571,-100,6,2,15,25,0,0
24808,-100,6,2,15,30,0,0
25991,489.795918367347,6,2,15,30,1,0
26970,476.190476190476,6,2,15,30,1,0
28873,521.739130434783,6,2,15,30,1,0
29394,508.474576271186,6,2,15,25,1,0
29648,618.556701030928,6,2,15,20,1,0
29957,491.803278688525,6,2,15,25,1,0
30202,-100,6,2,15,30,0,0
30448,456.273764258555,6,2,15,30,1,0
31816,474.308300395257,6,2,15,30,1,0
32764,480,6,2,15,30,1,0
34204,487.80487804878,6,2,15,30,1,0
34447,-100,6,2,15,25,0,0
34691,-100,6,2,15,20,0,0
34935,517.241379310345,6,2,15,15,1,0
35193,-100,6,2,15,10,0,0
35452,612.244897959184,6,2,15,5,1,0
35758,480,6,2,15,15,1,0
35998,-100,6,2,15,25,0,0
36238,-100,6,2,15,30,0,0
38158,495.867768595041,6,2,15,30,1,0
38653,480,6,2,15,30,1,0
39373,545.454545454546,6,2,15,30,1,0
39645,535.714285714286,6,2,15,30,1,0
39912,571.428571428571,6,2,15,30,1,0
40197,555.555555555556,6,2,15,30,1,0
40474,689.655172413793,6,2,15,25,1,0
40818,750,6,2,15,20,1,0
41193,722.89156626506,6,2,15,15,1,0
41554,714.285714285714,6,2,15,5,1,0
41911,759.493670886076,6,2,15,5,1,0
42290,483.870967741935,6,2,15,15,1,0
42531,-100,6,2,15,25,0,0
42773,-100,6,2,15,30,0,0
44225,566.037735849057,6,2,15,25,1,0
44508,-100,6,2,15,20,0,0
44791,550.45871559633,6,2,15,15,1,0
45066,-100,6,2,15,10,0,0
45341,697.674418604651,6,2,15,15,1,0
45689,576.923076923077,6,2,15,20,1,0
45977,631.578947368421,6,2,15,25,1,0
46292,759.493670886076,6,2,15,20,1,0
46671,769.230769230769,6,2,15,15,1,0
47055,845.070422535211,6,2,15,10,1,0
47477,762.873490146217,6,2,15,5,1,0
47477,-200,6,2,15,5,0,0
52054,1025.64102564103,4,2,15,15,1,0
52054,-50,4,2,15,15,0,0
52280,960,4,2,15,15,1,0
52280,-50,4,2,15,15,0,0
52605,1023.45415778252,4,2,15,5,1,0
52605,-200,4,2,15,5,0,0
56698,960,4,2,15,15,1,0
56698,-50,4,2,15,15,0,0
56956,810.810810810811,4,2,15,15,1,0
56956,-50,4,2,15,15,0,0
57057,960,4,2,15,15,1,0
57057,-50,4,2,15,15,0,0
57236,990.09900990099,4,2,15,5,1,0
57236,-200,4,2,15,5,0,0
61196,1081.08108108108,4,2,15,15,1,0
61196,-50,4,2,15,15,0,0
61466,800,4,2,15,15,1,0
61466,-50,4,2,15,15,0,0
61666,979.591836734694,4,2,15,5,1,0
61666,-200,4,2,15,5,0,0
65584,1071.42857142857,4,2,15,15,1,0
65584,-50,4,2,15,15,0,0
65731,1445.78313253012,4,2,15,15,1,0
65731,-50,4,2,15,15,0,0
65911,1666.66666666667,4,2,15,15,1,0
65911,-50,4,2,15,15,0,0
66119,2000,4,2,15,15,1,0
66119,-50,4,2,15,15,0,0
66369,1602.13618157543,4,2,15,5,1,0
66369,-200,4,2,15,5,0,0
69573,530.973451327434,4,2,15,15,1,0
69661,703.399765533411,4,2,15,15,1,0
69895,623.052959501558,4,2,15,15,1,0
70206,-100,4,2,15,5,0,0
70829,564.440263405456,4,2,15,15,1,0
71393,714.285714285714,4,2,15,15,1,0
71750,461.538461538462,4,2,15,15,1,0
71865,705.882352941176,4,2,15,15,1,0
72042,504.201680672269,4,2,15,15,1,0
72042,-200,4,2,15,15,0,0
72168,-200,4,2,15,5,0,0
73050,519.031141868512,4,2,15,15,1,0
74088,483.870967741935,4,2,15,15,1,0
74088,-133.333333333333,4,2,15,15,0,0
75055,494.641384995878,4,2,15,15,1,0
75055,-133.333333333333,4,2,15,15,0,0
76044,495.867768595041,4,2,15,15,1,0
76044,-133.333333333333,4,2,15,15,0,0
77407,-133.333333333333,4,2,15,5,0,0
77531,389.61038961039,4,2,15,15,1,0
77531,-133.333333333333,4,2,15,15,0,0
77725,461.538461538462,4,2,15,15,1,0
78071,497.92531120332,4,2,15,15,1,0
79066,533.333333333333,4,2,15,15,1,0
79599,464.037122969838,4,2,15,15,1,0
80063,540.540540540541,4,2,15,15,1,0
80603,489.795918367347,4,2,15,15,1,0
81092,481.927710843374,4,2,15,15,1,0
82055,497.92531120332,4,2,15,15,1,0
83548,563.380281690141,4,2,15,15,1,0
83995,465.116279069767,4,2,15,15,1,0
84111,524.017467248908,4,2,15,15,1,0
84111,-200,4,2,15,15,0,0
84242,-200,4,2,15,5,0,0
86056,454.545454545455,4,2,15,15,1,0
86207,500,4,2,15,15,1,0
86207,-200,4,2,15,15,0,0
86332,-200,4,2,15,5,0,0
87207,-200,4,2,15,15,0,0
87332,-200,4,2,15,5,0,0
87707,591.133004926108,4,2,15,15,1,0
87707,-200,4,2,15,15,0,0
88002,-200,4,2,15,5,0,0
88230,555.555555555556,4,2,15,15,1,0
88299,478.08764940239,4,2,15,15,1,0
88299,-133.333333333333,4,2,15,15,0,0
90211,489.795918367347,4,2,15,15,1,0
90211,-133.333333333333,4,2,15,15,0,0
91680,526.315789473684,4,2,15,15,1,0
92206,491.803278688525,4,2,15,15,1,0
93681,530.973451327434,4,2,15,15,1,0
94211,495.867768595041,4,2,15,15,1,0
94211,-133.333333333333,4,2,15,15,0,0
96689,478.08764940239,4,2,15,15,1,0
98123,495.867768595041,4,2,15,15,1,0
98123,-133.333333333333,4,2,15,15,0,0
99114,468.75,4,2,15,15,1,0
99114,-133.333333333333,4,2,15,15,0,0
99582,538.116591928251,4,2,15,15,1,0
100120,495.867768595041,4,2,15,15,1,0
100120,-200,4,2,15,15,0,0
100243,-200,4,2,15,5,0,0
102103,492.408699220353,4,2,15,15,1,0
102103,-133.333333333333,4,2,15,15,0,0
104072,449.438202247191,4,2,15,15,1,0
104072,-133.333333333333,4,2,15,15,0,0
104521,504.201680672269,4,2,15,15,1,0
104521,-133.333333333333,4,2,15,15,0,0
105025,480,4,2,15,15,1,0
105025,-133.333333333333,4,2,15,15,0,0
105505,-133.333333333333,4,2,15,5,0,0
105985,508.474576271186,4,2,15,15,1,0
105985,-133.333333333333,4,2,15,15,0,0
107870,594.059405940594,4,2,15,15,1,0
108018,497.512437810945,4,2,15,15,1,0
108018,-133.333333333333,4,2,15,15,0,0
108142,-133.333333333333,4,2,15,5,0,0
110054,495.662949194548,4,2,15,15,1,0
110054,-133.333333333333,4,2,15,15,0,0
114019,495.867768595041,4,2,15,15,1,0
114019,-133.333333333333,4,2,15,15,0,0
115506,535.714285714286,4,2,15,15,1,0
115506,-133.333333333333,4,2,15,15,0,0
115941,600,4,2,15,15,1,0
116041,550.45871559633,4,2,15,15,1,0
116041,-133.333333333333,4,2,15,15,0,0
116591,512.820512820513,4,2,15,15,1,0
117103,474.308300395257,4,2,15,15,1,0
117103,-133.333333333333,4,2,15,15,0,0
118051,508.474576271186,4,2,15,15,1,0
118559,482.703137570394,4,2,15,15,1,0
120007,521.739130434783,4,2,15,15,1,0
121572,434.782608695652,4,2,15,5,1,0
122006,477.326968973747,4,2,15,15,1,0
122006,-133.333333333333,4,2,15,15,0,0
122960,510.63829787234,4,2,15,15,1,0
122960,-133.333333333333,4,2,15,15,0,0
123981,495.867768595041,4,2,15,15,1,0
123981,-133.333333333333,4,2,15,15,0,0
124972,506.329113924051,4,2,15,15,1,0
124972,-133.333333333333,4,2,15,15,0,0
125984,472.44094488189,4,2,15,15,1,0
127283,-100,4,2,15,5,0,0
127401,-100,4,2,15,15,0,0
127519,-100,4,2,15,5,0,0
127873,518.582541054451,4,2,15,15,1,0
127873,-111.111111111111,4,2,15,15,0,0
128391,-111.111111111111,4,2,15,10,0,0
128910,-111.111111111111,4,2,15,5,0,0
129947,512.382578992314,4,2,15,15,1,0
129947,-125,4,2,15,15,0,0
130971,558.139534883721,4,2,15,10,1,0
130971,-142.857142857143,4,2,15,10,0,0
131529,573.065902578797,4,2,15,10,1,0
131529,-166.666666666667,4,2,15,10,0,0
131958,-166.666666666667,4,2,15,5,0,0
132102,481.154771451484,4,2,15,5,1,0
132102,-200,4,2,15,5,0,0
134026,372.670807453416,4,2,1,100,1,0
135540,382.531080650303,4,2,3,100,1,0
135667,-100,4,2,5,60,0,0
141660,382.65306122449,4,2,9,100,1,0
141787,-100,4,2,5,60,0,0
144721,-100,4,2,7,85,0,0
144848,-100,4,2,5,60,0,0
145869,-100,4,2,7,85,0,0
145996,-100,4,2,5,60,0,0
146414,372.670807453416,4,2,1,40,1,0
146476,-100,4,2,1,55,0,0
146538,-100,4,2,1,70,0,0
146664,372.670807453416,4,2,1,85,1,0
146788,-100,4,2,11,85,0,0
146912,-100,4,2,1,85,0,0
147036,-100,4,2,11,85,0,0
147160,-100,4,2,1,55,0,0
147285,-100,4,2,1,70,0,0
147409,-100,4,2,1,85,0,0
147782,383.631713554987,4,2,1,100,1,0
147909,-100,4,2,6,70,0,0
149316,-100,4,2,3,85,0,0
149444,-100,4,2,6,70,0,0
150467,-100,4,2,8,70,0,0
150851,-100,4,2,2,85,0,0
150978,-100,4,2,6,70,0,0
151746,-100,4,2,8,70,0,0
151874,-100,4,2,6,70,0,0
152385,-100,4,2,8,70,0,0
153920,387.722132471729,4,2,8,70,1,0
155858,-100,4,2,6,70,0,0
157021,-100,4,2,8,85,0,0
157151,-100,4,2,6,70,0,0
158572,-100,4,2,3,85,0,0
158701,-100,4,2,6,70,0,0
159218,-100,4,2,8,70,0,0
159348,-100,4,2,6,70,0,0
160123,387.972841901067,4,2,1,100,1,0
166330,385.356454720617,4,2,1,100,1,0
170954,390.752197981114,4,2,1,100,1,0
175643,387.346675274371,4,2,1,100,1,0
178741,386.847195357834,4,2,1,100,1,0
184930,386.847195357834,6,2,1,100,1,0
187251,410.958904109589,6,2,1,100,1,0
187456,384.615384615385,6,2,1,100,1,0
189571,381.558028616852,6,2,1,100,1,0
191860,413.793103448276,6,2,1,100,1,0
192066,382.165605095541,6,2,1,100,1,0
193403,400,6,2,1,100,1,0
194203,382.897255902999,6,2,1,100,1,0
196500,397.350993377483,6,2,1,100,1,0
196698,382.165605095541,6,2,1,100,1,0
197844,410.958904109589,6,2,1,100,1,0
198049,385.852090032154,6,2,1,100,1,0
198820,383.877159309021,6,2,1,100,1,0
201123,376.175548589342,6,2,1,100,1,0
203000,350.877192982456,6,2,1,100,1,0
203350,363.636363636364,4,2,1,100,1,0
207713,356.930398572278,4,2,1,100,1,0
211996,355.871886120996,4,2,1,100,1,0
213419,350.877192982456,4,2,1,100,1,0
214822,362.100181050091,4,2,1,100,1,0
223512,351.699882766706,4,2,1,100,1,0
224918,376.175548589342,4,2,1,100,1,0
225670,338.028169014084,4,2,1,100,1,0
226345,355.239786856128,4,2,1,100,1,0
232028,351.906158357771,4,2,1,100,1,0
237658,350.877192982456,4,2,1,100,1,0
247482,362.976406533575,4,2,1,100,1,0
248933,351.493848857645,4,2,1,100,1,0
254556,353.77358490566,4,2,1,100,1,0
260216,350.877192982456,4,2,1,100,1,0
265830,350.262697022767,4,2,1,100,1,0
270033,359.281437125748,4,2,1,100,1,0
271470,365.853658536585,3,2,1,100,1,0
275859,356.083086053412,4,2,1,100,1,0
277283,375,4,2,1,100,1,0
278033,362.976406533575,4,2,1,100,1,0
278758,362.976406533575,4,2,1,100,1,0
280210,359.712230215827,4,2,1,100,1,0
284526,347.826086956522,4,2,1,100,1,0
285569,372.670807453416,4,2,1,100,1,0
285941,355.6609365738,4,2,1,100,1,0
291631,353.565114908662,4,2,1,100,1,0
297288,353.356890459364,4,2,1,100,1,0
307181,340.909090909091,4,2,1,100,1,0
308544,349.243306169965,4,2,1,100,1,1
319718,347.624565469293,4,2,1,100,1,1
325279,347.222222222222,4,2,1,100,1,1
329445,361.44578313253,6,2,1,100,1,0
331613,361.228175797712,4,2,1,100,1,0
340282,357.142857142857,4,2,1,100,1,0
343139,359.604435121367,4,2,1,100,1,0
354646,362.756952841596,4,2,1,100,1,0
358999,358.530026889752,4,2,1,100,1,0
363301,352.941176470588,4,2,1,100,1,0
364712,360.03600360036,4,2,1,100,1,0
366152,358.315915198567,4,2,1,100,1,0
376184,380.952380952381,4,2,1,100,1,0
377707,373.366521468575,4,2,1,100,1,0
383680,371.97768133912,4,2,1,100,1,0
388143,356.718192627824,4,2,1,100,1,0
389569,374.064837905237,4,2,1,100,1,0
392561,373.59900373599,4,2,1,100,1,0
395549,375.822110867523,4,2,1,100,1,0
398555,373.366521468575,4,2,1,100,1,0
401541,366.412213740458,4,2,1,100,1,0
403006,363.636363636364,4,2,1,100,1,0
404460,362.209477814669,4,2,1,100,1,0
410255,356.083086053412,4,2,1,100,1,0
415952,352.941176470588,4,2,1,100,1,0
421599,351.493848857645,4,2,1,100,1,0
425816,346.820809248555,4,2,1,100,1,0
427203,349.854227405248,4,2,1,100,1,0
432800,348.533255881499,4,2,1,100,1,0
438376,346.420323325635,4,2,1,100,1,0
443918,342.857142857143,4,2,1,100,1,0
448032,358.637178720861,4,2,1,100,1,0
449466,374.298190892077,4,2,1,100,1,0
455454,376.175548589342,4,2,1,100,1,0
461472,375.704445835942,4,2,1,100,1,0
467483,374.765771392879,4,2,1,100,1,0
470481,368.098159509202,4,2,1,100,1,0
471952,366.97247706422,4,2,1,100,1,0
473419,373.831775700935,4,2,1,100,1,1
476409,379.506641366224,4,2,1,100,1,1
482481,377.595972309629,4,2,1,100,1,1
488522,377.833753148615,4,2,1,100,1,1
494567,379.14691943128,4,2,1,100,1,0
497600,377.358490566038,4,2,1,100,1,1
503637,376.647834274953,4,2,1,100,1,1
509663,376.884422110553,4,2,1,100,1,1
521723,376.411543287327,4,2,1,100,1,1
527745,373.018340068387,4,2,1,100,1,1
533713,376.411543287327,4,2,1,100,1,1
539735,374.298190892077,4,2,1,100,1,1
545723,398.671096345515,4,2,1,100,1,0
550507,404.040404040404,4,2,1,100,1,0
552123,410.958904109589,4,2,1,100,1,0
553766,406.779661016949,4,2,1,100,1,0
555393,406.2288422478,4,2,1,100,1,0
557017,410.116199589884,4,2,1,100,1,0
558657,424.628450106157,4,2,1,100,1,0
560355,409.556313993174,4,2,1,100,1,0
561993,408.997955010225,4,2,1,100,1,0
563628,419.58041958042,4,2,1,100,1,0
565306,407.608695652174,4,2,1,100,1,0
566936,422.535211267606,4,2,1,100,1,0
568626,422.237860661506,4,2,1,100,1,0
570314,421.644413211525,4,2,1,100,1,0
572000,416.088765603329,4,2,1,100,1,0
573664,410.958904109589,4,2,1,100,1,0
575307,411.805078929307,4,2,1,100,1,0
576954,418.994413407821,4,2,1,100,1,0
588685,421.644413211525,4,2,1,100,1,0
598804,418.994413407821,4,2,1,100,1,0

[Colours]
Combo1 : 40,129,236
Combo2 : 236,138,40
Combo3 : 138,40,236
Combo4 : 236,40,89

[HitObjects]
88,252,371,6,0,P|120:264|156:260,1,70
252,148,881,2,0,P|225:169|211:202,1,70
260,342,1349,2,0,P|255:308|233:279,1,70
88,252,1844,5,0,0:0:0:0:
168,132,2066,1,0,0:0:0:0:
32,84,2288,2,0,B|52:92|52:92|100:88,1,70,2|0,0:0|0:0,0:0:0:0:
200,0,2764,2,0,P|164:-4|128:4,1,70
340,124,3240,5,0,0:0:0:0:
448,116,3480,1,0,0:0:0:0:
304,220,3720,1,0,0:0:0:0:
196,228,3960,1,0,0:0:0:0:
368,296,4188,1,0,0:0:0:0:
476,288,4428,1,0,0:0:0:0:
260,368,4657,5,0,0:0:0:0:
196,228,4891,1,0,0:0:0:0:
340,124,5126,2,0,B|320:132|320:132|272:128,1,70,2|0,0:0|0:0,0:0:0:0:
324,0,5595,2,0,P|364:0|392:8,1,70
164,124,6063,5,0,0:0:0:0:
148,0,6299,1,0,0:0:0:0:
252,192,6535,1,0,0:0:0:0:
268,316,6771,1,0,0:0:0:0:
340,124,7007,1,0,0:0:0:0:
324,0,7243,1,0,0:0:0:0:
412,252,7480,5,0,0:0:0:0:
268,316,7716,1,0,0:0:0:0:
164,124,7952,2,0,B|176:144|176:144|172:192,1,70,2|0,0:0|0:0,0:0:0:0:
36,156,8438,2,0,P|28:116|36:88,1,70
224,248,8924,5,0,0:0:0:0:
92,264,9171,1,0,0:0:0:0:
252,128,9419,1,0,0:0:0:0:
384,112,9666,1,0,0:0:0:0:
224,248,9915,6,0,P|196:240|156:232,1,70
356,312,10427,2,0,P|384:304|424:296,1,70
252,128,10993,2,0,P|216:124|184:132,1,70,2|0,0:0|0:0,0:0:0:0:
192,332,11686,2,0,P|228:336|260:328,1,70
128,200,12396,6,0,P|120:232|128:268,1,70
336,244,12908,2,0,P|344:212|336:176,1,70
120,120,13376,2,0,P|152:132|188:128,1,70
252,32,13845,5,0,0:0:0:0:
88,12,14085,1,0,0:0:0:0:
128,200,14326,2,0,B|144:208|144:208|196:200,1,70,2|0,0:0|0:0,0:0:0:0:
360,108,14807,2,0,P|328:104|288:120,1,70
448,288,15288,6,0,L|452:216,1,70
264,296,15763,2,0,L|260:365,1,70
128,200,16238,2,0,L|132:128,1,70
360,108,16713,5,0,0:0:0:0:
232,200,16950,1,0,0:0:0:0:
128,56,17188,2,0,B|152:52|152:52|196:64,1,70,2|0,0:0|0:0,0:0:0:0:
24,92,17675,2,0,P|16:60|24:24,1,70
80,276,18163,6,0,L|8:284,1,70
156,132,18628,2,0,L|228:124,1,70
328,308,19093,2,0,L|256:316,1,70
360,132,19558,5,0,0:0:0:0:
500,124,19790,1,0,0:0:0:0:
248,236,20023,2,0,B|232:216|232:216|236:168,1,70,2|0,0:0|0:0,0:0:0:0:
440,216,20495,2,0,P|448:248|436:284,1,70
156,132,20967,6,0,L|152:60,1,70
324,238,21453,2,0,L|328:310,1,70
436,88,21939,2,0,L|432:16,1,70
240,176,22425,5,0,0:0:0:0:
412,192,22665,1,0,0:0:0:0:
268,32,22928,2,0,P|240:24|200:36,1,70,2|0,0:0|0:0,0:0:0:0:
220,244,23488,2,0,P|256:248|284:232,1,70
96,88,24098,6,0,P|88:120|96:156,1,70
340,156,24571,2,0,P|348:124|340:88,1,70
220,244,25044,2,0,L|224:316,1,70
340,156,25518,5,0,0:0:0:0:
172,120,25754,1,0,0:0:0:0:
408,200,25991,2,0,B|424:184|424:184|420:136,1,70,2|0,0:0|0:0,0:0:0:0:
332,300,26480,2,0,P|360:320|400:324,1,70
220,244,26970,5,0,0:0:0:0:
108,256,27208,1,0,0:0:0:0:
240,140,27446,1,0,0:0:0:0:
352,128,27684,1,0,0:0:0:0:
200,40,27922,1,0,0:0:0:0:
88,52,28160,1,0,0:0:0:0:
240,140,28398,5,0,0:0:0:0:
384,40,28636,1,0,0:0:0:0:
156,112,28873,2,0,B|148:136|148:136|160:184,1,70,2|0,0:0|0:0,0:0:0:0:
359,195,29394,2,0,P|363:159|351:127,1,70
220,292,29957,6,0,L|228:364,1,70
366,264,30448,2,0,L|358:192,1,70
156,112,30904,2,0,L|164:184,1,70
392,60,31360,5,0,0:0:0:0:
236,96,31588,1,0,0:0:0:0:
464,96,31816,2,0,B|476:76|476:76|472:28,1,70,2|0,0:0|0:0,0:0:0:0:
236,96,32290,2,0,P|228:120|232:164,1,70
427,202,32764,6,0,L|355:194,1,70
108,232,33244,2,0,L|180:240,1,70
368,376,33724,2,0,L|296:368,1,70
264,160,34204,5,0,0:0:0:0:
292,296,34447,1,0,0:0:0:0:
120,148,34691,2,0,P|148:135|188:131,1,70,2|0,0:0|0:0,0:0:0:0:
232,352,35193,2,0,P|203:364|163:368,1,70
264,160,35758,6,0,P|280:192|280:232,1,70
84,304,36238,2,0,P|68:272|68:232,1,70
185,127,36718,2,0,P|153:143|117:147,1,70
116,20,37198,5,0,0:0:0:0:
276,32,37438,1,0,0:0:0:0:
48,124,37678,2,0,B|36:104|36:104|40:56,1,70,2|0,0:0|0:0,0:0:0:0:
116,232,38158,2,0,P|84:248|48:252,1,70
185,127,38653,6,0,L|256:132,1,70
360,272,39133,2,0,L|289:267,1,70
380,112,39645,2,0,L|451:117,1,70
216,260,40197,5,0,0:0:0:0:
160,56,40474,1,0,0:0:0:0:
380,112,40818,2,0,P|412:104|452:100,1,70,2|0,0:0|0:0,0:0:0:0:
216,260,41554,2,0,P|183:252|144:248,1,70
356,316,42290,6,0,P|368:284|364:248,1,70
84,204,42773,2,0,P|72:236|76:272,1,70
244,144,43257,2,0,L|240:72,1,70
144,244,43741,5,0,0:0:0:0:
312,192,43983,1,0,0:0:0:0:
84,204,44225,2,0,B|72:224|72:224|76:272,1,70,2|0,0:0|0:0,0:0:0:0:
388,220,44791,2,0,P|392:184|384:152,1,70
144,244,45341,6,0,L|148:316,1,70
312,192,45977,2,0,L|308:120,1,70
76,56,46671,2,0,L|80:128,1,70
368,256,47477,6,0,P|392:168|304:108,1,210,2|0,0:0|0:0,0:0:0:0:
305,107,52054,6,0,L|269:111,1,35
212,56,52280,2,0,L|176:52,1,35
96,124,52605,6,0,P|120:152|216:152,1,140
216,151,56698,6,0,L|220:188,1,35
300,216,56956,2,0,L|296:253,1,35
144,208,57236,6,0,P|124:144|160:84,1,140
159,84,61196,6,0,L|196:88,1,35
240,160,61466,2,0,L|277:156,1,35
388,56,61666,6,0,P|324:40|268:80,1,140
267,80,65584,6,0,L|272:116,1,35
248,192,65911,2,0,L|243:228,1,35
288,292,66369,6,0,L|296:364,1,70
295,352,69573,5,0,0:0:0:0:
295,352,69661,2,0,L|268:348,1,23.3333333333333
220,276,69895,2,0,P|284:260|348:300,1,140
92,288,70829,6,0,B|72:256|72:256|80:188,1,105,2|0,0:0|0:0,0:0:0:0:
184,180,71393,2,0,L|180:108,1,70,2|0,0:0|0:0,0:0:0:0:
52,60,71865,5,0,0:0:0:0:
52,60,71953,1,0,0:0:0:0:
52,60,72042,2,0,P|120:64|172:16,1,140,2|0,0:0|0:0,0:0:0:0:
170,18,74088,6,0,L|180:124,1,105.000004005432,2|0,0:0|0:0,0:0:0:0:
364,104,75055,2,0,L|354:210,1,105.000004005432,2|0,0:0|0:0,0:0:0:0:
136,300,75920,1,0,0:0:0:0:
136,300,75982,1,0,0:0:0:0:
136,300,76044,2,0,P|116:252|128:200,1,105.000004005432,2|0,0:0|0:0,0:0:0:0:
280,252,77035,6,0,L|200:244,1,78.7500030040742
336,200,77531,2,0,L|407:208,1,52.5000020027161
176,128,78013,5,0,0:0:0:0:
176,128,78071,2,0,P|224:136|288:80,1,140,2|0,0:0|0:0,0:0:0:0:
52,60,79066,2,0,B|56:108|56:108|88:132|88:132|92:184,1,140,2|0,0:0|0:0,0:0:0:0:
300,140,80063,2,0,P|316:76|264:24,1,140,2|0,0:0|0:0,0:0:0:0:
112,120,81092,1,2,0:0:0:0:
112,120,82055,6,0,B|184:128|184:128|240:88,1,140,2|0,0:0|0:0,0:0:0:0:
400,264,83050,2,0,B|328:256|328:256|272:296,1,140,2|0,0:0|0:0,0:0:0:0:
87,240,83995,5,0,0:0:0:0:
87,240,84053,1,0,0:0:0:0:
87,240,84111,2,0,P|71:176|111:120,1,140,2|0,0:0|0:0,0:0:0:0:
272,216,86056,5,0,0:0:0:0:
272,216,86131,1,0,0:0:0:0:
272,216,86207,2,0,P|228:204|152:192,1,122.5,2|0,0:0|0:0,0:0:0:0:
168,276,87207,6,0,L|232:288,1,52.5,2|0,0:0|0:0,0:0:0:0:
152,348,87707,2,0,L|112:340,1,35,2|0,0:0|0:0,0:0:0:0:
336,344,88230,5,0,0:0:0:0:
336,344,88299,2,0,L|344:240,1,105.000004005432,2|0,0:0|0:0,0:0:0:0:
168,276,89255,2,0,L|160:172,1,105.000004005432,2|0,0:0|0:0,0:0:0:0:
159,171,90211,6,0,P|112:188|56:184,1,105.000004005432,2|0,0:0|0:0,0:0:0:0:
344,239,91190,2,0,P|391:256|447:252,1,105.000004005432,2|0,0:0|0:0,0:0:0:0:
256,36,92074,1,0,0:0:0:0:
256,36,92140,1,0,0:0:0:0:
256,36,92206,2,0,B|264:84|264:84|248:124|248:124|256:172,1,140,2|0,0:0|0:0,0:0:0:0:
416,276,93189,2,0,L|488:268,2,70
180,336,94145,5,0,0:0:0:0:
180,336,94211,2,0,P|132:324|76:316,1,105.000004005432,2|0,0:0|0:0,0:0:0:0:
308,216,95202,2,0,P|356:204|412:196,1,105.000004005432,2|0,0:0|0:0,0:0:0:0:
136,208,96194,2,0,P|112:164|124:112,1,105.000004005432,2|0,0:0|0:0,0:0:0:0:
304,136,97167,1,2,0:0:0:0:
304,136,98123,6,0,P|292:176|280:240,1,105.000004005432,2|0,0:0|0:0,0:0:0:0:
136,208,99114,2,0,P|148:248|160:312,1,105.000004005432,2|0,0:0|0:0,0:0:0:0:
428,296,100030,2,0,L|440:300,1,11.6666666666667
428,296,100120,2,0,B|456:240|424:196|424:196|388:152|416:96,1,210,2|0,0:0|0:0,0:0:0:0:
414,98,102103,6,0,B|364:76|364:76|334:31,1,105.000004005432,2|0,0:0|0:0,0:0:0:0:
95,102,103087,2,0,B|101:156|101:156|77:204,1,105.000004005432,2|0,0:0|0:0,0:0:0:0:
258,375,104072,2,0,B|302:343|302:343|355:340,1,105.000004005432,2|0,0:0|0:0,0:0:0:0:
256,192,105025,1,2,0:0:0:0:
256,192,105505,1,0,0:0:0:0:
160,108,105985,6,0,P|148:56|168:8,1,105.000004005432,2|0,0:0|0:0,0:0:0:0:
352,276,107001,2,0,P|364:328|344:376,1,105.000004005432,2|0,0:0|0:0,0:0:0:0:
256,192,107870,5,0,0:0:0:0:
256,192,107944,1,0,0:0:0:0:
256,192,108018,2,0,B|260:148|260:148|252:132|252:132|256:88,3,105.000004005432,2|0|0|0,0:0|0:0|0:0|0:0,0:0:0:0:
255,89,110008,5,0,0:0:0:0:
255,89,110054,2,0,B|200:96|200:96|152:76,1,105.000004005432,2|0,0:0|0:0,0:0:0:0:
257,295,111045,2,0,B|312:288|312:288|360:308,1,105.000004005432,2|0,0:0|0:0,0:0:0:0:
112,364,112036,2,0,P|88:316|100:268,2,105.000004005432,2|0|0,0:0|0:0|0:0,0:0:0:0:
112,364,114019,6,0,P|164:352|216:348,1,105.000004005432,2|0,0:0|0:0,0:0:0:0:
440,176,115010,2,0,P|388:188|336:192,1,105.000004005432,2|0,0:0|0:0,0:0:0:0:
156,100,115941,2,0,L|140:96,1,11.6666666666667
156,100,116041,2,0,P|148:52|172:4,1,105.000004005432,2|0,0:0|0:0,0:0:0:0:
208,232,116975,1,0,0:0:0:0:
208,232,117039,1,0,0:0:0:0:
208,232,117103,2,0,L|104:224,1,105.000004005432,2|0,0:0|0:0,0:0:0:0:
336,108,117933,5,0,0:0:0:0:
336,108,117992,1,0,0:0:0:0:
336,108,118051,2,0,P|404:96|468:120,1,140,2|0,0:0|0:0,0:0:0:0:
264,324,119041,2,0,P|196:336|132:312,1,140,2|0,0:0|0:0,0:0:0:0:
208,64,120007,2,0,B|200:116|200:116|220:148|220:148|212:200,1,140,2|0,0:0|0:0,0:0:0:0:
424,200,121050,2,0,B|416:148|416:148|436:116|436:116|428:64,1,140,2|0,0:0|0:0,0:0:0:0:
380,284,122006,6,0,P|432:296|480:280,1,105.000004005432,2|0,0:0|0:0,0:0:0:0:
224,216,122960,2,0,P|172:204|124:220,1,105.000004005432,2|0,0:0|0:0,0:0:0:0:
288,360,123917,1,0,0:0:0:0:
288,360,123981,2,0,L|296:256,1,105.000004005432,2|0,0:0|0:0,0:0:0:0:
108,124,124848,1,0,0:0:0:0:
108,124,124910,1,0,0:0:0:0:
108,124,124972,2,0,P|148:148|204:140,1,105.000004005432,2|0,0:0|0:0,0:0:0:0:
436,180,125858,5,0,0:0:0:0:
436,180,125921,1,0,0:0:0:0:
436,180,125984,2,0,P|396:156|312:184,1,140,2|0,0:0|0:0,0:0:0:0:
368,340,126928,2,0,L|376:236,1,105,2|0,0:0|0:0,0:0:0:0:
296,264,127401,2,0,L|292:300,1,35,2|0,0:0|0:0,0:0:0:0:
296,264,127873,6,0,P|248:228|180:232,2,125.999996154785,2|0|0,0:0|0:0|0:0,0:0:0:0:
296,264,129947,6,0,P|280:212|296:156,1,112,2|0,0:0|0:0,0:0:0:0:
112,208,130971,2,0,P|128:260|112:300,1,97.9999970092774,2|0,0:0|0:0,0:0:0:0:
72,84,131958,5,2,0:0:0:0:
72,84,132030,1,2,0:0:0:0:
72,84,132102,2,0,B|120:60|164:96|164:96|208:128|268:96,1,210,2|0,0:0|0:0,0:0:0:0:
248,266,134026,5,8,0:0:0:0:
156,286,134150,2,0,L|135:329,1,46.6666666666667,8|8,0:0|0:0,0:0:0:0:
319,153,134398,1,8,0:0:0:0:
340,245,134522,2,0,L|383:265,1,46.6666666666667,8|8,0:0|0:0,0:0:0:0:
206,82,134771,1,8,0:0:0:0:
297,61,134895,2,0,L|317:17,1,46.6666666666667,8|8,0:0|0:0,0:0:0:0:
135,195,135144,1,8,0:0:0:0:
114,103,135268,2,0,L|70:82,1,46.6666666666667,8|8,0:0|0:0,0:0:0:0:
248,266,135540,6,0,P|256:284|264:312,2,46.6666666666667,6|0|0,0:0|0:0|0:0,0:0:0:0:
355,201,135922,2,0,P|347:219|339:247,2,46.6666666666667,6|0|0,0:0|0:0|0:0,0:0:0:0:
222,150,136305,1,6,0:0:0:0:
206,82,136432,1,0,0:0:0:0:
190,14,136560,2,0,L|144:8,1,46.6666666666667,2|4,0:0|0:0,0:0:0:0:
280,92,136815,2,0,L|326:98,1,46.6666666666667,2|0,0:0|0:0,0:0:0:0:
136,176,137070,6,0,P|112:180|88:176,2,46.6666666666667,6|0|0,0:0|0:0|0:0,0:0:0:0:
248,266,137452,2,0,P|224:262|200:266,2,46.6666666666667,6|0|0,0:0|0:0|0:0,0:0:0:0:
372,332,137835,1,6,0:0:0:0:
440,348,137962,1,0,0:0:0:0:
500,312,138090,2,0,L|508:264,1,46.6666666666667,2|4,0:0|0:0,0:0:0:0:
372,332,138345,2,0,L|364:380,1,46.6666666666667,2|0,0:0|0:0,0:0:0:0:
248,266,138600,6,0,P|240:236|232:220,2,46.6666666666667,6|0|0,0:0|0:0|0:0,0:0:0:0:
332,180,138982,2,0,P|340:150|348:134,2,46.6666666666667,6|0|0,0:0|0:0|0:0,0:0:0:0:
220,96,139365,1,6,0:0:0:0:
152,88,139492,1,0,0:0:0:0:
84,80,139620,2,0,L|32:72,1,46.6666666666667,0|6,0:0|0:0,0:0:0:0:
152,168,139875,2,0,L|204:176,1,46.6666666666667
332,64,140130,6,0,P|320:60|284:56,2,46.6666666666667,6|0|0,0:0|0:0|0:0,0:0:0:0:
332,180,140512,2,0,P|320:184|284:188,2,46.6666666666667,6|0|0,0:0|0:0|0:0,0:0:0:0:
152,88,140895,1,6,0:0:0:0:
220,96,141022,1,0,0:0:0:0:
180,151,141150,2,0,L|132:156,1,46.6666666666667,2|4,0:0|0:0,0:0:0:0:
192,32,141405,2,0,L|240:27,1,46.6666666666667,2|0,0:0|0:0,0:0:0:0:
140,228,141660,6,0,P|116:228|92:220,2,46.6666666666667,6|0|0,0:0|0:0|0:0,0:0:0:0:
286,173,142042,2,0,P|310:173|334:181,2,46.6666666666667,6|0|0,0:0|0:0|0:0,0:0:0:0:
224,308,142425,1,6,0:0:0:0:
288,336,142552,1,0,0:0:0:0:
356,316,142680,2,0,L|404:320,1,46.6666666666667,2|4,0:0|0:0,0:0:0:0:
224,308,142935,2,0,L|176:304,1,46.6666666666667,2|0,0:0|0:0,0:0:0:0:
364,208,143190,6,0,P|372:184|372:160,2,46.6666666666667,6|0|2,0:0|0:0|0:0,0:0:0:0:
212,136,143573,2,0,P|204:160|204:184,2,46.6666666666667,4|2|0,0:0|0:0|0:0,0:0:0:0:
286,173,143955,1,6,0:0:0:0:
293,242,144083,1,0,0:0:0:0:
300,311,144211,2,0,P|328:320|344:328,1,46.6666666666667,2|4,0:0|0:0,0:0:0:0:
407,224,144466,2,0,P|379:215|363:207,1,46.6666666666667,2|0,0:0|0:0,0:0:0:0:
224,308,144721,6,0,P|196:312|172:320,2,46.6666666666667,6|0|0,0:0|0:0|0:0,0:0:0:0:
104,228,145103,2,0,P|76:224|52:216,2,46.6666666666667,6|0|0,0:0|0:0|0:0,0:0:0:0:
212,136,145486,2,0,P|216:116|212:88,1,46.6666666666667,6|0,0:0|0:0,0:0:0:0:
144,112,145741,1,0,0:0:0:0:
196,208,145869,2,0,L|244:204,1,46.6666666666667,10|0,0:0|0:0,0:0:0:0:
148,304,146124,2,0,L|100:308,1,46.6666666666667,0|4,0:0|0:0,0:0:0:0:
0,180,146414,6,0,L|4:156,2,23.3333333333333,8|8|8,0:0|0:0|0:0,0:0:0:0:
144,112,146662,2,0,L|196:116,1,46.6666666666667,8|4,0:0|0:0,0:0:0:0:
268,284,146912,2,0,L|216:280,1,46.6666666666667,8|4,0:0|0:0,0:0:0:0:
420,104,147160,5,8,0:0:0:0:
424,112,147285,1,8,0:0:0:0:
428,120,147409,1,8,0:0:0:0:
416,188,147533,1,8,0:0:0:0:
404,256,147657,1,8,0:0:0:0:
392,324,147782,6,0,P|368:328|348:336,2,46.6666666666667,6|0|0,0:0|0:0|0:0,0:0:0:0:
268,284,148165,2,0,P|248:280|224:268,1,46.6666666666667,6|0,0:0|0:0,0:0:0:0:
200,128,148421,1,6,0:0:0:0:
268,144,148549,1,8,0:0:0:0:
221,195,148677,2,0,P|201:199|177:211,1,46.6666666666667,2|0,0:0|0:0,0:0:0:0:
372,203,148932,2,0,P|392:199|416:187,2,46.6666666666667,6|0|0,0:0|0:0|0:0,0:0:0:0:
