osu file format v14

[General]
AudioFilename: Dawn of the Dead.mp3
AudioLeadIn: 0
PreviewTime: 262150
Countdown: 0
SampleSet: None
StackLeniency: 0.4
Mode: 0
LetterboxInBreaks: 1
EpilepsyWarning: 1
WidescreenStoryboard: 1

[Editor]
DistanceSpacing: 0.9
BeatDivisor: 4
GridSize: 4
TimelineZoom: 2.999999

[Metadata]
Title:Rigid Paradise ~ Dawn of the Dead
TitleUnicode:リジッドパラダイス ~ Dawn of the Dead
Artist:Demetori
ArtistUnicode:Demetori
Creator:GoldenWolf
Version:Extra Stage
Source:東方Project
Tags:東方神霊廟 〜 Ten Desires. Shinreibyou Touhou 13 th13 Yoshika Miyako 宮古 芳香 BEGIERDE DES ZAUBERER C81 Power Prog Progressive Heavy Metal ZUN woof
BeatmapID:506357
BeatmapSetID:192900

[Difficulty]
HPDrainRate:8
CircleSize:4.2
OverallDifficulty:9
ApproachRate:9
SliderMultiplier:2
SliderTickRate:2

[Events]
//Background and Video events
0,0,"orz33.jpg",0,0
//Break Periods
//Storyboard Layer 0 (Background)
//Storyboard Layer 1 (Fail)
//Storyboard Layer 2 (Pass)
//Storyboard Layer 3 (Foreground)
//Storyboard Sound Samples

[TimingPoints]
844,340.909090909091,4,3,1,80,1,0
5616,-100,4,3,12,85,0,0
5701,-100,4,3,10,85,0,0
5787,-100,4,3,5,80,0,0
5957,-100,4,3,11,85,0,0
6128,-100,4,3,5,80,0,0
6298,-100,4,3,1,80,0,0
6469,-100,4,3,12,85,0,0
6554,-100,4,3,10,85,0,0
6639,-100,4,3,1,80,0,0
7150,-100,4,3,1,60,0,0
8344,-100,4,3,6,85,0,0
8514,-100,4,3,11,85,0,0
8684,-100,4,3,10,85,0,0
9025,-100,4,3,1,85,0,0
9111,-100,4,3,12,85,0,0
9196,-100,4,3,1,85,0,0
9366,-100,4,3,11,85,0,0
9537,-100,4,3,1,85,0,0
9707,-100,4,3,12,85,0,0
9934,-100,4,3,11,85,0,0
10162,-100,4,3,10,85,0,0
10389,348.837209302326,6,3,1,100,1,0
10505,-100,6,3,4,85,0,0
10854,-100,6,3,12,85,0,0
10970,-100,6,3,4,85,0,0
11086,-100,6,3,11,85,0,0
11202,-100,6,3,4,85,0,0
11319,-100,6,3,10,85,0,0
11435,-100,6,3,4,85,0,0
11551,-100,6,3,10,85,0,0
11668,-100,6,3,4,85,0,0
11784,-100,6,3,12,85,0,0
11842,-100,6,3,1,85,0,0
12016,-100,6,3,11,85,0,0
12133,-100,6,3,10,85,0,0
12365,-100,6,3,1,85,0,0
12482,361.44578313253,4,3,1,100,1,0
12482,-90.9090909090909,4,3,1,100,0,0
12662,-90.9090909090909,4,3,6,70,0,0
18265,-90.9090909090909,4,3,1,100,0,0
18445,-90.9090909090909,4,3,6,70,0,0
22241,-90.9090909090909,4,3,2,70,0,0
22421,-90.9090909090909,4,3,6,70,0,0
22963,-83.3333333333333,4,3,6,70,0,0
23325,-76.9230769230769,4,3,6,70,0,0
23506,-76.9230769230769,4,3,12,85,0,0
23686,-90.9090909090909,4,3,11,85,0,0
23867,-90.9090909090909,4,3,10,85,0,0
24048,-90.9090909090909,4,3,1,100,0,0
24228,-90.9090909090909,4,3,6,70,0,0
28385,-90.9090909090909,4,3,2,70,0,0
28475,-90.9090909090909,4,3,4,70,0,0
29831,-90.9090909090909,4,3,1,100,0,0
30012,-90.9090909090909,4,3,6,70,0,0
34349,-90.9090909090909,4,3,3,100,0,0
34710,-90.9090909090909,4,3,6,70,0,0
34891,-90.9090909090909,4,3,3,100,0,0
35253,-90.9090909090909,4,3,6,70,0,0
35433,-90.9090909090909,4,3,3,100,0,0
35795,-90.9090909090909,4,3,6,70,0,0
35975,-90.9090909090909,4,3,3,100,0,0
36156,-90.9090909090909,4,3,2,100,0,0
36337,-90.9090909090909,4,3,6,70,0,0
36518,-90.9090909090909,4,3,2,100,0,0
37060,-100,4,3,1,100,0,0
37241,-100,4,3,6,60,0,0
42120,-100,4,3,6,90,0,0
42210,-100,4,3,6,40,0,0
42301,-100,4,3,6,60,0,0
42391,-100,4,3,6,80,0,0
42572,-100,4,3,12,85,0,0
42662,-100,4,3,6,85,0,0
42843,-100,4,3,2,85,0,0
43024,-100,4,3,6,60,0,0
45735,361.44578313253,6,3,1,85,1,0
45735,-111.111111111111,6,3,1,85,0,0
45825,-111.111111111111,6,2,1,30,0,0
46277,-90.9090909090908,6,3,2,85,0,0
46367,-90.9090909090908,6,2,1,30,0,0
46819,-76.9230769230769,6,3,1,85,0,0
46909,-76.9230769230769,6,2,1,30,0,0
47361,-66.6666666666667,6,3,3,85,0,0
47451,-66.6666666666667,6,2,1,30,0,0
47903,361.44578313253,4,3,1,85,1,0
47993,-100,4,3,12,85,0,0
48083,-100,4,3,1,85,0,0
48354,-100,4,3,12,85,0,0
48445,-100,4,3,1,85,0,0
48535,-100,4,3,12,85,0,0
48626,-100,4,3,11,85,0,0
48806,-100,4,3,10,85,0,0
48988,-111.111111111111,4,3,1,85,0,0
49168,-100,4,3,1,100,0,0
49348,-100,4,3,6,60,0,0
55132,-100,4,3,1,85,0,0
55312,-100,4,3,6,60,0,0
60734,-100,4,3,12,85,0,0
60824,-100,4,3,10,85,0,0
60915,-100,4,3,1,70,0,0
61095,-100,4,3,6,60,0,0
66698,-100,4,3,1,85,0,0
66879,-100,4,3,6,60,0,0
69589,-100,4,3,2,85,0,0
69770,-100,4,3,6,60,0,0
70674,-100,4,3,3,85,0,0
70855,-100,4,3,1,60,0,0
71397,-100,4,3,1,85,0,0
71457,-100,4,3,12,85,0,0
71517,-100,4,3,10,85,0,0
71577,-100,4,3,1,85,0,0
72120,-100,4,3,11,85,0,0
72300,-100,4,3,10,85,0,0
72481,-83.3333333333333,4,3,1,100,0,1
72662,-83.3333333333333,4,3,6,60,0,1
78264,-83.3333333333333,4,3,1,100,0,1
78445,-83.3333333333333,4,3,6,60,0,1
83505,-83.3333333333333,4,3,2,85,0,1
83686,-83.3333333333333,4,3,6,60,0,1
83866,-83.3333333333333,4,3,2,85,0,1
84047,-83.3333333333333,4,3,1,100,0,1
84228,-83.3333333333333,4,3,6,60,0,1
89830,-83.3333333333333,4,3,1,100,0,1
90011,-83.3333333333333,4,3,6,60,0,1
92089,-83.3333333333333,4,3,6,40,0,1
92180,-83.3333333333333,4,3,6,50,0,1
92270,-83.3333333333333,4,3,6,70,0,1
92360,-83.3333333333333,4,3,6,80,0,1
92451,-83.3333333333333,4,3,12,85,0,1
92541,-83.3333333333333,4,3,11,85,0,1
92632,-83.3333333333333,4,3,6,85,0,1
92722,-83.3333333333333,4,3,1,100,0,1
92902,-83.3333333333333,4,3,6,60,0,1
93083,-83.3333333333333,4,3,2,60,0,1
93264,-83.3333333333333,4,3,6,60,0,1
94168,-83.3333333333333,4,3,3,85,0,1
94258,-83.3333333333333,4,3,1,35,0,1
94348,-83.3333333333333,4,3,1,40,0,1
94439,-83.3333333333333,4,3,1,45,0,1
94529,-83.3333333333333,4,3,1,50,0,1
94619,-83.3333333333333,4,3,1,55,0,1
94710,-83.3333333333333,4,3,1,60,0,1
94800,-83.3333333333333,4,3,1,65,0,1
94891,-83.3333333333333,4,3,1,70,0,1
94981,-83.3333333333333,4,3,10,5,0,1
95162,-83.3333333333333,4,3,10,100,0,1
95252,-83.3333333333333,4,3,10,5,0,1
95433,-83.3333333333333,4,3,10,100,0,1
95613,-90.9090909090909,4,3,1,100,0,0
95794,-90.9090909090909,4,3,6,60,0,0
101396,-90.9090909090909,4,3,2,85,0,0
101577,-90.9090909090909,4,3,6,60,0,0
105553,-50,4,3,6,60,0,0
105644,-100,4,2,0,30,0,0
105915,422.535211267606,4,3,1,100,1,0
106548,361.44578313253,3,2,0,5,1,0
107632,361.44578313253,4,3,1,100,1,0
107812,-100,4,3,6,60,0,0
113415,-100,4,3,2,85,0,0
113595,-100,4,3,6,60,0,0
119017,-100,4,3,10,85,0,0
119198,-100,4,3,1,100,0,0
119378,-100,4,3,6,60,0,0
124981,-100,4,3,2,85,0,0
125162,-100,4,3,6,60,0,0
127872,-100,4,3,2,85,0,0
128053,-100,4,3,6,60,0,0
128957,-100,4,3,3,85,0,0
129047,-100,4,3,6,60,0,0
129318,-100,4,3,1,100,0,0
130764,-83.3333333333333,4,3,1,100,0,1
130945,-83.3333333333333,4,3,6,70,0,1
136547,-83.3333333333333,4,3,1,100,0,1
136728,-83.3333333333333,4,3,6,70,0,1
139439,-83.3333333333333,4,3,2,100,0,1
139619,-83.3333333333333,4,3,6,70,0,1
140704,-83.3333333333333,4,3,3,100,0,1
140885,-83.3333333333333,4,3,6,85,0,1
141427,-83.3333333333333,4,3,12,85,0,1
141607,-83.3333333333333,4,3,11,85,0,1
141969,-83.3333333333333,4,3,10,85,0,1
142330,-83.3333333333333,4,3,1,100,0,1
142511,-83.3333333333333,4,3,4,60,0,1
147391,-83.3333333333333,4,3,4,80,0,1
147571,-83.3333333333333,4,3,3,85,0,1
148113,-83.3333333333333,4,3,1,100,0,1
148294,-83.3333333333333,4,3,4,60,0,1
151005,-83.3333333333333,4,3,2,85,0,1
151095,-83.3333333333333,4,3,4,60,0,1
151728,-83.3333333333333,4,3,5,70,0,1
151909,-83.3333333333333,4,3,4,70,0,1
152089,-83.3333333333333,4,3,5,70,0,1
152270,-83.3333333333333,4,3,4,70,0,1
152451,-83.3333333333333,4,3,1,100,0,1
152541,-83.3333333333333,4,3,4,85,0,1
152993,-83.3333333333333,4,3,12,85,0,1
153174,-83.3333333333333,4,3,11,85,0,1
153535,-83.3333333333333,4,3,10,85,0,1
153897,-100,4,3,1,85,0,0
158957,-100,4,2,1,40,0,0
159138,-142.857142857143,4,3,1,85,0,0
159499,-142.857142857143,4,2,1,5,0,0
159589,-142.857142857143,4,3,1,85,0,0
159680,-100,4,3,1,100,0,0
159860,-100,4,3,6,70,0,0
161848,-100,4,3,6,85,0,0
162571,361.44578313253,6,3,1,85,1,0
164378,-100,6,3,12,100,0,0
164468,-100,6,3,11,100,0,0
164558,-100,6,3,10,100,0,0
164740,361.44578313253,4,3,1,70,1,0
164830,-100,4,3,6,60,0,0
169438,-100,4,3,3,85,0,0
169529,-100,4,3,6,60,0,0
170161,-100,4,3,6,85,0,0
170523,-117.647058823529,4,3,2,85,0,0
170613,-117.647058823529,4,3,2,60,0,0
173053,-117.647058823529,4,3,7,60,0,0
173143,-117.647058823529,4,3,2,60,0,0
174860,-100,4,3,2,60,0,0
174905,-100,4,3,2,30,0,0
174950,-100,4,3,2,45,0,0
175221,-100,4,3,12,85,0,0
175583,-100,4,3,11,85,0,0
175944,-100,4,3,10,85,0,0
176306,-100,4,3,1,70,0,0
176396,-100,4,3,4,60,0,0
178655,-100,4,3,3,85,0,0
178746,-100,4,3,5,60,0,0
179197,-100,4,3,2,80,0,0
179288,-100,4,3,4,60,0,0
180462,-100,4,3,6,60,0,0
180824,-100,4,3,3,85,0,0
180914,-100,4,3,4,60,0,0
181005,-100,4,3,3,85,0,0
181095,-100,4,3,6,60,0,0
181456,-100,4,3,12,85,0,0
181547,-100,4,3,6,85,0,0
181727,-100,4,3,12,85,0,0
181818,-100,4,3,11,85,0,0
181908,-100,4,3,2,85,0,0
182179,-100,4,3,2,60,0,0
184619,-100,4,3,7,60,0,0
184709,-100,4,3,2,60,0,0
186065,-100,4,3,7,60,0,0
186155,-100,4,3,2,60,0,0
186426,-100,4,3,1,85,0,0
186486,-100,4,3,11,85,0,0
186607,-100,4,3,1,85,0,0
186697,-100,4,3,12,85,0,0
186818,-100,4,3,11,85,0,0
186878,-100,4,3,2,85,0,0
186968,-100,4,3,1,85,0,0
187330,-100,4,3,12,85,0,0
187511,-100,4,3,11,85,0,0
187872,-100,4,3,1,100,0,0
187962,-100,4,3,2,60,0,0
190764,-90.9090909090909,4,3,3,100,0,0
190854,-90.9090909090909,4,3,2,60,0,0
192209,-86.9565217391304,4,3,3,100,0,0
192300,-86.9565217391304,4,3,2,60,0,0
193655,-83.3333333333333,4,3,3,100,0,0
193746,-83.3333333333333,4,3,6,60,0,0
195101,-80,4,3,1,100,0,0
195191,-80,4,3,6,60,0,0
196547,-76.9230769230769,4,3,2,100,0,0
196637,-76.9230769230769,4,3,6,60,0,0
197450,-76.9230769230769,4,3,3,85,0,0
197631,-76.9230769230769,4,3,2,85,0,0
197812,-76.9230769230769,4,3,2,50,0,0
197993,-83.3333333333333,4,3,3,100,0,0
198083,-83.3333333333333,4,3,6,50,0,0
198535,-90.9090909090909,4,3,3,100,0,0
198625,-90.9090909090909,4,3,6,50,0,0
199077,-100,4,3,2,100,0,0
199167,-100,4,3,6,50,0,0
199619,-100,4,3,1,100,0,0
199709,-100,4,3,6,50,0,0
200161,-100,4,3,6,85,0,0
200523,-100,4,3,10,85,0,0
200643,-100,4,3,6,85,0,0
200884,-100,4,3,1,100,0,0
201065,-100,4,3,1,60,0,0
201426,-100,4,3,2,60,0,0
201968,-100,4,3,1,60,0,0
202691,-100,4,3,2,60,0,0
203053,-100,4,3,3,60,0,0
203414,-100,4,3,2,60,0,0
203776,-100,4,3,1,100,0,0
203956,-100,4,3,1,60,0,0
204318,-100,4,3,2,60,0,0
204860,-100,4,3,1,60,0,0
205221,-100,4,3,2,60,0,0
205583,-100,4,3,3,60,0,0
205944,-100,4,3,2,85,0,0
206306,-100,4,3,11,85,0,0
206486,-100,4,3,10,85,0,0
206667,-100,4,3,1,80,0,0
206848,-100,4,3,6,60,0,0
212089,-100,4,3,3,85,0,0
212179,-100,4,3,6,60,0,0
212450,-86.9565217391304,4,3,2,100,0,0
212541,-86.9565217391304,4,3,6,60,0,0
217872,-86.9565217391304,4,3,3,100,0,0
217962,-86.9565217391304,4,3,6,60,0,0
218233,-86.9565217391304,4,3,2,100,0,0
218324,-86.9565217391304,4,3,6,60,0,0
220402,-86.9565217391304,4,3,2,85,0,0
220493,-86.9565217391304,4,3,6,60,0,0
220764,-86.9565217391304,4,3,3,85,0,0
220854,-86.9565217391304,4,3,6,60,0,0
221125,-86.9565217391304,4,3,1,85,0,0
221215,-86.9565217391304,4,3,12,85,0,0
221306,-86.9565217391304,4,3,1,85,0,0
221396,-86.9565217391304,4,3,12,85,0,0
221486,-86.9565217391304,4,3,1,85,0,0
221758,-86.9565217391304,4,3,12,85,0,0
221848,-86.9565217391304,4,3,1,85,0,0
221938,-86.9565217391304,4,3,12,85,0,0
222029,-86.9565217391304,4,3,1,85,0,0
222209,-86.9565217391304,4,3,2,100,0,0
222300,-86.9565217391304,4,3,1,60,0,0
222571,-100,4,3,6,100,0,0
222752,-100,4,3,6,60,0,0
227631,-100,4,3,6,85,0,0
227721,-100,4,3,6,45,0,0
227812,-100,4,3,6,65,0,0
227902,-100,4,3,6,85,0,0
228083,-100,4,3,12,85,0,0
228173,-100,4,3,1,85,0,0
228354,-86.9565217391304,4,3,3,100,0,0
228444,-86.9565217391304,4,3,6,60,0,0
231246,-86.9565217391304,4,3,2,100,0,0
231426,-86.9565217391304,4,3,6,60,0,0
231968,-86.9565217391304,4,3,1,85,0,0
232330,-86.9565217391304,4,3,11,85,0,0
232450,-86.9565217391304,4,3,10,85,0,0
232691,-100,4,3,1,100,0,0
232782,-100,4,3,1,5,0,0
233053,-100,4,3,1,60,0,0
233233,-100,4,3,1,100,0,0
233324,-100,4,3,1,5,0,0
233535,-100,4,3,12,45,0,0
233655,-125,4,3,11,65,0,0
233896,-125,4,3,10,65,0,0
234137,-100,4,3,1,100,0,0
234227,-100,4,3,1,5,0,0
234499,-100,4,3,1,60,0,0
234679,-100,4,3,1,100,0,0
234770,-100,4,3,1,5,0,0
235041,-200,4,3,3,85,0,0
235583,-100,4,3,2,100,0,0
235703,-100,4,3,6,60,0,0
236667,-100,4,3,3,85,0,0
236758,-100,4,3,6,60,0,0
237029,-100,4,3,1,85,0,0
237149,-100,4,3,12,85,0,0
237270,-100,4,3,1,85,0,0
237631,-100,4,3,11,85,0,0
237752,-100,4,3,1,85,0,0
238113,-100,4,3,10,85,0,0
238233,-100,4,3,1,85,0,0
238474,-100,4,3,1,100,0,0
238565,-100,4,3,6,60,0,0
244258,-100,4,3,2,100,0,0
244438,-100,4,3,6,60,0,0
249408,-100,4,3,6,35,0,0
249499,-100,4,3,6,45,0,0
249589,-100,4,3,6,55,0,0
249679,-100,4,3,6,65,0,0
249770,-100,4,3,6,75,0,0
249860,-100,4,3,6,85,0,0
250041,-100,4,3,1,100,0,0
250131,-100,4,3,2,60,0,0
252932,-100,4,3,3,85,0,0
253023,-100,4,3,2,60,0,0
255101,-100,4,3,2,85,0,0
255191,-100,4,3,12,85,0,0
255282,-100,4,3,2,85,0,0
255824,-100,4,3,3,85,0,0
255914,-100,4,3,2,60,0,0
257993,-100,4,3,2,85,0,0
258354,-100,4,3,11,85,0,0
258444,-100,4,3,10,85,0,0
258535,-100,4,3,2,85,0,0
258715,-100,4,3,1,100,0,0
259258,-100,4,3,3,85,0,0
259800,-100,4,3,2,85,0,0
260161,-100,4,3,1,100,0,0
260703,-100,4,3,3,85,0,0
261246,-100,4,3,2,85,0,0
263053,-83.3333333333333,4,3,1,100,0,1
263414,-83.3333333333333,4,3,2,85,0,1
263776,-83.3333333333333,4,3,3,85,0,1
264499,-83.3333333333333,4,3,1,100,0,1
264679,-83.3333333333333,4,3,6,70,0,1
267390,-83.3333333333333,4,3,1,100,0,1
267571,-83.3333333333333,4,3,6,70,0,1
270282,-83.3333333333333,4,3,2,85,0,1
270462,-83.3333333333333,4,3,6,70,0,1
273173,-83.3333333333333,4,3,1,100,0,1
273354,-83.3333333333333,4,3,6,70,0,1
278956,-83.3333333333333,4,3,1,100,0,1
279137,-83.3333333333333,4,3,6,70,0,1
281848,-83.3333333333333,4,3,2,85,0,1
282029,-83.3333333333333,4,3,6,70,0,1
283113,-83.3333333333333,4,3,3,85,0,1
283294,-83.3333333333333,4,3,6,85,0,1
283384,-83.3333333333333,4,3,6,45,0,1
283474,-83.3333333333333,4,3,6,55,0,1
283565,-83.3333333333333,4,3,6,65,0,1
283655,-83.3333333333333,4,3,6,75,0,1
283746,-83.3333333333333,4,3,6,85,0,1
283836,-83.3333333333333,4,3,12,85,0,1
284017,-83.3333333333333,4,3,11,85,0,1
284197,-83.3333333333333,4,3,10,85,0,1
284378,-83.3333333333333,4,3,6,85,0,1
284468,-83.3333333333333,4,3,10,85,0,1
284649,-83.3333333333333,4,3,10,85,0,0
284739,-83.3333333333333,4,3,1,100,0,1
284830,-83.3333333333333,4,3,4,70,0,1
290523,-83.3333333333333,4,3,2,100,0,1
290703,-83.3333333333333,4,3,6,70,0,1
293414,-83.3333333333333,4,3,2,85,0,1
293505,-83.3333333333333,4,3,6,70,0,1
294860,-83.3333333333333,4,3,3,70,0,1
295041,-100,4,3,6,45,0,1
295086,-100,4,3,6,65,0,1
295131,-100,4,3,6,85,0,1
295221,-100,4,3,6,65,0,1
295312,-83.3333333333333,4,3,6,85,0,1
295402,-100,4,3,6,65,0,1
295583,-83.3333333333333,4,3,6,85,0,1
295944,-83.3333333333333,4,3,11,85,0,1
296125,-83.3333333333333,4,3,10,85,0,1
296306,-83.3333333333333,4,3,3,100,0,1
296486,-83.3333333333333,4,3,4,70,0,1
301547,-83.3333333333333,4,3,3,85,0,1
301727,-83.3333333333333,4,3,4,70,0,1
301908,-83.3333333333333,4,3,3,85,0,1
301999,-83.3333333333333,4,3,4,70,0,1
302089,-83.3333333333333,4,3,2,100,0,1
302270,-83.3333333333333,4,3,4,70,0,1
304980,-100,4,3,2,85,0,1
305071,-100,4,3,4,70,0,1
306426,-100,4,3,3,85,0,1
306607,-100,4,3,4,35,0,1
306697,-100,4,3,4,45,0,1
306788,-100,4,3,4,55,0,1
306878,-100,4,3,4,65,0,1
306968,-100,4,3,4,75,0,1
307059,-100,4,3,4,85,0,1
307149,-100,4,3,4,100,0,1
307239,-100,4,3,4,5,0,1
307420,-100,4,3,10,100,0,1
307511,-100,4,3,4,5,0,1
307691,-100,4,3,10,100,0,1
307872,-100,4,3,1,100,0,0
307962,-100,4,2,1,5,0,0
313655,-100,4,3,1,85,0,0
319077,-200,4,3,2,100,0,0
319167,-142.857142857143,4,3,1,5,0,0
319438,361.44578313253,7,3,3,100,1,0
319438,-111.111111111111,7,3,3,100,0,0
319528,-111.111111111111,7,3,6,60,0,0
324498,-105.263157894737,7,3,2,85,0,0
324588,-105.263157894737,7,3,6,60,0,0
329558,-105.263157894737,7,3,1,85,0,0
329648,-100,7,3,6,60,0,0
332088,-95.2380952380952,7,3,3,85,0,0
332178,-95.2380952380954,7,3,6,60,0,0
334618,-90.9090909090909,7,3,3,85,0,0
334709,-90.9090909090909,7,3,6,60,0,0
337148,-86.9565217391304,7,3,1,85,0,0
337239,-86.9565217391306,7,3,6,60,0,0
338233,-86.9565217391306,7,3,2,85,0,0
338323,-86.9565217391306,7,3,6,60,0,0
339046,-86.9565217391306,7,3,12,85,0,0
339227,-86.9565217391306,7,3,11,85,0,0
339407,-86.9565217391306,7,3,10,85,0,0
339678,-83.3333333333333,7,3,1,100,0,0
339769,-83.3333333333333,7,3,6,60,0,0
341666,-83.3333333333333,7,3,2,85,0,0
341757,-83.3333333333333,7,3,6,60,0,0
342028,-83.3333333333333,7,3,3,85,0,0
342118,-83.3333333333333,7,3,6,60,0,0
342209,-80,7,3,1,100,0,0
342299,-80,7,3,2,70,0,0
344377,-80,7,3,3,70,0,0
344739,-80,7,3,1,80,0,0
345281,-80,7,3,2,70,0,0
346004,-80,7,3,1,70,0,0
346546,-80,7,3,3,70,0,0
347269,-80,7,3,2,100,0,0

[Colours]
Combo1 : 240,120,120
Combo2 : 80,80,160
Combo3 : 160,80,80
Combo4 : 160,80,160

[HitObjects]
216,232,844,6,8,L|260:256,1,50,8|8,2:3|2:3,0:0:0:0:
228,328,1014,2,8,L|184:304,1,50,8|8,2:3|2:3,0:0:0:0:
308,320,1184,1,8,2:3:0:0:
240,136,3571,6,8,L|196:112,1,50,8|8,2:3|2:3,0:0:0:0:
228,40,3741,2,8,L|272:64,1,50,8|8,2:3|2:3,0:0:0:0:
148,48,3911,1,8,2:3:0:0:
310,206,5616,5,8,0:0:0:0:
319,188,5701,1,8,0:0:0:0:
324,169,5787,1,4,0:0:0:0:
325,149,5872,1,4,0:0:0:0:
323,129,5957,1,8,0:0:0:0:
317,110,6042,1,4,0:0:0:0:
308,92,6128,1,4,0:0:0:0:
295,77,6213,1,4,0:0:0:0:
280,64,6298,22,0,P|256:56|232:56,1,50,8|0,2:3|0:0,0:0:0:0:
196,120,6469,2,0,P|220:128|244:128,1,50,4|8,0:0|0:0,0:0:0:0:
156,56,6639,1,4,0:0:0:0:
240,200,6809,5,2,2:3:0:0:
196,312,7321,1,2,2:0:0:0:
88,192,8003,1,2,2:0:0:0:
140,132,8173,21,4,0:0:0:0:
136,120,8230,1,4,0:0:0:0:
132,108,8287,1,4,0:0:0:0:
128,96,8344,6,0,B|80:84|80:84|28:96,1,100,10|4,0:0|0:0,0:0:0:0:
88,192,8684,2,0,B|136:204|136:204|188:192,1,100,8|4,0:0|0:0,0:0:0:0:
284,80,9025,2,0,L|304:32,1,50,8|8,2:3|0:0,0:0:0:0:
388,88,9196,2,0,L|368:134,1,50,4|4,0:0|0:0,0:0:0:0:
348,252,9366,1,8,0:0:0:0:
352,268,9451,1,4,0:0:0:0:
356,284,9537,1,4,0:0:0:0:
360,300,9622,1,4,0:0:0:0:
364,316,9707,38,0,L|398:330,2,33.3333333333333,8|4|4,0:0|0:0|0:0,0:0:0:0:
272,336,9934,22,0,P|240:336|204:340,1,66.6666666666667,8|4,0:0|0:0,0:0:0:0:
113,251,10162,2,0,P|145:251|181:247,1,66.6666666666667,8|4,0:0|0:0,0:0:0:0:
260,216,10389,6,0,B|276:204|276:204|288:184|288:184|312:168,2,66.6666666666667,10|4|10,0:0|0:0|0:0,0:0:0:0:
180,248,10737,2,0,B|164:260|164:260|152:280|152:280|128:296,2,66.6666666666667,4|8|4,0:0|0:0|0:0,0:0:0:0:
204,164,11086,1,8,0:0:0:0:
188,120,11202,1,4,0:0:0:0:
172,76,11319,1,8,0:0:0:0:
128,92,11435,1,4,0:0:0:0:
112,136,11551,1,4,0:0:0:0:
96,180,11668,1,4,0:0:0:0:
52,164,11784,6,0,L|36:132,2,33.3333333333333,8|4|4,0:0|0:0|0:0,0:0:0:0:
40,236,12016,5,4,0:0:0:0:
84,252,12133,1,8,0:0:0:0:
128,268,12249,1,4,0:0:0:0:
172,284,12365,1,4,0:0:0:0:
220,300,12482,6,0,B|276:312|276:312|328:304,1,110.000003356934,10|4,0:0|0:0,0:0:0:0:
360,272,12753,1,4,0:0:0:0:
360,272,12843,1,10,0:0:0:0:
200,120,13024,2,0,P|180:68|184:12,1,110.000003356934,4|10,0:0|0:0,0:0:0:0:
456,204,13385,2,0,P|476:256|472:312,1,110.000003356934,4|10,0:0|0:0,0:0:0:0:
184,196,13747,5,4,0:0:0:0:
140,172,13837,1,4,0:0:0:0:
96,148,13927,1,10,0:0:0:0:
336,36,14108,1,4,0:0:0:0:
336,36,14198,1,4,0:0:0:0:
336,36,14289,2,0,P|356:88|352:144,1,110.000003356934,10|4,0:0|0:0,0:0:0:0:
184,196,14650,1,10,0:0:0:0:
360,272,14831,21,4,0:0:0:0:
360,272,14921,1,4,0:0:0:0:
360,272,15012,2,0,B|396:252|396:252|384:208|384:208|440:176|424:68,1,220.000006713867,10|10,0:0|0:0,0:0:0:0:
204,64,15554,1,4,0:0:0:0:
156,76,15644,1,4,0:0:0:0:
108,88,15735,1,10,0:0:0:0:
92,308,15915,2,0,P|148:324|212:316,1,110.000003356934,4|10,0:0|0:0,0:0:0:0:
312,76,16277,2,0,P|256:60|192:68,1,110.000003356934,4|10,0:0|0:0,0:0:0:0:
84,176,16638,1,4,0:0:0:0:
264,284,16819,5,10,0:0:0:0:
296,276,16909,1,4,0:0:0:0:
328,268,17000,1,4,0:0:0:0:
360,260,17090,1,4,0:0:0:0:
380,220,17180,5,10,0:0:0:0:
348,212,17271,1,4,0:0:0:0:
316,204,17361,1,4,0:0:0:0:
284,196,17451,1,4,0:0:0:0:
252,164,17542,21,10,0:0:0:0:
284,156,17632,1,4,0:0:0:0:
316,148,17722,1,4,0:0:0:0:
348,140,17813,1,4,0:0:0:0:
368,100,17903,6,8,L|316:84,1,55.0000016784668
320,12,18084,2,8,L|372:28,1,55.0000016784668
220,60,18265,5,10,0:0:0:0:
252,164,18445,2,0,P|264:216|244:276,1,110.000003356934,4|10,0:0|0:0,0:0:0:0:
8,224,18807,2,0,P|-4:172|16:112,1,110.000003356934,4|10,0:0|0:0,0:0:0:0:
220,60,19168,1,4,0:0:0:0:
268,72,19259,1,4,0:0:0:0:
316,84,19349,1,10,0:0:0:0:
420,240,19530,1,4,0:0:0:0:
268,348,19710,22,0,P|212:356|160:348,1,110.000003356934,10|4,0:0|0:0,0:0:0:0:
252,164,20072,2,0,P|308:156|360:164,1,110.000003356934,10|4,0:0|0:0,0:0:0:0:
444,320,20433,1,10,0:0:0:0:
268,348,20614,5,4,0:0:0:0:
268,348,20704,1,4,0:0:0:0:
268,348,20795,2,0,B|228:336|228:336|240:288|240:288|164:276|136:204,1,220.000006713867,10|10,0:0|0:0,0:0:0:0:
256,28,21337,2,0,P|300:60|320:116,1,110.000003356934,4|10,0:0|0:0,0:0:0:0:
112,304,21698,2,0,P|68:272|48:216,1,110.000003356934,4|10,0:0|0:0,0:0:0:0:
252,164,22060,1,4,0:0:0:0:
300,172,22150,1,4,0:0:0:0:
348,180,22241,1,10,0:0:0:0:
444,320,22421,5,6,0:0:0:0:
444,320,22512,1,6,0:0:0:0:
444,320,22602,2,0,L|456:376,1,55.0000016784668,8|8,0:0|0:0,0:0:0:0:
304,352,22783,21,6,0:0:0:0:
304,352,22874,1,6,0:0:0:0:
304,352,22964,2,0,L|288:284,1,59.9999981689454,8|8,0:0|0:0,0:0:0:0:
428,180,23144,5,6,0:0:0:0:
428,180,23235,1,6,0:0:0:0:
428,180,23325,2,0,L|444:244,1,64.9999970245363,8|8,0:0|0:0,0:0:0:0:
252,164,23506,5,8,0:0:0:0:
252,164,23596,1,4,0:0:0:0:
252,164,23686,1,8,0:0:0:0:
286,204,23776,1,4,0:0:0:0:
274,256,23866,1,8,0:0:0:0:
226,278,23957,1,4,0:0:0:0:
180,252,24048,21,6,0:0:0:0:
196,108,24228,2,0,P|192:48|168:4,1,110.000003356934,10|4,0:0|0:0,0:0:0:0:
44,232,24590,2,0,P|48:292|72:336,1,110.000003356934,10|4,0:0|0:0,0:0:0:0:
256,364,24951,1,10,0:0:0:0:
304,352,25042,1,4,0:0:0:0:
352,340,25132,1,4,0:0:0:0:
428,168,25313,5,10,0:0:0:0:
272,120,25494,2,0,P|264:176|276:228,1,110.000003356934,4|10,0:0|0:0,0:0:0:0:
512,216,25855,2,0,P|520:160|508:108,1,110.000003356934,4|10,0:0|0:0,0:0:0:0:
324,32,26216,1,4,0:0:0:0:
276,36,26307,1,4,0:0:0:0:
228,40,26397,1,10,0:0:0:0:
180,44,26488,1,4,0:0:0:0:
132,48,26578,2,0,B|108:100|108:100|148:136|148:136|112:196|144:252,1,220.000006713867,4|4,0:0|0:0,0:0:0:0:
340,324,27120,6,0,P|396:328|444:304,1,110.000003356934,10|4,0:0|0:0,0:0:0:0:
176,156,27481,2,0,P|120:152|72:176,1,110.000003356934,10|4,0:0|0:0,0:0:0:0:
376,228,27843,1,10,0:0:0:0:
376,228,27933,1,4,0:0:0:0:
376,228,28024,1,4,0:0:0:0:
264,364,28204,1,10,0:0:0:0:
140,240,28385,22,0,L|112:192,1,55.0000016784668,6|4,0:0|0:0,0:0:0:0:
176,156,28566,2,0,L|204:204,1,55.0000016784668,8|4,0:0|0:0,0:0:0:0:
340,324,28747,6,0,L|368:276,1,55.0000016784668,4|4,0:0|0:0,0:0:0:0:
304,240,28928,2,0,L|276:288,1,55.0000016784668,10|4,0:0|0:0,0:0:0:0:
64,384,29108,6,0,L|36:336,1,55.0000016784668,6|4,0:0|0:0,0:0:0:0:
100,300,29289,2,0,L|128:348,1,55.0000016784668,8|4,0:0|0:0,0:0:0:0:
400,360,29469,21,6,0:0:0:0:
424,316,29560,1,6,0:0:0:0:
448,272,29650,1,8,0:0:0:0:
468,228,29741,1,4,0:0:0:0:
492,184,29831,5,6,0:0:0:0:
384,32,30012,2,0,P|332:16|276:32,1,110.000003356934,10|4,0:0|0:0,0:0:0:0:
199,238,30373,2,0,P|251:254|307:238,1,110.000003356934,10|4,0:0|0:0,0:0:0:0:
132,48,30735,1,10,0:0:0:0:
132,48,30825,1,4,0:0:0:0:
132,48,30915,1,4,0:0:0:0:
32,220,31096,5,10,0:0:0:0:
192,336,31277,2,0,B|248:348|248:348|300:336,1,110.000003356934,4|10,0:0|0:0,0:0:0:0:
108,144,31638,2,0,B|52:132|52:132|0:144,1,110.000003356934,4|10,0:0|0:0,0:0:0:0:
356,272,32000,1,4,0:0:0:0:
376,228,32090,1,4,0:0:0:0:
396,184,32180,1,10,0:0:0:0:
416,140,32271,1,4,0:0:0:0:
436,96,32361,2,0,B|408:48|408:48|356:72|356:72|312:40|248:64,1,220.000006713867,4|4,0:0|0:0,0:0:0:0:
32,220,32903,22,0,P|28:276|52:324,1,110.000003356934,10|4,0:0|0:0,0:0:0:0:
272,164,33265,2,0,P|276:108|252:60,1,110.000003356934,10|4,0:0|0:0,0:0:0:0:
112,256,33626,1,10,0:0:0:0:
112,256,33716,1,4,0:0:0:0:
112,256,33807,1,4,0:0:0:0:
292,304,33988,1,10,0:0:0:0:
428,176,34168,5,4,0:0:0:0:
436,144,34259,1,4,0:0:0:0:
444,112,34349,1,10,0:0:0:0:
292,304,34530,1,10,0:0:0:0:
361,130,34710,5,6,0:0:0:0:
354,98,34801,1,4,0:0:0:0:
348,65,34891,1,10,0:0:0:0:
292,304,35072,1,10,0:0:0:0:
280,117,35253,21,4,0:0:0:0:
261,91,35344,1,4,0:0:0:0:
241,63,35434,1,10,0:0:0:0:
292,304,35615,1,10,0:0:0:0:
202,139,35795,5,4,0:0:0:0:
173,124,35886,1,4,0:0:0:0:
143,107,35976,1,10,0:0:0:0:
292,304,36157,1,10,0:0:0:0:
140,192,36337,5,4,0:0:0:0:
108,191,36428,1,4,0:0:0:0:
73,188,36518,1,8,0:0:0:0:
292,304,36699,1,8,0:0:0:0:
284,56,36879,1,8,0:0:0:0:
73,188,37060,22,0,P|60:236|68:288,1,100,6|10,0:0|0:0,0:0:0:0:
208,360,37421,1,4,0:0:0:0:
208,360,37512,1,4,0:0:0:0:
208,360,37602,1,10,0:0:0:0:
384,320,37783,1,4,0:0:0:0:
264,188,37963,1,10,0:0:0:0:
264,188,38054,1,4,0:0:0:0:
292,304,38235,1,4,0:0:0:0:
292,304,38326,1,10,0:0:0:0:
380,220,38506,6,0,P|384:168|364:120,1,100,4|10,0:0|0:0,0:0:0:0:
260,68,38867,1,4,0:0:0:0:
260,68,38957,1,4,0:0:0:0:
260,68,39048,1,10,0:0:0:0:
196,168,39228,1,4,0:0:0:0:
160,160,39319,1,4,0:0:0:0:
124,152,39409,1,10,0:0:0:0:
220,288,39590,1,4,0:0:0:0:
256,296,39681,1,4,0:0:0:0:
292,304,39771,1,10,0:0:0:0:
108,248,39951,6,0,P|100:300|120:352,1,100,4|10,0:0|0:0,0:0:0:0:
292,304,40313,1,4,0:0:0:0:
292,304,40403,1,4,0:0:0:0:
292,304,40494,1,10,0:0:0:0:
412,168,40674,1,4,0:0:0:0:
260,68,40855,1,10,0:0:0:0:
260,68,40945,1,4,0:0:0:0:
336,220,41126,1,4,0:0:0:0:
336,220,41216,1,10,0:0:0:0:
432,80,41397,22,0,P|412:32|376:0,1,100,4|10,0:0|0:0,0:0:0:0:
196,24,41759,1,4,0:0:0:0:
196,24,41849,1,4,0:0:0:0:
196,24,41939,1,10,0:0:0:0:
100,176,42120,2,0,P|112:200|132:216,1,50,6|8,0:0|0:0,0:0:0:0:
168,152,42301,2,0,P|156:128|136:112,1,50,8|8,0:0|0:0,0:0:0:0:
204,216,42481,1,8,0:0:0:0:
241,248,42571,1,8,0:0:0:0:
255,295,42661,1,4,0:0:0:0:
243,343,42752,1,4,0:0:0:0:
207,376,42843,6,0,P|156:384|112:368,1,100,10|4,0:0|0:0,0:0:0:0:
336,220,43204,2,0,P|387:212|431:228,1,100,10|4,0:0|0:0,0:0:0:0:
168,300,43566,1,10,0:0:0:0:
84,140,43747,1,4,0:0:0:0:
100,104,43837,1,4,0:0:0:0:
116,68,43927,1,10,0:0:0:0:
272,176,44108,1,4,0:0:0:0:
256,212,44198,1,4,0:0:0:0:
240,248,44289,2,0,P|232:300|264:352,1,100,10|4,0:0|0:0,0:0:0:0:
432,228,44650,5,8,0:0:0:0:
272,176,44831,1,4,0:0:0:0:
272,176,44921,1,4,0:0:0:0:
272,176,45012,2,0,L|280:124,1,50,8|8,0:0|0:0,0:0:0:0:
392,296,45192,1,4,0:0:0:0:
392,296,45282,1,4,0:0:0:0:
392,296,45373,2,0,L|384:348,1,50,8|8,0:0|0:0,0:0:0:0:
160,248,45554,1,4,0:0:0:0:
160,248,45644,1,4,0:0:0:0:
160,248,45735,22,0,L|168:200,4,44.999998626709,10|0|0|0|0,0:0|0:0|0:0|0:0|0:0,0:0:0:0:
52,316,46277,2,0,L|64:372,4,55.0000016784668,10|0|0|0|0,0:0|0:0|0:0|0:0|0:0,0:0:0:0:
272,176,46819,2,0,L|256:112,4,64.9999970245363,10|0|0|0|0,0:0|0:0|0:0|0:0|0:0,0:0:0:0:
16,180,47361,2,0,L|0:256,4,75.0000028610231,10|0|0|0|0,0:0|0:0|0:0|0:0|0:0,0:0:0:0:
132,336,47903,5,8,0:0:0:0:
152,344,47994,1,8,0:0:0:0:
172,352,48084,1,4,0:0:0:0:
192,360,48174,1,4,0:0:0:0:
224,344,48265,5,8,0:0:0:0:
252,332,48354,1,8,0:0:0:0:
280,320,48446,1,8,0:0:0:0:
308,308,48536,1,8,0:0:0:0:
340,324,48625,21,8,0:0:0:0:
360,332,48716,1,4,0:0:0:0:
380,340,48806,1,8,0:0:0:0:
400,348,48896,1,4,0:0:0:0:
432,332,48988,6,0,P|444:312|448:284,1,44.999998626709,8|0,0:0|2:0,0:0:0:0:
388,176,49168,6,0,B|332:148|292:180|248:216|188:176,1,200,6|4,0:0|0:0,0:0:0:0:
184,172,49620,1,4,0:0:0:0:
172,164,49710,1,10,0:0:0:0:
280,60,49891,1,4,0:0:0:0:
292,68,49981,1,4,0:0:0:0:
304,76,50071,1,6,0:0:0:0:
348,248,50252,2,0,P|344:304|312:348,1,100,4|10,0:0|0:0,0:0:0:0:
180,344,50614,21,4,0:0:0:0:
168,336,50704,1,4,0:0:0:0:
156,328,50794,1,6,0:0:0:0:
252,256,50975,1,4,0:0:0:0:
172,164,51156,1,10,0:0:0:0:
76,236,51336,1,4,0:0:0:0:
252,256,51517,6,0,B|272:208|272:208|264:160,1,100,6|4,0:0|0:0,0:0:0:0:
76,236,51879,2,0,B|56:284|56:284|64:332,1,100,10|4,0:0|0:0,0:0:0:0:
256,332,52240,1,6,0:0:0:0:
176,240,52421,1,4,0:0:0:0:
340,168,52602,1,10,0:0:0:0:
424,252,52782,2,0,P|432:304|416:356,1,100,4|6,0:0|0:0,0:0:0:0:
176,320,53144,5,4,0:0:0:0:
176,320,53234,1,4,0:0:0:0:
176,320,53324,1,10,0:0:0:0:
240,160,53505,1,4,0:0:0:0:
240,160,53595,1,4,0:0:0:0:
240,160,53685,1,6,0:0:0:0:
132,180,53867,1,4,0:0:0:0:
284,300,54047,1,10,0:0:0:0:
340,168,54228,1,4,0:0:0:0:
196,96,54409,22,0,B|180:48|180:48|192:0,1,100,6|4,0:0|0:0,0:0:0:0:
340,168,54770,2,0,B|356:216|356:216|344:264,1,100,10|4,0:0|0:0,0:0:0:0:
132,180,55132,2,0,P|76:184|32:212,1,100,2|4,0:0|0:0,0:0:0:0:
228,240,55493,1,10,0:0:0:0:
228,240,55674,1,4,0:0:0:0:
117,265,55855,2,0,P|80:307|68:358,1,100,6|4,0:0|0:0,0:0:0:0:
228,240,56216,1,10,0:0:0:0:
228,240,56397,1,4,0:0:0:0:
339,215,56577,2,0,P|375:172|387:121,1,100,6|4,0:0|0:0,0:0:0:0:
228,240,56938,1,10,0:0:0:0:
228,240,57119,1,4,0:0:0:0:
324,300,57300,6,0,B|376:304|376:304|428:284,1,100,6|4,0:0|0:0,0:0:0:0:
268,148,57662,2,0,B|216:144|216:144|164:164,1,100,10|4,0:0|0:0,0:0:0:0:
48,228,58023,1,6,0:0:0:0:
128,352,58204,1,4,0:0:0:0:
228,240,58385,1,10,0:0:0:0:
160,100,58565,2,0,P|148:52|160:0,1,100,4|6,0:0|0:0,0:0:0:0:
268,148,58927,5,4,0:0:0:0:
284,172,59017,1,4,0:0:0:0:
300,196,59108,1,10,0:0:0:0:
124,196,59288,1,4,0:0:0:0:
108,172,59378,1,4,0:0:0:0:
92,148,59469,1,6,0:0:0:0:
253,50,59650,1,4,0:0:0:0:
364,152,59830,1,10,0:0:0:0:
324,300,60011,1,4,0:0:0:0:
104,328,60192,21,6,0:0:0:0:
87,294,60282,1,4,0:0:0:0:
84,257,60372,1,4,0:0:0:0:
97,222,60463,1,4,0:0:0:0:
124,196,60553,2,0,P|152:184|168:168,1,50,8|8,0:0|0:0,0:0:0:0:
108,128,60734,2,0,P|80:140|64:156,1,50,4|8,0:0|0:0,0:0:0:0:
164,268,60915,6,0,B|220:296|260:264|304:228|364:268,1,200,6|10,0:0|0:0,0:0:0:0:
312,356,61457,1,4,0:0:0:0:
200,188,61638,1,0,0:2:0:0:
352,144,61818,1,4,0:0:0:0:
380,136,61909,1,4,0:0:0:0:
408,128,61999,1,10,0:0:0:0:
220,252,62180,1,4,0:0:0:0:
192,260,62271,1,4,0:0:0:0:
164,268,62361,1,6,0:0:0:0:
108,128,62541,1,4,0:0:0:0:
276,164,62722,1,10,0:0:0:0:
88,288,62903,1,4,0:0:0:0:
312,352,63083,6,0,B|364:356|364:356|416:340,1,100,6|4,0:0|0:0,0:0:0:0:
428,316,63355,1,4,0:0:0:0:
428,316,63445,1,10,0:0:0:0:
276,164,63626,2,0,B|224:160|224:160|172:176,1,100,4|6,0:0|0:0,0:0:0:0:
88,288,63987,1,4,0:0:0:0:
220,252,64168,1,10,0:0:0:0:
40,172,64348,2,0,P|28:124|44:76,1,100,4|4,0:0|0:0,0:0:0:0:
192,16,64710,21,4,0:0:0:0:
220,12,64800,1,4,0:0:0:0:
248,8,64891,1,10,0:0:0:0:
188,156,65071,1,4,0:0:0:0:
160,160,65161,1,4,0:0:0:0:
132,164,65252,1,6,0:0:0:0:
80,12,65433,1,4,0:0:0:0:
256,104,65614,1,10,0:0:0:0:
40,172,65794,1,4,0:0:0:0:
220,252,65975,6,0,B|272:260|272:260|324:248,1,100,6|4,0:0|0:0,0:0:0:0:
256,104,66336,2,0,B|204:96|204:96|152:108,1,100,10|4,0:0|0:0,0:0:0:0:
48,252,66698,2,0,P|44:304|68:352,1,100,2|4,0:0|0:0,0:0:0:0:
116,196,67059,1,10,0:0:0:0:
116,196,67240,1,4,0:0:0:0:
129,280,67421,2,0,P|172:309|225:312,1,100,6|4,0:0|0:0,0:0:0:0:
116,196,67782,1,10,0:0:0:0:
116,196,67963,1,4,0:0:0:0:
195,226,68144,2,0,P|242:203|271:158,1,100,6|4,0:0|0:0,0:0:0:0:
116,196,68505,1,10,0:0:0:0:
116,196,68686,1,4,0:0:0:0:
184,144,68867,6,0,B|188:92|188:92|163:44,1,100,6|4,0:0|0:0,0:0:0:0:
48,252,69228,2,0,B|44:304|44:304|68:351,1,100,10|4,0:0|0:0,0:0:0:0:
240,360,69589,1,6,0:0:0:0:
195,226,69770,1,4,0:0:0:0:
140,344,69951,1,8,0:0:0:0:
304,268,70132,2,0,P|356:256|412:264,1,100,4|6,0:0|0:0,0:0:0:0:
500,348,70493,21,4,0:0:0:0:
500,348,70583,1,4,0:0:0:0:
500,348,70674,1,10,0:0:0:0:
240,360,70855,1,4,0:0:0:0:
240,360,70945,1,4,0:0:0:0:
240,360,71036,1,8,0:0:0:0:
404,264,71216,1,8,0:0:0:0:
195,226,71397,38,0,L|160:220,2,33.3333333333333,8|8|8,0:0|0:0|0:0,0:0:0:0:
228,224,71577,6,0,P|252:212|272:192,1,50,4|4,0:0|0:0,0:0:0:0:
304,108,71758,2,0,L|300:56,1,50,8|8,0:0|0:0,0:0:0:0:
208,96,71939,2,0,L|204:148,1,50,8|8,0:0|0:0,0:0:0:0:
120,172,72119,1,8,0:0:0:0:
95,173,72209,1,4,0:0:0:0:
70,175,72299,1,8,0:0:0:0:
45,177,72390,1,4,0:0:0:0:
20,179,72480,5,6,0:0:0:0:
304,268,72662,1,10,0:0:0:0:
304,268,73023,2,0,P|316:328|296:384,1,119.999996337891,10|4,0:0|0:0,0:0:0:0:
113,286,73385,2,0,P|101:226|121:170,1,119.999996337891,10|4,0:0|0:0,0:0:0:0:
248,100,73746,1,10,0:0:0:0:
336,164,73927,2,0,B|392:184|392:184|456:168,1,119.999996337891,4|10,0:0|0:0,0:0:0:0:
248,24,74288,2,0,B|192:4|192:4|128:20,1,119.999996337891,4|10,0:0|0:0,0:0:0:0:
396,108,74649,2,0,L|512:80,1,119.999996337891,4|10,0:0|0:0,0:0:0:0:
188,80,75011,2,0,L|72:108,1,119.999996337891,4|10,0:0|0:0,0:0:0:0:
28,284,75372,5,4,0:0:0:0:
204,356,75553,1,10,0:0:0:0:
236,228,75734,1,4,0:0:0:0:
236,228,75824,1,4,0:0:0:0:
236,228,75915,1,10,0:0:0:0:
60,356,76095,1,4,0:0:0:0:
60,356,76185,1,4,0:0:0:0:
60,356,76276,1,10,0:0:0:0:
0,212,76457,1,4,0:0:0:0:
100,92,76638,1,10,0:0:0:0:
128,84,76728,1,4,0:0:0:0:
156,76,76818,21,4,0:0:0:0:
120,220,76999,1,10,0:0:0:0:
28,60,77180,1,4,0:0:0:0:
28,60,77270,1,4,0:0:0:0:
28,60,77361,1,10,0:0:0:0:
192,156,77541,1,4,0:0:0:0:
192,156,77631,1,4,0:0:0:0:
192,156,77722,1,10,0:0:0:0:
356,16,77903,1,4,0:0:0:0:
396,6,77993,1,2,0:2:0:0:
437,15,78083,1,10,0:0:0:0:
469,41,78174,1,2,0:2:0:0:
486,79,78264,5,6,0:0:0:0:
236,228,78445,1,10,0:0:0:0:
236,228,78806,2,0,P|232:288|264:340,1,119.999996337891,10|4,0:0|0:0,0:0:0:0:
424,192,79168,2,0,P|428:132|396:80,1,119.999996337891,10|4,0:0|0:0,0:0:0:0:
292,64,79529,1,10,0:0:0:0:
424,192,79710,2,0,L|512:276,1,119.999996337891,4|10,0:0|0:0,0:0:0:0:
236,228,80071,2,0,L|148:144,1,119.999996337891,4|10,0:0|0:0,0:0:0:0:
480,244,80433,2,0,B|496:304|496:304|480:360,1,119.999996337891,4|10,0:0|0:0,0:0:0:0:
180,176,80794,2,0,B|164:116|164:116|180:60,1,119.999996337891,4|10,0:0|0:0,0:0:0:0:
292,64,81156,5,4,0:0:0:0:
236,228,81336,1,10,0:0:0:0:
104,172,81517,1,4,0:0:0:0:
104,172,81608,1,4,0:0:0:0:
104,172,81698,1,10,0:0:0:0:
316,136,81879,1,4,0:0:0:0:
316,136,81970,1,4,0:0:0:0:
316,136,82060,1,10,0:0:0:0:
244,340,82240,1,4,0:0:0:0:
180,176,82421,1,10,0:0:0:0:
192,136,82511,1,4,0:0:0:0:
204,96,82602,21,4,0:0:0:0:
236,228,82782,1,10,0:0:0:0:
396,124,82963,1,4,0:0:0:0:
396,124,83053,1,4,0:0:0:0:
396,124,83144,1,10,0:0:0:0:
124,84,83324,1,4,0:0:0:0:
76,272,83505,1,10,0:0:0:0:
55,60,83686,1,4,0:0:0:0:
144,295,83867,1,10,0:0:0:0:
304,104,84047,5,6,0:0:0:0:
55,60,84228,1,10,0:0:0:0:
56,60,84589,2,0,P|36:120|48:176,1,119.999996337891,10|4,0:0|0:0,0:0:0:0:
296,218,84951,2,0,P|316:158|304:102,1,119.999996337891,10|4,0:0|0:0,0:0:0:0:
144,295,85312,1,10,0:0:0:0:
304,352,85493,2,0,B|364:344|364:344|412:304,1,119.999996337891,4|10,0:0|0:0,0:0:0:0:
220,156,85855,2,0,B|160:164|160:164|112:204,1,119.999996337891,4|10,0:0|0:0,0:0:0:0:
336,276,86216,2,0,L|428:200,1,119.999996337891,4|10,0:0|0:0,0:0:0:0:
188,232,86577,2,0,L|96:308,1,119.999996337891,4|10,0:0|0:0,0:0:0:0:
296,218,86939,5,4,0:0:0:0:
236,48,87120,1,10,0:0:0:0:
144,168,87300,1,4,0:0:0:0:
144,168,87391,1,4,0:0:0:0:
144,168,87481,1,10,0:0:0:0:
332,144,87662,1,4,0:0:0:0:
332,144,87753,1,4,0:0:0:0:
332,144,87843,1,10,0:0:0:0:
144,168,88023,1,4,0:0:0:0:
296,218,88204,1,10,0:0:0:0:
324,228,88294,1,4,0:0:0:0:
352,236,88385,21,4,0:0:0:0:
308,72,88565,1,10,0:0:0:0:
188,232,88746,1,4,0:0:0:0:
188,232,88836,1,4,0:0:0:0:
188,232,88927,1,10,0:0:0:0:
100,104,89108,1,4,0:0:0:0:
100,104,89198,1,4,0:0:0:0:
100,104,89288,1,10,0:0:0:0:
40,324,89469,1,4,0:0:0:0:
80,343,89559,1,2,0:2:0:0:
124,348,89649,1,10,0:0:0:0:
168,339,89740,1,2,0:2:0:0:
207,316,89830,5,2,0:0:0:0:
308,72,90011,1,10,0:0:0:0:
308,72,90373,2,0,P|368:56|424:72,1,119.999996337891,10|4,0:0|0:0,0:0:0:0:
188,232,90734,2,0,P|128:248|72:232,1,119.999996337891,10|4,0:0|0:0,0:0:0:0:
368,144,91095,1,10,0:0:0:0:
460,256,91276,2,0,B|476:316|476:316|460:372,1,119.999996337891,4|10,0:0|0:0,0:0:0:0:
232,168,91638,2,0,B|216:108|216:108|232:52,1,119.999996337891,4|10,0:0|0:0,0:0:0:0:
400,316,91999,5,6,0:0:0:0:
360,328,92089,1,8,0:0:0:0:
320,340,92180,1,8,0:0:0:0:
280,352,92270,1,8,0:0:0:0:
240,360,92361,1,8,0:0:0:0:
224,344,92451,1,4,0:0:0:0:
208,328,92541,1,8,0:0:0:0:
192,312,92632,1,4,0:0:0:0:
176,296,92722,22,0,P|156:240|176:184,1,119.999996337891,10|4,0:0|0:0,0:0:0:0:
368,144,93083,2,0,P|388:200|368:256,1,119.999996337891,10|4,0:0|0:0,0:0:0:0:
344,260,93355,1,4,0:0:0:0:
344,260,93445,1,10,0:0:0:0:
204,176,93626,1,4,0:0:0:0:
204,176,93716,1,4,0:0:0:0:
204,176,93806,1,10,0:0:0:0:
312,52,93987,1,4,0:0:0:0:
312,52,94077,1,4,0:0:0:0:
312,52,94167,5,6,0:0:0:0:
332,68,94258,1,8,0:0:0:0:
352,80,94348,1,8,0:0:0:0:
372,96,94439,1,8,0:0:0:0:
332,116,94529,1,8,0:0:0:0:
300,132,94620,1,8,0:0:0:0:
268,148,94710,1,8,0:0:0:0:
236,160,94800,1,8,0:0:0:0:
204,176,94891,2,0,B|256:252|256:252|344:260,2,179.999994506836,8|4|4,0:0|0:0|0:0,0:0:0:0:
312,52,95613,5,10,0:0:0:0:
436,144,95794,2,0,P|448:196|436:252,1,110.000003356934,10|4,0:0|0:0,0:0:0:0:
204,176,96156,2,0,P|192:124|204:68,1,110.000003356934,10|4,0:0|0:0,0:0:0:0:
412,44,96517,1,10,0:0:0:0:
412,44,96608,1,4,0:0:0:0:
412,44,96698,1,4,0:0:0:0:
344,260,96879,21,10,0:0:0:0:
204,176,97059,2,0,P|148:168|96:184,1,110.000003356934,4|10,0:0|0:0,0:0:0:0:
296,360,97421,2,0,P|352:368|404:352,1,110.000003356934,4|10,0:0|0:0,0:0:0:0:
488,200,97782,1,4,0:0:0:0:
488,200,97873,1,4,0:0:0:0:
488,200,97963,1,10,0:0:0:0:
352,88,98144,2,0,B|300:64|300:64|260:100|260:100|192:68|140:112,1,220.000006713867,4|4,0:0|0:0,0:0:0:0:
196,280,98686,6,0,P|212:228|204:172,1,110.000003356934,10|4,0:0|0:0,0:0:0:0:
12,220,99047,2,0,P|-4:272|4:328,1,110.000003356934,10|4,0:0|0:0,0:0:0:0:
176,372,99409,1,10,0:0:0:0:
208,364,99499,1,4,0:0:0:0:
240,356,99589,1,4,0:0:0:0:
312,196,99770,1,10,0:0:0:0:
180,80,99951,6,0,P|152:76|124:80,1,55.0000016784668,4|4,0:0|0:0,0:0:0:0:
152,152,100132,2,0,P|180:156|208:152,1,55.0000016784668,10|4,0:0|0:0,0:0:0:0:
260,96,100312,1,4,0:0:0:0:
292,104,100403,1,4,0:0:0:0:
324,112,100493,1,10,0:0:0:0:
356,120,100583,1,4,0:0:0:0:
388,128,100674,2,0,P|413:140|433:160,1,55.0000016784668,4|4,0:0|0:0,0:0:0:0:
357,227,100854,2,0,P|331:214|311:194,1,55.0000016784668,10|4,0:0|0:0,0:0:0:0:
292,104,101035,1,4,0:0:0:0:
296,84,101126,1,4,0:0:0:0:
300,64,101216,1,10,0:0:0:0:
304,44,101306,1,4,0:0:0:0:
308,24,101397,21,6,0:0:0:0:
464,104,101577,2,0,P|460:164|424:200,1,110.000003356934,10|4,0:0|0:0,0:0:0:0:
184,120,101939,2,0,P|188:60|224:24,1,110.000003356934,10|4,0:0|0:0,0:0:0:0:
400,36,102300,1,10,0:0:0:0:
400,36,102391,1,4,0:0:0:0:
400,36,102481,1,4,0:0:0:0:
260,96,102662,5,10,0:0:0:0:
356,228,102842,2,0,B|376:256|376:256|376:292|376:292|400:324,1,110.000003356934,4|10,0:0|0:0,0:0:0:0:
184,120,103204,2,0,B|164:92|164:92|164:56|164:56|140:24,1,110.000003356934,4|10,0:0|0:0,0:0:0:0:
324,152,103565,1,4,0:0:0:0:
324,152,103656,1,4,0:0:0:0:
324,152,103746,1,10,0:0:0:0:
124,244,103927,2,0,B|76:208|76:208|88:160|88:160|44:120|52:56,1,220.000006713867,4|4,0:0|0:0,0:0:0:0:
244,192,104469,6,0,P|256:248|244:300,1,110.000003356934,10|4,0:0|0:0,0:0:0:0:
184,120,104830,2,0,P|172:64|184:12,1,110.000003356934,10|4,0:0|0:0,0:0:0:0:
324,152,105192,1,10,0:0:0:0:
324,152,105282,1,4,0:0:0:0:
324,152,105373,1,4,0:0:0:0:
124,244,105553,22,0,B|104:260|104:260|80:248|80:248|60:268|24:264,1,100,10|0,0:0|0:0,0:0:0:0:
24,256,105915,37,8,0:0:0:0:
16,184,106055,1,8,0:0:0:0:
8,112,106196,1,8,0:0:0:0:
256,192,106548,12,0,107541,0:0:0:0:
200,152,107632,6,0,B|172:208|204:248|240:292|200:352,1,200,6|10,0:0|0:0,0:0:0:0:
112,236,108174,2,0,P|104:188|116:136,1,100,4|6,0:0|0:0,0:0:0:0:
272,76,108535,1,4,0:0:0:0:
272,76,108625,1,4,0:0:0:0:
272,76,108716,1,10,0:0:0:0:
384,204,108897,1,4,0:0:0:0:
384,204,108987,1,4,0:0:0:0:
384,204,109077,1,6,0:0:0:0:
264,192,109258,1,4,0:0:0:0:
348,92,109439,1,10,0:0:0:0:
252,4,109619,1,4,0:0:0:0:
168,104,109800,6,0,B|140:108|140:108|112:136|112:136|80:144,1,100,6|4,0:0|0:0,0:0:0:0:
176,232,110162,2,0,B|204:228|204:228|232:200|232:200|264:192,1,100,10|4,0:0|0:0,0:0:0:0:
384,204,110523,1,6,0:0:0:0:
272,268,110704,1,4,0:0:0:0:
168,104,110885,1,10,0:0:0:0:
44,140,111065,2,0,P|36:192|52:236,1,100,4|6,0:0|0:0,0:0:0:0:
176,232,111427,5,4,0:0:0:0:
176,232,111517,1,4,0:0:0:0:
176,232,111607,1,10,0:0:0:0:
252,4,111788,1,4,0:0:0:0:
252,4,111878,1,4,0:0:0:0:
252,4,111968,1,6,0:0:0:0:
168,104,112150,1,4,0:0:0:0:
264,192,112330,1,10,0:0:0:0:
104,244,112511,1,4,0:0:0:0:
44,140,112692,22,0,P|32:92|44:40,1,100,6|4,0:0|0:0,0:0:0:0:
264,192,113053,2,0,P|276:240|264:292,1,100,10|4,0:0|0:0,0:0:0:0:
132,332,113415,2,0,B|100:336|100:336|72:356|72:356|36:360,2,100,6|4|10,0:0|0:0|0:0,0:0:0:0:
176,232,113957,1,4,0:0:0:0:
176,232,114047,1,4,0:0:0:0:
176,232,114138,1,6,0:0:0:0:
44,140,114318,1,4,0:0:0:0:
168,104,114499,1,10,0:0:0:0:
28,232,114680,1,4,0:0:0:0:
28,232,114770,1,4,0:0:0:0:
28,232,114860,2,0,P|36:284|16:340,2,100,10|4|10,0:0|0:0|0:0,0:0:0:0:
120,172,115403,1,4,0:0:0:0:
240,292,115583,6,0,P|288:304|336:292,1,100,6|4,0:0|0:0,0:0:0:0:
216,172,115945,2,0,P|168:160|120:172,1,100,10|4,0:0|0:0,0:0:0:0:
288,224,116306,1,6,0:0:0:0:
348,120,116487,1,4,0:0:0:0:
340,100,116577,1,4,0:0:0:0:
332,80,116668,1,10,0:0:0:0:
212,32,116848,2,0,B|180:36|180:36|152:60|152:60|120:64,1,100,4|6,0:0|0:0,0:0:0:0:
16,40,117210,5,4,0:0:0:0:
16,40,117300,1,4,0:0:0:0:
16,40,117391,1,10,0:0:0:0:
76,220,117571,1,4,0:0:0:0:
76,220,117661,1,4,0:0:0:0:
76,220,117752,1,6,0:0:0:0:
160,132,117933,1,4,0:0:0:0:
40,116,118113,1,10,0:0:0:0:
104,296,118294,1,4,0:0:0:0:
224,188,118475,21,6,0:0:0:0:
241,155,118565,1,4,0:0:0:0:
244,118,118655,1,4,0:0:0:0:
230,83,118746,1,4,0:0:0:0:
203,58,118836,2,0,P|188:40|180:16,1,50,8|8,0:0|0:0,0:0:0:0:
280,28,119017,2,0,P|295:46|303:70,1,50,8|4,0:0|0:0,0:0:0:0:
160,132,119198,6,0,B|144:156|104:164|104:164|124:224|104:296,1,200,6|10,0:0|0:0,0:0:0:0:
0,188,119740,1,4,0:0:0:0:
92,60,119921,1,6,0:0:0:0:
188,212,120101,1,4,0:0:0:0:
188,212,120192,1,4,0:0:0:0:
188,212,120282,1,10,0:0:0:0:
12,100,120463,1,4,0:0:0:0:
12,100,120554,1,4,0:0:0:0:
12,100,120644,1,6,0:0:0:0:
160,132,120824,1,4,0:0:0:0:
60,244,121005,1,10,0:0:0:0:
92,60,121186,1,4,0:0:0:0:
188,212,121366,6,0,P|236:224|284:212,1,100,6|4,0:0|0:0,0:0:0:0:
300,196,121638,1,4,0:0:0:0:
300,196,121728,1,10,0:0:0:0:
188,60,121909,2,0,P|140:48|92:60,1,100,4|6,0:0|0:0,0:0:0:0:
4,180,122270,1,4,0:0:0:0:
136,272,122451,1,10,0:0:0:0:
236,148,122632,2,0,P|276:120|332:124,1,100,4|6,0:0|0:0,0:0:0:0:
456,216,122993,21,4,0:0:0:0:
456,216,123083,1,4,0:0:0:0:
456,216,123174,1,10,0:0:0:0:
300,196,123354,1,4,0:0:0:0:
300,196,123444,1,4,0:0:0:0:
300,196,123535,1,6,0:0:0:0:
364,344,123716,1,4,0:0:0:0:
412,280,123897,1,10,0:0:0:0:
332,272,124077,1,4,0:0:0:0:
284,336,124258,6,0,B|236:348|236:348|188:332,1,100,6|4,0:0|0:0,0:0:0:0:
300,196,124619,2,0,B|348:184|348:184|396:200,1,100,10|4,0:0|0:0,0:0:0:0:
132,276,124981,2,0,P|128:179|206:113,1,200,6|10,0:0|0:0,0:0:0:0:
201,115,125523,1,4,0:0:0:0:
284,336,125704,2,0,P|201:386|105:352,1,200,6|10,0:0|0:0,0:0:0:0:
109,356,126246,1,4,0:0:0:0:
260,176,126427,2,0,P|345:220|362:320,1,200,6|10,0:0|0:0,0:0:0:0:
364,315,126969,1,4,0:0:0:0:
132,276,127150,6,0,B|80:272|80:272|32:288,1,100,6|4,0:0|0:0,0:0:0:0:
228,384,127511,2,0,B|280:388|280:388|328:372,1,100,10|4,0:0|0:0,0:0:0:0:
444,224,127872,1,6,0:0:0:0:
328,196,128053,1,4,0:0:0:0:
328,196,128144,1,4,0:0:0:0:
328,196,128234,1,10,0:0:0:0:
364,315,128415,2,0,P|412:340|460:344,1,100,4|6,0:0|0:0,0:0:0:0:
476,336,128686,1,4,0:0:0:0:
476,336,128776,1,4,0:0:0:0:
400,152,128957,1,10,0:0:0:0:
400,152,129047,1,4,0:0:0:0:
400,152,129138,1,4,0:0:0:0:
268,276,129318,21,8,0:0:0:0:
32,144,129589,1,8,0:0:0:0:
352,64,129860,1,8,0:0:0:0:
268,276,130764,5,2,0:0:0:0:
32,144,130945,1,10,0:0:0:0:
256,64,131125,1,4,0:0:0:0:
256,64,131216,1,4,0:0:0:0:
256,64,131306,2,0,P|280:120|268:176,1,119.999996337891,10|4,0:0|0:0,0:0:0:0:
32,144,131668,2,0,P|8:88|20:32,1,119.999996337891,10|4,0:0|0:0,0:0:0:0:
200,128,132029,1,10,0:0:0:0:
12,236,132210,6,0,P|3:296|29:347,1,119.999996337891,4|10,0:0|0:0,0:0:0:0:
196,376,132571,1,4,0:0:0:0:
228,364,132662,1,4,0:0:0:0:
260,352,132752,1,10,0:0:0:0:
280,160,132933,1,4,0:0:0:0:
274,193,133024,1,4,0:0:0:0:
268,227,133114,1,10,0:0:0:0:
425,341,133294,1,4,0:0:0:0:
399,319,133385,1,4,0:0:0:0:
372,297,133475,1,10,0:0:0:0:
160,156,133656,22,0,P|144:96|164:40,1,119.999996337891,4|10,0:0|0:0,0:0:0:0:
312,4,134017,1,4,0:0:0:0:
312,4,134107,1,4,0:0:0:0:
312,4,134198,1,10,0:0:0:0:
416,120,134378,1,4,0:0:0:0:
416,120,134468,1,4,0:0:0:0:
416,120,134559,1,10,0:0:0:0:
232,100,134740,1,4,0:0:0:0:
404,44,134921,1,10,0:0:0:0:
432,36,135011,1,4,0:0:0:0:
460,28,135101,5,4,0:0:0:0:
372,200,135282,1,10,0:0:0:0:
232,100,135463,1,4,0:0:0:0:
232,100,135553,1,4,0:0:0:0:
232,100,135644,1,10,0:0:0:0:
192,292,135824,1,4,0:0:0:0:
192,292,135914,1,4,0:0:0:0:
192,292,136005,1,10,0:0:0:0:
32,76,136186,1,4,0:0:0:0:
32,76,136276,1,2,0:2:0:0:
32,76,136366,1,10,0:0:0:0:
32,76,136457,1,2,0:2:0:0:
32,76,136547,5,6,0:0:0:0:
232,100,136728,1,10,0:0:0:0:
100,252,136909,1,4,0:0:0:0:
100,252,136999,1,4,0:0:0:0:
100,252,137089,2,0,P|92:312|120:368,1,119.999996337891,10|4,0:0|0:0,0:0:0:0:
340,140,137451,2,0,P|348:80|320:24,1,119.999996337891,10|4,0:0|0:0,0:0:0:0:
192,4,137812,1,10,0:0:0:0:
112,108,137993,22,8,B|91:140|91:140|49:155|49:155|26:184,1,119.999996337891,4|10,0:0|0:0,0:0:0:0:
96,324,138354,1,4,0:0:0:0:
120,340,138445,1,4,0:0:0:0:
144,356,138535,1,10,0:0:0:0:
144,248,138716,1,4,0:0:0:0:
120,232,138807,1,4,0:0:0:0:
96,216,138897,1,10,0:0:0:0:
228,352,139077,2,0,P|284:328|312:272,1,119.999996337891,4|10,0:0|0:0,0:0:0:0:
172,164,139439,5,2,0:0:0:0:
228,268,139619,1,10,0:0:0:0:
292,168,139800,1,4,0:0:0:0:
282,140,139891,1,4,0:0:0:0:
271,112,139981,1,10,0:0:0:0:
87,156,140162,1,4,0:0:0:0:
97,184,140253,1,4,0:0:0:0:
108,212,140343,1,10,0:0:0:0:
210,60,140523,1,4,0:0:0:0:
87,156,140704,1,10,0:0:0:0:
292,168,140885,5,4,0:0:0:0:
112,292,141065,1,8,0:0:0:0:
57,267,141155,1,8,0:0:0:0:
22,220,141245,1,8,0:0:0:0:
14,161,141336,1,8,0:0:0:0:
36,105,141427,6,4,L|52:80,2,29.9999990844727,8|4|4,0:0|0:0|0:0,0:0:0:0:
164,160,141607,38,0,P|180:188|184:220,1,59.9999981689454,8|8,0:0|0:0,0:0:0:0:
107,211,141788,2,0,P|91:183|87:151,1,59.9999981689454,4|4,0:0|0:0,0:0:0:0:
152,64,141969,2,0,B|169:60|169:60|192:64|192:64|216:60,1,59.9999981689454,8|8,0:0|0:0,0:0:0:0:
288,124,142150,2,0,B|270:127|270:127|248:124|248:124|224:128,1,59.9999981689454,4|4,0:0|0:0,0:0:0:0:
36,105,142330,21,6,0:0:0:0:
76,360,142511,2,0,P|136:376|192:356,1,119.999996337891,10|4,0:0|0:0,0:0:0:0:
272,212,142872,1,10,0:0:0:0:
280,168,142963,1,4,0:0:0:0:
288,124,143053,1,4,0:0:0:0:
148,200,143234,1,10,0:0:0:0:
140,244,143325,1,4,0:0:0:0:
132,288,143415,1,4,0:0:0:0:
280,372,143595,1,10,0:0:0:0:
392,216,143776,5,4,0:0:0:0:
392,216,143866,1,4,0:0:0:0:
392,216,143957,1,10,0:0:0:0:
212,116,144138,1,4,0:0:0:0:
196,120,144228,1,4,0:0:0:0:
180,124,144318,1,10,0:0:0:0:
304,292,144499,1,4,0:0:0:0:
320,288,144589,1,4,0:0:0:0:
336,284,144679,1,10,0:0:0:0:
124,192,144860,1,4,0:0:0:0:
124,192,144950,1,4,0:0:0:0:
124,192,145041,1,10,0:0:0:0:
304,204,145222,5,4,0:0:0:0:
224,44,145403,2,0,P|164:32|108:48,1,119.999996337891,10|4,0:0|0:0,0:0:0:0:
40,188,145764,1,10,0:0:0:0:
32,224,145854,1,4,0:0:0:0:
24,260,145945,1,4,0:0:0:0:
216,196,146125,1,10,0:0:0:0:
224,160,146215,1,4,0:0:0:0:
232,124,146306,1,4,0:0:0:0:
84,328,146487,1,10,0:0:0:0:
248,360,146668,21,4,0:0:0:0:
376,252,146848,1,10,0:0:0:0:
384,223,146938,1,4,0:0:0:0:
387,193,147028,1,4,0:0:0:0:
385,163,147119,1,4,0:0:0:0:
377,134,147209,1,10,0:0:0:0:
216,196,147391,1,6,0:0:0:0:
376,252,147571,1,10,0:0:0:0:
84,328,147752,1,2,0:2:0:0:
68,284,147842,1,2,0:2:0:0:
52,240,147933,1,10,0:0:0:0:
36,196,148023,1,2,0:2:0:0:
20,152,148113,5,6,0:0:0:0:
220,20,148294,2,0,P|252:72|244:128,1,119.999996337891,10|4,0:0|0:0,0:0:0:0:
52,240,148656,1,10,0:0:0:0:
52,240,148746,1,4,0:0:0:0:
52,240,148836,1,4,0:0:0:0:
176,88,149017,1,10,0:0:0:0:
176,88,149107,1,4,0:0:0:0:
176,88,149197,1,4,0:0:0:0:
244,272,149378,1,10,0:0:0:0:
20,152,149559,5,4,0:0:0:0:
28,116,149650,1,4,0:0:0:0:
36,80,149740,1,10,0:0:0:0:
148,216,149921,1,4,0:0:0:0:
140,252,150012,1,4,0:0:0:0:
132,288,150102,1,10,0:0:0:0:
280,188,150282,1,4,0:0:0:0:
288,152,150373,1,4,0:0:0:0:
296,116,150463,1,10,0:0:0:0:
408,252,150644,1,4,0:0:0:0:
400,288,150735,1,4,0:0:0:0:
392,324,150825,1,10,0:0:0:0:
216,360,151005,21,4,0:0:0:0:
192,364,151095,1,4,0:0:0:0:
168,368,151186,1,10,0:0:0:0:
144,372,151276,1,4,0:0:0:0:
120,376,151366,1,4,0:0:0:0:
212,248,151547,1,10,0:0:0:0:
236,252,151637,1,4,0:0:0:0:
260,256,151728,1,6,0:0:0:0:
284,260,151818,1,6,0:0:0:0:
308,264,151908,1,10,0:0:0:0:
208,144,152089,1,6,0:0:0:0:
184,148,152179,1,6,0:0:0:0:
160,152,152270,1,10,0:0:0:0:
12,104,152451,6,0,B|8:72|8:72|16:44,1,59.9999981689454,6|8,0:0|0:0,0:0:0:0:
84,80,152632,2,0,B|88:112|88:112|80:140,1,59.9999981689454,8|8,0:0|0:0,0:0:0:0:
52,212,152812,2,0,B|44:238|44:238|48:270,1,59.9999981689454,8|8,0:0|0:0,0:0:0:0:
140,340,152993,1,8,0:0:0:0:
164,344,153083,1,4,0:0:0:0:
188,348,153174,5,8,0:0:0:0:
224,340,153264,1,8,0:0:0:0:
256,320,153354,1,4,0:0:0:0:
278,290,153445,1,4,0:0:0:0:
288,255,153535,1,8,0:0:0:0:
285,217,153625,1,8,0:0:0:0:
269,184,153716,1,4,0:0:0:0:
242,158,153806,1,4,0:0:0:0:
208,144,153897,22,0,L|160:152,1,50,8|8,2:3|2:3,2:3:0:0:
144,228,154077,2,0,L|192:220,1,50,8|8,2:3|2:3,2:3:0:0:
232,68,154258,2,0,L|183:75,1,50,8|8,2:3|2:3,2:3:0:0:
88,164,154439,1,8,2:3:0:0:
303,239,156788,6,0,L|352:232,1,50,8|8,2:3|2:3,2:3:0:0:
368,156,156968,2,0,L|319:163,1,50,8|8,2:3|2:3,2:3:0:0:
280,316,157149,2,0,L|328:308,1,50,8|8,2:3|2:3,2:3:0:0:
428,220,157330,1,8,2:3:0:0:
272,124,158957,6,0,P|280:152|280:184,1,50,2|2,0:0|0:0,0:0:0:0:
204,164,159138,1,4,0:0:0:0:
168,152,159228,1,4,0:0:0:0:
128,140,159318,2,0,B|76:124|76:124|24:136,1,104.999996795654,4|4,0:0|0:0,0:0:0:0:
4,168,159680,21,10,0:0:0:0:
104,292,159860,1,4,0:0:0:0:
136,296,159951,1,4,0:0:0:0:
164,300,160041,1,10,0:0:0:0:
192,304,160131,1,4,0:0:0:0:
220,308,160222,2,0,B|272:312|272:312|320:292,2,100,4|10|4,0:0|0:0|0:0,0:0:0:0:
260,240,160674,1,4,0:0:0:0:
276,232,160764,2,8,B|325:214|325:214|376:221,2,100,10|4|10,0:0|0:0|0:0,0:0:0:0:
316,294,161216,1,4,0:0:0:0:
344,296,161306,1,4,0:0:0:0:
372,300,161397,1,4,0:0:0:0:
400,300,161487,2,8,B|439:266|439:266|459:217,1,100,10|4,0:0|0:0,0:0:0:0:
360,96,161848,5,8,0:0:0:0:
348,80,161939,2,0,L|352:28,2,50,8|4|4,0:0|0:0|0:0,0:0:0:0:
244,108,162210,1,8,0:0:0:0:
232,124,162301,2,0,L|236:176,2,50,8|4|4,0:0|0:0|0:0,0:0:0:0:
112,120,162571,5,8,2:3:0:0:
104,160,162662,1,8,2:3:0:0:
96,200,162752,1,8,2:3:0:0:
88,240,162842,1,8,2:3:0:0:
80,280,162933,1,8,2:3:0:0:
211,352,163113,21,8,2:3:0:0:
202,308,163204,1,8,2:3:0:0:
193,264,163294,1,8,2:3:0:0:
184,220,163384,1,8,2:3:0:0:
176,176,163475,1,8,2:3:0:0:
318,114,163656,5,8,2:3:0:0:
308,164,163745,1,8,2:3:0:0:
298,214,163837,1,8,2:3:0:0:
288,264,163927,1,8,2:3:0:0:
278,314,164016,1,8,2:3:0:0:
80,280,164198,5,8,2:3:0:0:
91,225,164287,1,8,2:3:0:0:
102,170,164378,2,0,L|112:120,2,50,4|4|4,0:0|0:0|0:0,0:0:0:0:
160,332,164740,21,10,0:0:0:0:
196,352,164830,1,4,0:0:0:0:
236,348,164920,1,4,0:0:0:0:
268,324,165011,1,4,0:0:0:0:
308,320,165101,1,10,0:0:0:0:
344,336,165191,1,4,0:0:0:0:
368,368,165282,1,4,0:0:0:0:
408,376,165372,1,4,0:0:0:0:
436,348,165462,1,10,0:0:0:0:
440,308,165553,1,4,0:0:0:0:
416,276,165643,2,0,P|408:256|404:224,1,50,4|2,0:0|0:2,0:0:0:0:
444,104,165824,5,10,0:0:0:0:
456,68,165914,1,4,0:0:0:0:
448,28,166005,1,4,0:0:0:0:
416,4,166095,1,4,0:0:0:0:
376,8,166185,2,0,P|356:16|328:16,1,50,10|2,0:0|0:2,0:0:0:0:
200,0,166366,1,4,0:0:0:0:
164,16,166456,1,4,0:0:0:0:
124,12,166547,1,10,0:0:0:0:
84,4,166637,1,4,0:0:0:0:
44,16,166727,2,0,P|23:29|12:52,1,50,4|2,0:0|0:2,0:0:0:0:
92,168,166908,1,10,0:0:0:0:
108,204,166999,1,4,0:0:0:0:
104,244,167089,1,4,0:0:0:0:
88,280,167179,1,4,0:0:0:0:
80,320,167270,2,0,P|88:348|108:372,1,50,10|2,0:0|0:2,0:0:0:0:
232,296,167450,5,4,0:0:0:0:
240,256,167541,1,4,0:0:0:0:
224,220,167631,1,10,0:0:0:0:
188,204,167721,1,4,0:0:0:0:
164,172,167812,1,4,0:0:0:0:
164,132,167902,1,4,0:0:0:0:
188,100,167993,2,0,P|200:76|204:48,1,50,10|2,0:0|0:2,0:0:0:0:
16,120,168173,1,4,0:0:0:0:
0,156,168264,1,4,0:0:0:0:
4,196,168354,1,10,0:0:0:0:
28,228,168444,1,4,0:0:0:0:
40,268,168535,2,0,P|40:296|28:328,1,50,4|2,0:0|0:2,0:0:0:0:
76,168,168715,1,10,0:0:0:0:
112,152,168806,1,4,0:0:0:0:
152,156,168896,1,4,0:0:0:0:
188,176,168986,1,4,0:0:0:0:
228,168,169077,2,0,P|248:152|264:120,1,50,10|2,0:0|0:2,0:0:0:0:
148,32,169258,21,4,0:0:0:0:
120,60,169348,1,4,0:0:0:0:
116,100,169438,1,10,0:0:0:0:
136,136,169529,1,4,0:0:0:0:
148,176,169619,2,0,P|148:204|140:228,1,50,4|2,0:0|0:2,0:0:0:0:
56,324,169800,1,10,0:0:0:0:
68,360,169890,1,4,0:0:0:0:
104,380,169980,1,4,0:0:0:0:
144,376,170071,1,4,0:0:0:0:
176,352,170161,2,0,P|200:336|224:328,1,50,8|8,0:0|0:0,0:0:0:0:
304,264,170342,2,0,P|280:248|256:240,1,50,8|8,0:0|0:0,0:0:0:0:
176,208,170523,5,6,0:0:0:0:
152,190,170613,1,4,0:0:0:0:
136,164,170703,1,4,0:0:0:0:
136,136,170794,1,0,0:0:0:0:
148,108,170884,2,0,P|160:84|164:56,1,42.5000008106232,6|2,0:0|0:2,0:0:0:0:
66,33,171065,1,4,0:0:0:0:
37,33,171155,1,8,0:0:0:0:
11,48,171246,1,2,0:0:0:0:
4,76,171336,1,4,0:0:0:0:
16,104,171426,2,0,P|20:133|16:168,1,42.5000008106232,4|2,0:0|0:2,0:0:0:0:
0,244,171607,5,10,0:0:0:0:
0,273,171697,1,0,0:0:0:0:
9,301,171787,1,4,0:0:0:0:
28,324,171878,1,4,0:0:0:0:
54,339,171968,2,0,P|76:336|104:340,1,42.5000008106232,6|2,0:0|0:2,0:0:0:0:
188,376,172149,1,4,0:0:0:0:
216,385,172239,1,4,0:0:0:0:
246,386,172329,1,6,0:0:0:0:
274,376,172420,1,4,0:0:0:0:
298,358,172511,2,0,P|316:336|344:320,1,42.5000008106232,4|8,0:0|0:0,0:0:0:0:
420,300,172691,1,2,0:0:0:0:
445,284,172781,1,4,0:0:0:0:
459,258,172871,1,4,0:0:0:0:
459,228,172962,1,4,0:0:0:0:
445,202,173053,2,0,P|432:184|424:160,1,42.5000008106232,10|2,0:0|0:2,0:0:0:0:
412,52,173233,21,4,0:0:0:0:
397,25,173323,1,4,0:0:0:0:
374,7,173413,1,10,0:0:0:0:
345,0,173504,1,4,0:0:0:0:
316,4,173594,1,4,0:0:0:0:
291,20,173684,1,4,0:0:0:0:
274,45,173776,2,0,P|256:68|236:80,1,42.5000008106232,6|2,0:0|0:2,0:0:0:0:
148,84,173956,1,4,0:0:0:0:
118,79,174047,1,8,0:0:0:0:
88,80,174136,1,2,0:0:0:0:
59,87,174227,1,4,0:0:0:0:
32,101,174318,2,0,P|12:120|0:140,1,42.5000008106232,4|2,0:0|0:2,0:0:0:0:
0,232,174499,1,10,0:0:0:0:
8,260,174589,1,0,0:0:0:0:
29,281,174679,1,4,0:0:0:0:
57,291,174770,1,4,0:0:0:0:
87,287,174860,38,0,L|108:276,2,25,8|8|8,0:0|0:0|0:0,0:0:0:0:
104,180,175041,21,8,0:0:0:0:
128,182,175131,1,8,0:0:0:0:
152,191,175221,1,8,0:0:0:0:
172,205,175312,1,8,0:0:0:0:
188,224,175402,1,4,0:0:0:0:
199,247,175493,1,4,0:0:0:0:
203,271,175583,1,8,0:0:0:0:
201,296,175673,1,8,0:0:0:0:
193,320,175764,1,4,0:0:0:0:
208,346,175854,1,4,0:0:0:0:
229,367,175944,1,8,0:0:0:0:
255,381,176035,1,8,0:0:0:0:
285,386,176125,1,4,0:0:0:0:
314,383,176215,1,4,0:0:0:0:
342,371,176306,5,6,0:0:0:0:
356,332,176396,1,4,0:0:0:0:
348,292,176486,1,10,0:0:0:0:
328,256,176577,1,4,0:0:0:0:
320,216,176667,1,4,0:0:0:0:
328,176,176758,1,4,0:0:0:0:
356,148,176848,1,10,0:0:0:0:
396,140,176938,1,4,0:0:0:0:
436,152,177029,1,6,0:0:0:0:
464,180,177119,1,4,0:0:0:0:
472,220,177209,2,0,P|472:244|464:268,1,50,10|2,0:0|0:2,0:0:0:0:
356,332,177390,21,6,0:0:0:0:
316,344,177480,1,4,0:0:0:0:
276,344,177571,1,10,0:0:0:0:
240,324,177661,1,4,0:0:0:0:
200,320,177752,2,0,P|176:320|148:328,1,50,4|2,0:0|0:2,0:0:0:0:
32,360,177932,1,10,0:0:0:0:
8,328,178023,1,4,0:0:0:0:
8,288,178113,1,4,0:0:0:0:
28,252,178203,1,4,0:0:0:0:
64,236,178294,2,0,P|92:228|112:212,1,50,10|2,0:0|0:2,0:0:0:0:
152,80,178474,5,4,0:0:0:0:
156,84,178565,1,4,0:0:0:0:
160,88,178655,2,0,L|212:80,1,50,10|4,0:0|0:0,0:0:0:0:
52,8,178836,1,6,0:0:0:0:
20,32,178926,1,6,0:0:0:0:
4,68,179017,1,8,0:0:0:0:
8,108,179107,1,6,0:0:0:0:
32,140,179197,1,6,0:0:0:0:
48,176,179288,1,4,0:0:0:0:
48,216,179378,1,10,0:0:0:0:
28,252,179468,1,4,0:0:0:0:
8,288,179559,2,0,P|0:312|0:344,1,50,4|2,0:0|0:2,0:0:0:0:
116,380,179740,5,10,0:0:0:0:
156,372,179830,1,4,0:0:0:0:
184,344,179920,1,4,0:0:0:0:
184,304,180011,1,4,0:0:0:0:
160,272,180101,2,0,P|144:248|140:220,1,50,10|4,0:0|0:0,0:0:0:0:
176,108,180282,1,4,0:0:0:0:
212,96,180372,1,4,0:0:0:0:
252,108,180462,1,10,0:0:0:0:
276,140,180553,1,4,0:0:0:0:
272,180,180643,2,0,P|268:208|272:240,1,50,6|2,0:0|0:2,0:0:0:0:
440,372,180824,2,0,L|492:364,1,50,10|4,0:0|0:0,0:0:0:0:
269,229,181005,2,0,L|217:237,1,50,10|4,0:0|0:0,0:0:0:0:
304,384,181185,2,0,P|328:388|356:384,1,50,4|2,0:0|0:2,0:0:0:0:
368,280,181366,21,8,0:0:0:0:
348,244,181456,1,8,0:0:0:0:
356,204,181547,1,4,0:0:0:0:
380,172,181637,1,4,0:0:0:0:
384,132,181727,1,4,0:0:0:0:
360,100,181818,1,4,0:0:0:0:
324,80,181908,1,4,0:0:0:0:
284,84,181999,1,4,0:0:0:0:
252,108,182089,5,6,0:0:0:0:
212,96,182179,1,4,0:0:0:0:
184,68,182270,1,4,0:0:0:0:
180,28,182360,1,4,0:0:0:0:
212,4,182450,2,0,P|240:4|264:12,1,50,6|2,0:0|0:2,0:0:0:0:
312,152,182631,1,4,0:0:0:0:
283,176,182721,1,8,0:0:0:0:
247,183,182812,1,2,0:0:0:0:
212,172,182902,1,4,0:0:0:0:
186,145,182993,2,0,P|168:120|152:112,1,50,4|2,0:0|0:2,0:0:0:0:
4,124,183173,5,10,0:0:0:0:
0,160,183263,1,4,0:0:0:0:
8,195,183353,1,4,0:0:0:0:
35,221,183444,1,4,0:0:0:0:
71,231,183535,2,0,P|100:228|120:232,1,50,6|2,0:0|0:2,0:0:0:0:
196,360,183715,1,4,0:0:0:0:
162,376,183806,1,4,0:0:0:0:
125,383,183896,1,6,0:0:0:0:
88,381,183986,1,0,0:0:0:0:
53,368,184077,2,0,P|36:344|32:324,1,50,4|8,0:0|0:0,0:0:0:0:
72,156,184258,21,2,0:0:0:0:
80,119,184348,1,4,0:0:0:0:
70,84,184438,1,4,0:0:0:0:
44,58,184529,1,4,0:0:0:0:
8,47,184619,2,0,P|0:28|0:0,1,50,10|2,0:0|0:2,0:0:0:0:
184,68,184800,1,4,0:0:0:0:
200,100,184890,1,4,0:0:0:0:
196,136,184980,1,6,0:0:0:0:
172,164,185071,1,4,0:0:0:0:
156,196,185161,1,4,0:0:0:0:
152,232,185251,1,4,0:0:0:0:
168,264,185342,2,0,P|194:280|226:276,1,50,6|2,0:0|0:2,0:0:0:0:
364,236,185523,5,4,0:0:0:0:
398,222,185613,1,8,0:0:0:0:
435,225,185703,1,2,0:0:0:0:
466,245,185794,1,4,0:0:0:0:
485,277,185884,1,4,0:0:0:0:
487,314,185974,1,4,0:0:0:0:
471,348,186065,1,10,0:0:0:0:
442,371,186155,1,4,0:0:0:0:
406,377,186246,2,0,P|376:372|348:372,1,50,4|2,0:0|0:2,0:0:0:0:
228,384,186426,22,0,L|192:376,3,33.3333333333333,8|8|4|4,0:0|0:0|0:0|0:0,0:0:0:0:
288,312,186697,2,0,L|324:304,3,33.3333333333333,8|4|8|4,0:0|0:0|0:0|0:0,0:0:0:0:
208,244,186968,37,4,0:0:0:0:
208,244,187059,1,4,0:0:0:0:
208,244,187149,2,0,L|216:192,1,50,8|8,0:0|0:0,0:0:0:0:
260,128,187330,1,8,0:0:0:0:
220,116,187420,1,4,0:0:0:0:
180,128,187511,1,8,0:0:0:0:
144,148,187601,1,8,0:0:0:0:
104,136,187691,1,4,0:0:0:0:
88,100,187782,1,4,0:0:0:0:
104,64,187872,22,0,P|124:52|152:48,1,50,6|4,0:0|0:0,0:0:0:0:
260,128,188053,2,0,P|238:140|214:144,1,50,4|4,0:0|0:0,0:0:0:0:
280,32,188233,2,0,P|303:29|330:37,1,50,10|4,0:0|0:0,0:0:0:0:
394,155,188414,2,0,P|369:157|345:150,1,50,4|4,0:0|0:0,0:0:0:0:
464,104,188595,2,0,P|475:129|480:158,1,50,10|4,0:0|0:0,0:0:0:0:
460,268,188776,2,0,P|440:287|414:301,1,50,4|4,0:0|0:0,0:0:0:0:
356,260,188956,2,0,P|375:240|401:226,1,50,6|4,0:0|0:0,0:0:0:0:
468,356,189137,2,0,P|442:367|413:372,1,50,4|4,0:0|0:0,0:0:0:0:
348,172,189318,6,0,P|373:160|402:155,1,50,6|4,0:0|0:0,0:0:0:0:
348,360,189499,2,0,P|321:350|298:333,1,50,4|4,0:0|0:0,0:0:0:0:
252,284,189679,2,0,P|240:258|235:229,1,50,6|4,0:0|0:0,0:0:0:0:
240,160,189860,2,0,P|249:133|266:110,1,50,4|4,0:0|0:0,0:0:0:0:
348,172,190041,2,0,P|338:198|321:221,1,50,10|4,0:0|0:0,0:0:0:0:
200,76,190221,2,0,P|219:56|245:42,1,50,4|4,0:0|0:0,0:0:0:0:
388,256,190402,2,0,P|368:275|342:289,1,50,6|4,0:0|0:0,0:0:0:0:
235,237,190583,2,0,P|206:237|178:245,1,50,4|4,0:0|0:0,0:0:0:0:
88,300,190764,6,0,P|64:284|48:260,1,55.0000016784668,6|4,0:0|0:0,0:0:0:0:
4,176,190944,2,0,P|13:148|32:127,1,55.0000016784668,4|4,0:0|0:0,0:0:0:0:
124,100,191125,2,0,P|148:116|164:140,1,55.0000016784668,6|4,0:0|0:0,0:0:0:0:
209,223,191306,2,0,P|224:245|247:260,1,55.0000016784668,4|4,0:0|0:0,0:0:0:0:
342,284,191486,2,0,P|367:274|387:256,1,55.0000016784668,10|4,0:0|0:0,0:0:0:0:
436,172,191667,2,0,P|433:144|421:120,1,55.0000016784668,4|4,0:0|0:0,0:0:0:0:
348,56,191848,2,0,P|321:51|294:57,1,55.0000016784668,6|4,0:0|0:0,0:0:0:0:
220,120,192029,2,0,P|193:124|166:118,1,55.0000016784668,4|4,0:0|0:0,0:0:0:0:
76,68,192209,22,0,P|49:64|20:68,1,57.5000010967255,6|4,0:0|0:0,0:0:0:0:
76,180,192390,2,0,P|103:184|132:180,1,57.5000010967255,4|4,0:0|0:0,0:0:0:0:
220,120,192571,2,0,P|247:116|276:120,1,57.5000010967255,6|4,0:0|0:0,0:0:0:0:
266,223,192752,2,0,P|239:227|210:223,1,57.5000010967255,4|4,0:0|0:0,0:0:0:0:
124,100,192932,2,0,P|134:74|156:52,1,57.5000010967255,10|4,0:0|0:0,0:0:0:0:
324,68,193113,2,0,P|340:89|348:120,1,57.5000010967255,4|4,0:0|0:0,0:0:0:0:
342,284,193294,1,8,0:0:0:0:
300,304,193384,1,8,0:0:0:0:
260,324,193474,1,8,0:0:0:0:
216,344,193565,1,8,0:0:0:0:
172,364,193655,6,0,P|144:360|116:340,1,59.9999981689454,6|4,0:0|0:0,0:0:0:0:
16,220,193836,2,0,P|5:193|8:159,1,59.9999981689454,10|4,0:0|0:0,0:0:0:0:
164,232,194017,2,0,P|174:258|171:292,1,59.9999981689454,4|4,0:0|0:0,0:0:0:0:
76,180,194197,2,0,P|87:153|113:132,1,59.9999981689454,10|4,0:0|0:0,0:0:0:0:
104,272,194378,2,0,P|92:298|66:319,1,59.9999981689454,4|4,0:0|0:0,0:0:0:0:
72,72,194559,2,0,P|98:61|132:64,1,59.9999981689454,10|4,0:0|0:0,0:0:0:0:
233,167,194740,2,0,P|203:170|176:160,1,59.9999981689454,4|4,0:0|0:0,0:0:0:0:
324,68,194920,2,0,P|350:76|375:100,1,59.9999981689454,10|4,0:0|0:0,0:0:0:0:
340,284,195101,6,0,P|313:294|280:292,1,62.5,6|4,0:0|0:0,0:0:0:0:
164,232,195282,2,0,P|135:228|104:240,1,62.5,10|4,0:0|0:0,0:0:0:0:
172,352,195462,2,0,P|200:355|232:344,1,62.5,4|4,0:0|0:0,0:0:0:0:
300,220,195643,2,0,P|326:209|360:212,1,62.5,10|4,0:0|0:0,0:0:0:0:
376,348,195824,2,0,P|349:358|316:356,1,62.5,4|4,0:0|0:0,0:0:0:0:
236,260,196005,2,0,P|225:233|228:200,1,62.5,10|4,0:0|0:0,0:0:0:0:
420,172,196185,2,0,P|430:198|428:232,1,62.5,4|4,0:0|0:0,0:0:0:0:
248,332,196366,2,0,P|219:332|188:316,1,62.5,10|4,0:0|0:0,0:0:0:0:
108,136,196547,22,0,P|124:108|152:92,1,64.9999970245363,6|4,0:0|0:0,0:0:0:0:
344,176,196727,2,0,P|328:204|300:220,1,64.9999970245363,10|4,0:0|0:0,0:0:0:0:
40,168,196908,2,0,P|31:136|40:105,1,64.9999970245363,4|4,0:0|0:0,0:0:0:0:
276,92,197089,2,0,P|284:123|276:154,1,64.9999970245363,10|4,0:0|0:0,0:0:0:0:
68,236,197270,2,0,P|36:244|5:236,1,64.9999970245363,4|4,0:0|0:0,0:0:0:0:
212,124,197450,5,10,0:0:0:0:
248,332,197631,1,10,0:0:0:0:
40,168,197812,1,4,0:0:0:0:
32,136,197902,1,4,0:0:0:0:
24,104,197993,6,0,P|24:72|32:44,1,59.9999981689454,10|4,0:0|0:0,0:0:0:0:
136,20,198173,1,4,0:0:0:0:
184,36,198264,1,4,0:0:0:0:
212,76,198354,1,4,0:0:0:0:
212,124,198444,1,4,0:0:0:0:
192,168,198535,22,0,P|188:196|192:224,1,55.0000016784668,10|4,0:0|0:0,0:0:0:0:
248,332,198715,1,4,0:0:0:0:
288,352,198806,1,4,0:0:0:0:
332,352,198896,1,4,0:0:0:0:
368,328,198986,1,4,0:0:0:0:
380,288,199077,6,0,P|380:260|388:232,1,50,10|4,0:0|0:0,0:0:0:0:
440,140,199258,1,4,0:0:0:0:
464,108,199348,1,4,0:0:0:0:
468,68,199438,1,4,0:0:0:0:
444,36,199529,1,4,0:0:0:0:
408,20,199619,6,0,P|380:20|356:28,1,50,10|4,0:0|0:0,0:0:0:0:
300,108,199800,2,0,L|292:160,3,50,4|4|4|4,0:0|0:0|0:0|0:0,0:0:0:0:
192,168,200161,5,8,0:0:0:0:
182,169,200221,1,8,0:0:0:0:
171,170,200282,1,4,0:0:0:0:
161,171,200342,1,4,0:0:0:0:
151,172,200402,1,4,0:0:0:0:
141,173,200462,1,4,0:0:0:0:
130,174,200523,1,8,0:0:0:0:
120,175,200583,1,4,0:0:0:0:
110,176,200643,1,4,0:0:0:0:
100,177,200703,1,4,0:0:0:0:
90,178,200764,1,4,0:0:0:0:
80,179,200824,1,4,0:0:0:0:
70,180,200884,6,0,P|4:112|52:20,1,200,6|10,0:0|0:0,0:0:0:0:
212,84,201426,2,0,P|278:152|230:244,1,200,6|4,0:0|0:0,0:0:0:0:
224,248,201878,1,4,0:0:0:0:
204,248,201968,2,0,B|152:240|152:240|120:276|120:276|68:256|24:288,1,200,10|0,0:0|0:0,0:0:0:0:
216,352,202511,1,4,0:0:0:0:
236,344,202601,1,4,0:0:0:0:
256,336,202691,2,0,B|284:324|284:324|320:328|320:328|352:312,1,100,10|0,0:0|0:0,0:0:0:0:
468,240,203053,2,0,L|512:212,2,50,6|4|4,0:0|0:0|0:0,0:0:0:0:
352,228,203414,2,0,L|308:256,2,50,10|4|4,0:0|0:0|0:0,0:0:0:0:
432,136,203776,6,0,P|430:41|340:8,1,200,6|10,0:0|0:0,0:0:0:0:
280,184,204318,2,0,P|281:278|372:312,1,200,10|4,0:0|0:0,0:0:0:0:
388,304,204770,1,0,0:0:0:0:
404,292,204860,2,0,B|429:245|429:245|406:203|406:203|442:161|427:109,1,200,10|6,0:0|0:0,0:0:0:0:
416,96,205312,1,4,0:0:0:0:
400,84,205402,1,4,0:0:0:0:
304,112,205583,1,10,0:0:0:0:
228,48,205764,1,4,0:0:0:0:
208,44,205854,1,4,0:0:0:0:
188,40,205944,2,0,P|160:40|136:48,1,50,8|8,0:0|0:0,0:0:0:0:
124,116,206125,2,0,P|152:116|176:108,1,50,8|8,0:0|0:0,0:0:0:0:
304,112,206306,1,8,0:0:0:0:
329,136,206396,1,4,0:0:0:0:
341,168,206486,1,8,0:0:0:0:
339,202,206577,1,4,0:0:0:0:
322,233,206667,6,0,P|312:280|324:336,1,100,10|4,0:0|0:0,0:0:0:0:
424,376,207029,1,10,0:0:0:0:
504,300,207209,1,4,0:0:0:0:
504,300,207300,1,4,0:0:0:0:
504,300,207390,1,10,0:0:0:0:
444,208,207571,1,4,0:0:0:0:
484,104,207752,1,10,0:0:0:0:
472,88,207842,1,4,0:0:0:0:
460,72,207932,1,4,0:0:0:0:
340,88,208113,1,10,0:0:0:0:
298,200,208294,1,4,0:0:0:0:
310,216,208384,1,4,0:0:0:0:
322,232,208474,1,10,0:0:0:0:
248,328,208655,1,4,0:0:0:0:
176,232,208836,1,10,0:0:0:0:
184,224,208926,1,4,0:0:0:0:
192,216,209017,1,4,0:0:0:0:
116,336,209197,1,10,0:0:0:0:
108,344,209287,1,4,0:0:0:0:
100,352,209378,1,4,0:0:0:0:
48,236,209559,21,10,0:0:0:0:
32,212,209649,1,4,0:0:0:0:
16,188,209740,1,4,0:0:0:0:
176,232,209920,1,10,0:0:0:0:
268,152,210101,1,4,0:0:0:0:
284,176,210191,1,4,0:0:0:0:
300,200,210282,1,10,0:0:0:0:
140,156,210462,1,4,0:0:0:0:
116,336,210643,1,10,0:0:0:0:
144,344,210733,1,4,0:0:0:0:
172,348,210824,1,4,0:0:0:0:
256,264,211005,1,10,0:0:0:0:
140,156,211185,1,4,0:0:0:0:
112,148,211275,1,4,0:0:0:0:
84,144,211366,1,10,0:0:0:0:
96,244,211547,1,4,0:0:0:0:
256,264,211727,5,10,0:0:0:0:
275,241,211818,1,4,0:0:0:0:
290,215,211908,1,4,0:0:0:0:
300,187,211999,1,4,0:0:0:0:
304,157,212089,1,10,0:0:0:0:
302,127,212179,1,4,0:0:0:0:
294,98,212270,1,4,0:0:0:0:
281,71,212360,1,4,0:0:0:0:
263,47,212450,5,10,0:0:0:0:
220,36,212541,1,4,0:0:0:0:
176,44,212631,1,4,0:0:0:0:
136,64,212721,1,4,0:0:0:0:
92,72,212812,1,10,0:0:0:0:
48,56,212902,1,4,0:0:0:0:
28,16,212993,1,4,0:0:0:0:
72,32,213083,1,4,0:0:0:0:
92,72,213173,1,10,0:0:0:0:
80,116,213264,1,4,0:0:0:0:
52,152,213354,2,0,P|44:180|44:208,1,57.5000010967255,4|2,0:0|0:2,0:0:0:0:
76,308,213535,1,10,0:0:0:0:
112,336,213625,1,4,0:0:0:0:
156,344,213715,1,4,0:0:0:0:
200,328,213806,1,4,0:0:0:0:
232,296,213896,2,0,P|256:280|284:276,1,57.5000010967255,10|2,0:0|0:2,0:0:0:0:
384,304,214077,21,4,0:0:0:0:
420,332,214167,1,4,0:0:0:0:
468,328,214258,1,10,0:0:0:0:
496,292,214348,1,4,0:0:0:0:
496,248,214438,2,0,P|492:220|492:188,1,57.5000010967255,4|2,0:0|0:2,0:0:0:0:
508,88,214619,1,10,0:0:0:0:
504,44,214709,1,4,0:0:0:0:
468,16,214800,1,4,0:0:0:0:
424,20,214890,1,4,0:0:0:0:
392,52,214980,2,0,P|368:64|336:68,1,57.5000010967255,10|2,0:0|0:2,0:0:0:0:
236,40,215161,1,4,0:0:0:0:
192,24,215252,1,4,0:0:0:0:
148,24,215342,1,10,0:0:0:0:
108,48,215432,1,4,0:0:0:0:
92,92,215523,1,4,0:0:0:0:
104,136,215613,1,4,0:0:0:0:
100,180,215703,2,0,P|96:208|80:232,1,57.5000010967255,10|2,0:0|0:2,0:0:0:0:
168,96,215884,5,4,0:0:0:0:
208,116,215974,1,4,0:0:0:0:
256,116,216065,1,10,0:0:0:0:
296,92,216155,1,4,0:0:0:0:
340,76,216246,2,0,P|372:76|400:88,1,57.5000010967255,4|2,0:0|0:2,0:0:0:0:
460,168,216426,1,10,0:0:0:0:
472,212,216517,1,4,0:0:0:0:
460,256,216607,1,4,0:0:0:0:
424,284,216697,1,4,0:0:0:0:
380,292,216788,2,0,P|352:288|308:300,1,57.5000010967255,10|2,0:0|0:2,0:0:0:0:
232,340,216968,1,4,0:0:0:0:
188,352,217059,1,4,0:0:0:0:
144,336,217149,1,10,0:0:0:0:
124,296,217239,1,4,0:0:0:0:
136,252,217330,2,0,P|140:224|136:196,1,57.5000010967255,4|2,0:0|0:2,0:0:0:0:
52,132,217511,1,10,0:0:0:0:
12,152,217601,1,4,0:0:0:0:
0,196,217691,1,4,0:0:0:0:
12,240,217782,1,4,0:0:0:0:
48,268,217872,2,0,P|56:296|56:328,1,57.5000010967255,10|2,0:0|0:2,0:0:0:0:
72,200,218053,2,0,P|100:192|132:192,1,57.5000010967255,4|4,0:0|0:0,0:0:0:0:
192,288,218233,5,10,0:0:0:0:
236,300,218324,1,4,0:0:0:0:
280,292,218414,1,4,0:0:0:0:
316,264,218505,1,4,0:0:0:0:
360,252,218595,2,0,P|392:252|420:264,1,57.5000010967255,10|2,0:0|0:2,0:0:0:0:
380,360,218776,2,0,P|348:360|320:348,1,57.5000010967255,4|2,0:0|0:2,0:0:0:0:
244,220,218956,1,10,0:0:0:0:
236,176,219047,1,4,0:0:0:0:
248,132,219137,2,0,P|252:104|248:72,1,57.5000010967255,4|2,0:0|0:2,0:0:0:0:
160,148,219318,2,0,P|156:176|160:208,1,57.5000010967255,10|2,0:0|0:2,0:0:0:0:
320,180,219499,1,4,0:0:0:0:
324,168,219589,1,4,0:0:0:0:
328,156,219679,21,10,0:0:0:0:
320,112,219770,1,4,0:0:0:0:
332,68,219860,1,4,0:0:0:0:
368,40,219950,1,4,0:0:0:0:
416,40,220041,1,10,0:0:0:0:
452,68,220131,1,4,0:0:0:0:
460,112,220221,1,4,0:0:0:0:
440,152,220312,1,4,0:0:0:0:
400,176,220402,2,0,P|388:200|384:232,1,57.5000010967255,10|2,0:0|0:2,0:0:0:0:
464,312,220583,1,4,0:0:0:0:
456,356,220673,1,4,0:0:0:0:
420,384,220764,2,0,P|388:384|360:368,1,57.5000010967255,10|2,0:0|0:2,0:0:0:0:
288,288,220944,1,4,0:0:0:0:
264,248,221035,1,4,0:0:0:0:
224,228,221125,6,0,P|196:224|168:228,1,57.5000010967255,8|8,0:0|0:0,0:0:0:0:
140,340,221306,2,0,P|168:344|196:340,1,57.5000010967255,8|4,0:0|0:0,0:0:0:0:
276,172,221486,1,4,0:0:0:0:
280,156,221577,1,4,0:0:0:0:
284,140,221667,2,0,P|288:111|284:83,1,57.5000010967255,8|8,0:0|0:0,0:0:0:0:
172,55,221848,2,0,P|168:83|171:111,1,57.5000010967255,8|4,0:0|0:0,0:0:0:0:
288,288,222029,1,4,0:0:0:0:
296,304,222119,1,4,0:0:0:0:
304,320,222209,1,10,0:0:0:0:
348,332,222300,1,4,0:0:0:0:
388,312,222390,1,4,0:0:0:0:
432,300,222480,1,4,0:0:0:0:
476,312,222571,6,0,P|508:276|512:224,1,100,6|10,0:0|0:0,0:0:0:0:
380,148,222932,2,0,P|348:184|344:236,1,100,4|10,0:0|0:0,0:0:0:0:
432,384,223294,1,4,0:0:0:0:
436,244,223474,1,10,0:0:0:0:
436,244,223565,1,4,0:0:0:0:
304,320,223746,1,4,0:0:0:0:
304,320,223837,1,10,0:0:0:0:
176,240,224017,22,0,P|168:188|184:144,1,100,4|10,0:0|0:0,0:0:0:0:
312,84,224378,1,4,0:0:0:0:
312,84,224468,1,4,0:0:0:0:
312,84,224559,1,10,0:0:0:0:
296,240,224739,1,4,0:0:0:0:
272,252,224830,1,4,0:0:0:0:
248,252,224920,1,10,0:0:0:0:
312,84,225101,1,4,0:0:0:0:
336,72,225192,1,4,0:0:0:0:
360,72,225282,1,10,0:0:0:0:
460,184,225462,6,0,B|468:224|468:224|440:280,1,100,4|10,0:0|0:0,0:0:0:0:
236,112,225824,2,0,B|228:72|228:72|256:16,1,100,4|10,0:0|0:0,0:0:0:0:
356,152,226185,1,4,0:0:0:0:
248,252,226366,1,10,0:0:0:0:
248,252,226456,1,4,0:0:0:0:
442,277,226637,1,4,0:0:0:0:
442,277,226727,1,10,0:0:0:0:
236,112,226908,6,0,B|184:108|184:108|136:124,1,100,4|10,0:0|0:0,0:0:0:0:
28,168,227270,1,4,0:0:0:0:
24,180,227360,1,4,0:0:0:0:
20,192,227450,1,10,0:0:0:0:
131,283,227631,2,0,P|159:279|181:269,1,50,6|8,0:0|0:0,0:0:0:0:
136,208,227812,2,0,P|107:211|85:221,1,50,8|8,0:0|0:0,0:0:0:0:
48,288,227993,1,8,0:0:0:0:
44,304,228083,1,8,0:0:0:0:
40,320,228173,1,4,0:0:0:0:
36,336,228264,1,4,0:0:0:0:
32,352,228354,22,0,P|72:384|136:384,1,115.000002193451,10|4,0:0|0:0,0:0:0:0:
136,208,228715,2,0,P|96:176|32:176,1,115.000002193451,10|4,0:0|0:0,0:0:0:0:
131,283,229077,1,10,0:0:0:0:
252,212,229258,1,4,0:0:0:0:
260,180,229348,1,4,0:0:0:0:
252,148,229438,1,10,0:0:0:0:
132,36,229619,1,4,0:0:0:0:
124,68,229709,1,4,0:0:0:0:
132,100,229800,2,0,P|152:156|136:208,1,115.000002193451,10|4,0:0|0:0,0:0:0:0:
4,248,230161,5,10,0:0:0:0:
4,128,230342,1,4,0:0:0:0:
4,128,230432,1,4,0:0:0:0:
4,128,230523,2,0,L|56:104,1,57.5000010967255,8|8,0:0|0:0,0:0:0:0:
132,284,230703,1,4,0:0:0:0:
132,284,230793,1,4,0:0:0:0:
132,284,230884,2,0,L|80:308,1,57.5000010967255,8|8,0:0|0:0,0:0:0:0:
96,168,231065,1,4,0:0:0:0:
96,168,231155,1,4,0:0:0:0:
96,168,231246,6,0,P|152:172|204:128,1,115.000002193451,10|4,0:0|0:0,0:0:0:0:
228,56,231607,2,0,P|172:52|120:96,1,115.000002193451,10|4,0:0|0:0,0:0:0:0:
132,284,231968,21,8,0:0:0:0:
191,330,232088,1,8,0:0:0:0:
267,334,232208,1,8,0:0:0:0:
332,296,232329,1,4,0:0:0:0:
364,228,232449,1,8,0:0:0:0:
352,153,232570,1,4,0:0:0:0:
300,96,232691,6,0,B|252:112|252:112|220:152|220:152|172:164|120:140,1,200,6|8,0:0|0:0,0:0:0:0:
236,36,233233,2,0,B|300:16|300:16|344:28|404:16,1,166.666666666667,6|4,0:0|0:0,0:0:0:0:
476,40,233655,2,0,L|456:92,1,53.3333333333333,8|4,0:0|0:0,0:0:0:0:
356,144,233896,2,0,L|376:92,1,53.3333333333333,8|4,0:0|0:0,0:0:0:0:
444,168,234137,6,0,B|456:216|456:216|432:260|432:260|452:304|436:360,1,200,6|8,0:0|0:0,0:0:0:0:
328,380,234679,2,0,B|276:384|276:384|244:344|244:344|264:288|244:240,1,200,6|4,0:0|0:0,0:0:0:0:
192,200,235101,6,0,L|184:184,1,16.6666666666667,4|4,0:0|0:0,0:0:0:0:
224,124,235221,1,10,0:0:0:0:
240,112,235583,6,0,B|260:108|260:108|284:112|284:112|308:108,2,66.6666666666667,6|4|4,0:0|0:0|0:0,0:0:0:0:
120,220,235944,2,0,B|100:224|100:224|76:220|76:220|52:224,2,66.6666666666667,10|4|4,0:0|0:0|0:0,0:0:0:0:
132,140,236306,2,0,L|124:88,3,50,6|4|4|4,0:0|0:0|0:0|0:0,0:0:0:0:
192,200,236667,2,0,L|200:252,3,50,10|4|4|4,0:0|0:0|0:0|0:0,0:0:0:0:
256,304,237029,6,0,P|288:312|324:312,1,66.6666666666667,8|8,0:0|0:0,0:0:0:0:
380,248,237270,2,0,L|392:180,1,66.6666666666667,4|4,0:0|0:0,0:0:0:0:
192,200,237511,2,0,P|160:208|124:208,1,66.6666666666667,8|8,0:0|0:0,0:0:0:0:
68,144,237752,2,0,L|56:76,1,66.6666666666667,4|4,0:0|0:0,0:0:0:0:
252,124,237993,2,0,P|284:132|320:132,1,66.6666666666667,8|8,0:0|0:0,0:0:0:0:
376,68,238234,2,0,L|388:0,1,66.6666666666667,4|4,0:0|0:0,0:0:0:0:
192,68,238474,6,0,P|172:112|180:164,1,100,6|10,0:0|0:0,0:0:0:0:
440,304,238836,2,0,P|460:260|452:208,1,100,4|10,0:0|0:0,0:0:0:0:
308,132,239197,1,4,0:0:0:0:
280,128,239288,1,4,0:0:0:0:
252,124,239378,1,10,0:0:0:0:
324,256,239559,1,4,0:0:0:0:
352,252,239650,1,4,0:0:0:0:
380,248,239740,1,10,0:0:0:0:
244,212,239920,1,4,0:0:0:0:
440,304,240101,1,10,0:0:0:0:
272,328,240282,1,4,0:0:0:0:
412,172,240462,1,10,0:0:0:0:
440,304,240643,22,0,P|396:328|340:320,1,100,4|10,0:0|0:0,0:0:0:0:
352,116,241005,2,0,P|396:92|452:100,1,100,4|10,0:0|0:0,0:0:0:0:
244,212,241366,1,4,0:0:0:0:
292,48,241547,1,10,0:0:0:0:
412,172,241727,1,4,0:0:0:0:
364,336,241908,1,10,0:0:0:0:
244,212,242089,5,4,0:0:0:0:
244,212,242179,1,4,0:0:0:0:
244,212,242270,1,10,0:0:0:0:
412,172,242450,1,4,0:0:0:0:
412,172,242540,1,4,0:0:0:0:
412,172,242631,1,10,0:0:0:0:
364,336,242812,1,4,0:0:0:0:
224,348,242993,1,10,0:0:0:0:
104,200,243173,1,4,0:0:0:0:
244,212,243354,1,10,0:0:0:0:
412,172,243535,6,0,B|416:136|416:136|412:108|412:108|416:72,1,100,4|10,0:0|0:0,0:0:0:0:
244,212,243896,2,0,P|232:260|244:308,1,100,4|10,0:0|0:0,0:0:0:0:
344,128,244258,2,0,B|316:120|292:128|292:128|272:136|244:132,1,100,6|10,0:0|0:0,0:0:0:0:
172,24,244619,1,4,0:0:0:0:
172,24,244709,1,4,0:0:0:0:
172,24,244800,1,10,0:0:0:0:
344,128,244980,2,0,B|352:164|352:164|344:192|352:228,1,100,4|10,0:0|0:0,0:0:0:0:
468,284,245342,1,4,0:0:0:0:
468,284,245432,1,4,0:0:0:0:
468,284,245523,1,10,0:0:0:0:
344,128,245703,2,0,P|292:124|244:140,1,100,4|10,0:0|0:0,0:0:0:0:
200,260,246065,1,4,0:0:0:0:
200,260,246155,1,4,0:0:0:0:
200,260,246246,1,10,0:0:0:0:
344,128,246426,2,0,B|348:92|348:92|344:64|344:64|348:28,1,100,4|10,0:0|0:0,0:0:0:0:
464,184,246788,2,0,B|468:220|468:220|464:248|464:248|468:284,1,100,4|10,0:0|0:0,0:0:0:0:
288,380,247149,21,4,0:0:0:0:
200,260,247330,1,10,0:0:0:0:
260,124,247511,1,4,0:0:0:0:
260,124,247601,1,4,0:0:0:0:
260,124,247691,1,10,0:0:0:0:
348,244,247872,1,4,0:0:0:0:
200,260,248053,1,10,0:0:0:0:
112,140,248233,1,4,0:0:0:0:
112,140,248324,1,4,0:0:0:0:
112,140,248414,1,10,0:0:0:0:
260,124,248595,5,4,0:0:0:0:
348,244,248776,1,10,0:0:0:0:
288,380,248956,1,4,0:0:0:0:
200,260,249137,1,10,0:0:0:0:
196,252,249227,1,4,0:0:0:0:
192,244,249318,1,4,0:0:0:0:
188,236,249408,1,8,0:0:0:0:
184,228,249499,2,0,L|132:224,1,50,8|8,0:0|0:0,0:0:0:0:
156,340,249679,2,0,L|208:344,1,50,8|8,0:0|0:0,0:0:0:0:
348,244,249860,2,0,L|296:240,1,50,8|8,0:0|0:0,0:0:0:0:
288,380,250041,5,6,0:0:0:0:
336,388,250131,1,4,0:0:0:0:
379,365,250221,1,4,0:0:0:0:
399,320,250312,1,4,0:0:0:0:
386,273,250402,1,6,0:0:0:0:
348,244,250493,1,4,0:0:0:0:
298,241,250583,1,4,0:0:0:0:
248,247,250673,1,4,0:0:0:0:
200,259,250764,1,10,0:0:0:0:
150,262,250854,1,4,0:0:0:0:
107,239,250944,1,4,0:0:0:0:
82,196,251035,1,4,0:0:0:0:
83,147,251125,1,6,0:0:0:0:
109,105,251215,1,4,0:0:0:0:
154,84,251306,1,4,0:0:0:0:
203,88,251396,1,4,0:0:0:0:
242,118,251486,2,0,L|248:168,3,50,6|4|4|4,0:0|0:0|0:0|0:0,0:0:0:0:
156,212,251848,2,0,L|150:261,3,50,6|4|4|4,0:0|0:0|0:0|0:0,0:0:0:0:
212,340,252209,21,10,0:0:0:0:
260,335,252299,1,4,0:0:0:0:
297,302,252389,1,4,0:0:0:0:
332,267,252480,1,4,0:0:0:0:
380,255,252570,1,6,0:0:0:0:
425,274,252660,1,4,0:0:0:0:
451,316,252752,2,0,P|452:340|448:368,1,50,4|4,0:0|0:0,0:0:0:0:
332,267,252932,5,6,0:0:0:0:
315,221,253022,1,4,0:0:0:0:
324,172,253112,1,4,0:0:0:0:
338,124,253203,1,4,0:0:0:0:
332,75,253293,1,6,0:0:0:0:
301,37,253384,1,4,0:0:0:0:
253,31,253474,1,4,0:0:0:0:
212,59,253564,1,4,0:0:0:0:
200,106,253655,1,10,0:0:0:0:
222,150,253746,1,4,0:0:0:0:
236,197,253836,1,4,0:0:0:0:
220,243,253926,1,4,0:0:0:0:
180,271,254017,1,6,0:0:0:0:
130,271,254107,1,4,0:0:0:0:
91,241,254197,1,4,0:0:0:0:
76,194,254288,1,4,0:0:0:0:
92,148,254378,2,0,L|100:96,3,50,6|4|4|4,0:0|0:0|0:0|0:0,0:0:0:0:
173,222,254739,2,0,L|181:274,3,50,6|4|4|4,0:0|0:0|0:0|0:0,0:0:0:0:
24,288,255101,5,8,0:0:0:0:
20,296,255191,1,4,0:0:0:0:
16,304,255282,1,4,0:0:0:0:
12,312,255372,1,4,0:0:0:0:
8,320,255462,2,0,L|20:368,1,50,8|8,0:0|0:0,0:0:0:0:
104,288,255643,2,0,L|92:240,1,50,8|8,0:0|0:0,0:0:0:0:
172,144,255824,21,6,0:0:0:0:
220,131,255914,1,4,0:0:0:0:
269,136,256004,1,4,0:0:0:0:
313,158,256095,1,4,0:0:0:0:
347,195,256185,2,0,P|372:208|396:212,3,50,6|4|4|4,0:0|0:0|0:0|0:0,0:0:0:0:
464,284,256547,1,10,0:0:0:0:
455,332,256637,1,4,0:0:0:0:
419,365,256727,1,4,0:0:0:0:
371,370,256818,1,4,0:0:0:0:
329,345,256908,2,0,P|304:332|280:328,3,50,6|4|4|4,0:0|0:0|0:0|0:0,0:0:0:0:
184,348,257270,5,6,0:0:0:0:
135,352,257360,1,4,0:0:0:0:
92,327,257450,1,4,0:0:0:0:
72,283,257541,1,4,0:0:0:0:
82,234,257631,2,0,P|85:206|81:182,3,50,6|4|4|4,0:0|0:0|0:0|0:0,0:0:0:0:
36,96,257993,2,0,L|32:44,1,50,8|8,0:0|0:0,0:0:0:0:
160,108,258173,2,0,L|156:160,1,50,8|8,0:0|0:0,0:0:0:0:
168,332,258354,1,4,0:0:0:0:
172,336,258444,1,8,0:0:0:0:
176,340,258535,1,4,0:0:0:0:
180,344,258625,1,4,0:0:0:0:
184,348,258715,6,0,B|232:368|232:368|280:352|280:352|332:364|376:344,1,200,10|4,0:0|0:0,0:0:0:0:
340,104,259258,2,0,P|248:68|160:108,1,200,10|4,0:0|0:0,0:0:0:0:
312,268,259800,2,0,B|348:272|348:272|376:268|376:268|412:272,1,100,10|4,0:0|0:0,0:0:0:0:
212,172,260161,2,0,B|164:184|164:184|112:176|112:176|60:184|36:232,1,200,10|4,0:0|0:0,0:0:0:0:
224,352,260703,2,0,B|276:348|276:348|284:300|284:300|264:252|284:204,1,200,10|4,0:0|0:0,0:0:0:0:
484,180,261246,2,0,P|496:228|484:280,1,100,10|4,0:0|0:0,0:0:0:0:
312,268,261607,21,8,2:3:0:0:
256,260,261697,1,8,2:3:0:0:
200,252,261788,1,8,2:3:0:0:
144,244,261878,1,8,2:3:0:0:
88,236,261968,1,8,2:3:0:0:
88,236,263053,6,0,P|76:176|92:120,1,119.999996337891,10|4,0:0|0:0,0:0:0:0:
196,320,263414,2,0,P|150:360|93:374,1,119.999996337891,10|4,0:0|0:0,0:0:0:0:
216,184,263776,2,0,P|273:203|314:245,1,119.999996337891,10|4,0:0|0:0,0:0:0:0:
96,292,264137,1,8,2:3:0:0:
88,236,264227,1,8,2:3:0:0:
80,180,264318,1,8,2:3:0:0:
72,124,264408,1,8,2:3:0:0:
64,68,264499,5,6,0:0:0:0:
216,184,264679,1,10,0:0:0:0:
104,344,264860,1,4,0:0:0:0:
76,348,264950,1,4,0:0:0:0:
48,352,265041,1,10,0:0:0:0:
188,180,265221,1,4,0:0:0:0:
216,184,265311,1,4,0:0:0:0:
244,188,265402,1,10,0:0:0:0:
180,328,265583,1,4,0:0:0:0:
80,180,265764,1,10,0:0:0:0:
76,152,265854,1,4,0:0:0:0:
72,124,265944,21,4,0:0:0:0:
244,188,266125,1,10,0:0:0:0:
416,124,266306,1,4,0:0:0:0:
420,96,266396,1,4,0:0:0:0:
424,68,266486,1,10,0:0:0:0:
356,232,266667,1,4,0:0:0:0:
360,260,266757,1,4,0:0:0:0:
364,288,266847,1,10,0:0:0:0:
292,124,267029,1,2,0:2:0:0:
288,96,267119,1,2,0:2:0:0:
284,68,267209,1,10,0:0:0:0:
280,40,267300,1,2,0:2:0:0:
276,12,267390,5,6,0:0:0:0:
244,188,267571,1,10,0:0:0:0:
364,288,267752,1,0,0:0:0:0:
392,296,267842,1,4,0:0:0:0:
420,284,267932,2,0,B|424:244|424:244|448:212|448:212|452:168,1,119.999996337891,10|4,0:0|0:0,0:0:0:0:
244,188,268294,2,0,P|232:248|252:304,1,119.999996337891,10|4,0:0|0:0,0:0:0:0:
376,184,268655,1,10,0:0:0:0:
276,116,268836,2,0,B|214:97|216:129|155:110,1,119.999996337891,4|10,0:0|0:0,0:0:0:0:
288,36,269197,2,0,B|348:24|348:24|408:36,1,119.999996337891,4|10,0:0|0:0,0:0:0:0:
244,188,269559,2,0,B|204:196|204:196|164:188|164:188|124:196,1,119.999996337891,4|10,0:0|0:0,0:0:0:0:
108,364,269920,2,0,P|168:380|224:368,1,119.999996337891,4|10,0:0|0:0,0:0:0:0:
316,240,270282,5,6,0:0:0:0:
252,100,270462,1,10,0:0:0:0:
128,196,270643,1,4,0:0:0:0:
124,224,270733,1,4,0:0:0:0:
120,252,270824,1,10,0:0:0:0:
260,156,271005,1,4,0:0:0:0:
256,128,271095,1,4,0:0:0:0:
252,100,271185,1,10,0:0:0:0:
128,196,271366,1,4,0:0:0:0:
232,312,271547,1,10,0:0:0:0:
260,316,271637,1,4,0:0:0:0:
288,320,271727,21,4,0:0:0:0:
120,252,271908,1,10,0:0:0:0:
172,376,272089,1,4,0:0:0:0:
200,380,272179,1,4,0:0:0:0:
228,384,272269,1,10,0:0:0:0:
260,156,272450,1,4,0:0:0:0:
288,320,272631,1,10,0:0:0:0:
320,92,272812,1,4,0:0:0:0:
228,384,272993,1,10,0:0:0:0:
240,76,273173,5,6,0:0:0:0:
172,336,273354,1,10,0:0:0:0:
432,264,273535,1,4,0:0:0:0:
440,236,273625,1,4,0:0:0:0:
448,208,273715,2,0,B|440:168|440:168|448:132|448:132|440:88,1,119.999996337891,10|4,0:0|0:0,0:0:0:0:
260,156,274077,2,0,P|252:216|276:268,1,119.999996337891,10|4,0:0|0:0,0:0:0:0:
372,132,274438,1,10,0:0:0:0:
240,76,274619,2,0,B|204:84|204:84|168:72|120:92,1,119.999996337891,4|10,0:0|0:0,0:0:0:0:
372,132,274980,2,0,P|380:72|356:20,1,119.999996337891,4|10,0:0|0:0,0:0:0:0:
172,160,275342,2,0,B|164:200|164:200|172:236|172:236|164:280,1,119.999996337891,4|10,0:0|0:0,0:0:0:0:
4,256,275703,2,0,B|-4:192|-4:192|16:140,1,119.999996337891,4|10,0:0|0:0,0:0:0:0:
156,84,276065,5,4,0:0:0:0:
372,132,276246,1,10,0:0:0:0:
172,160,276426,1,4,0:0:0:0:
140,8,276607,1,10,0:0:0:0:
140,8,276697,1,4,0:0:0:0:
140,8,276788,1,4,0:0:0:0:
320,196,276968,1,10,0:0:0:0:
320,196,277058,1,4,0:0:0:0:
320,196,277149,1,4,0:0:0:0:
120,224,277330,1,10,0:0:0:0:
156,84,277511,21,4,0:0:0:0:
184,80,277601,1,4,0:0:0:0:
212,76,277691,1,10,0:0:0:0:
80,140,277872,1,4,0:0:0:0:
52,136,277962,1,4,0:0:0:0:
24,132,278052,1,10,0:0:0:0:
120,224,278233,1,4,0:0:0:0:
148,220,278323,1,4,0:0:0:0:
176,216,278413,1,10,0:0:0:0:
92,336,278595,1,2,0:2:0:0:
53,355,278685,1,2,0:2:0:0:
13,338,278775,1,10,0:0:0:0:
2,296,278866,1,2,0:2:0:0:
29,261,278956,5,6,0:0:0:0:
212,352,279137,1,10,0:0:0:0:
296,236,279318,1,4,0:0:0:0:
300,208,279408,1,4,0:0:0:0:
304,180,279499,2,0,B|312:140|312:140|336:108|336:108|344:68,1,119.999996337891,10|4,0:0|0:0,0:0:0:0:
220,240,279860,2,0,P|248:296|300:312,1,119.999996337891,10|4,0:0|0:0,0:0:0:0:
268,76,280221,1,10,0:0:0:0:
144,208,280402,2,0,B|140:248|140:248|152:288|152:288|148:328,1,119.999996337891,4|10,0:0|0:0,0:0:0:0:
220,204,280764,2,0,P|192:148|140:132,1,119.999996337891,4|10,0:0|0:0,0:0:0:0:
164,336,281125,2,0,B|224:344|224:344|284:332,1,119.999996337891,4|10,0:0|0:0,0:0:0:0:
144,208,281486,2,0,B|112:200|84:212|84:212|56:224|24:212,1,119.999996337891,4|10,0:0|0:0,0:0:0:0:
140,132,281848,5,6,0:0:0:0:
164,336,282029,1,10,0:0:0:0:
312,288,282209,1,4,0:0:0:0:
316,260,282300,1,4,0:0:0:0:
320,232,282390,1,10,0:0:0:0:
144,208,282571,1,4,0:0:0:0:
148,236,282662,1,4,0:0:0:0:
152,264,282752,1,10,0:0:0:0:
396,228,282932,1,4,0:0:0:0:
392,200,283023,1,4,0:0:0:0:
388,172,283113,1,10,0:0:0:0:
144,208,283294,21,4,0:0:0:0:
136,212,283384,1,8,0:0:0:0:
128,216,283474,2,0,L|116:156,1,59.9999981689454,8|8,0:0|0:0,0:0:0:0:
256,192,283655,2,0,L|244:252,1,59.9999981689454,8|8,0:0|0:0,0:0:0:0:
156,68,283836,1,8,0:0:0:0:
160,72,283926,1,4,0:0:0:0:
164,76,284017,2,0,P|188:72|224:68,1,59.9999981689454,8|4,0:0|0:0,0:0:0:0:
423,112,284197,2,0,P|399:108|363:104,1,59.9999981689454,8|8,0:0|0:0,0:0:0:0:
196,199,284378,2,0,P|220:195|256:191,1,59.9999981689454,4|4,0:0|0:0,0:0:0:0:
455,235,284558,2,0,P|431:231|395:227,1,59.9999981689454,4|4,0:0|0:0,0:0:0:0:
244,300,284739,5,6,0:0:0:0:
164,76,284920,1,10,0:0:0:0:
64,204,285101,1,4,0:0:0:0:
64,204,285191,1,4,0:0:0:0:
64,204,285282,2,0,B|68:244|68:244|88:276|88:276|92:320,1,119.999996337891,10|4,0:0|0:0,0:0:0:0:
256,212,285643,1,10,0:0:0:0:
260,184,285733,1,4,0:0:0:0:
264,156,285824,1,4,0:0:0:0:
164,76,286005,1,10,0:0:0:0:
64,204,286185,5,4,0:0:0:0:
64,204,286276,1,4,0:0:0:0:
64,204,286366,1,10,0:0:0:0:
232,284,286547,1,4,0:0:0:0:
232,284,286638,1,4,0:0:0:0:
232,284,286728,1,10,0:0:0:0:
8,312,286908,1,4,0:0:0:0:
4,284,286999,1,4,0:0:0:0:
0,256,287089,1,10,0:0:0:0:
168,328,287270,1,4,0:0:0:0:
164,356,287361,1,4,0:0:0:0:
160,384,287451,1,10,0:0:0:0:
64,204,287631,21,4,0:0:0:0:
224,228,287812,1,10,0:0:0:0:
228,256,287903,1,4,0:0:0:0:
232,284,287993,1,4,0:0:0:0:
72,124,288173,1,10,0:0:0:0:
76,84,288264,1,4,0:0:0:0:
80,44,288354,1,4,0:0:0:0:
232,148,288535,1,10,0:0:0:0:
228,188,288626,1,4,0:0:0:0:
224,228,288716,1,4,0:0:0:0:
64,204,288896,1,10,0:0:0:0:
160,96,289077,5,4,0:0:0:0:
160,96,289167,1,4,0:0:0:0:
160,96,289258,1,10,0:0:0:0:
224,228,289438,1,4,0:0:0:0:
304,124,289619,1,10,0:0:0:0:
304,124,289709,1,4,0:0:0:0:
304,124,289800,1,4,0:0:0:0:
293,270,289980,1,10,0:0:0:0:
88,124,290161,1,2,0:2:0:0:
85,79,290251,1,2,0:2:0:0:
107,40,290341,1,10,0:0:0:0:
146,20,290432,1,2,0:2:0:0:
190,23,290522,5,6,0:0:0:0:
12,140,290703,1,10,0:0:0:0:
8,108,290794,1,4,0:0:0:0:
4,80,290884,1,4,0:0:0:0:
64,204,291065,1,10,0:0:0:0:
68,244,291155,1,4,0:0:0:0:
72,284,291246,1,4,0:0:0:0:
152,176,291427,1,10,0:0:0:0:
156,136,291517,1,4,0:0:0:0:
160,96,291608,1,4,0:0:0:0:
12,140,291788,1,10,0:0:0:0:
152,260,291968,21,4,0:0:0:0:
192,268,292059,1,4,0:0:0:0:
232,276,292149,1,10,0:0:0:0:
372,180,292330,1,4,0:0:0:0:
332,188,292421,1,4,0:0:0:0:
292,196,292511,1,10,0:0:0:0:
160,96,292691,1,4,0:0:0:0:
200,104,292782,1,4,0:0:0:0:
240,112,292872,1,10,0:0:0:0:
380,16,293053,1,4,0:0:0:0:
340,24,293144,1,4,0:0:0:0:
300,32,293234,1,10,0:0:0:0:
152,176,293414,5,6,0:0:0:0:
152,176,293505,1,4,0:0:0:0:
152,176,293595,1,10,0:0:0:0:
232,276,293776,1,4,0:0:0:0:
288,120,293956,1,10,0:0:0:0:
288,120,294047,1,4,0:0:0:0:
288,120,294137,1,4,0:0:0:0:
307,246,294318,1,10,0:0:0:0:
152,308,294499,1,4,0:0:0:0:
152,308,294590,1,4,0:0:0:0:
152,308,294680,1,10,0:0:0:0:
236,192,294861,1,6,0:0:0:0:
328,344,295041,22,8,L|312:368,2,25
417,338,295221,5,8,0:0:0:0:
450,313,295311,1,8,0:0:0:0:
464,275,295402,1,8,0:0:0:0:
455,234,295492,1,8,0:0:0:0:
424,207,295583,2,0,L|364:212,1,59.9999981689454,8|8,0:0|0:0,0:0:0:0:
220,268,295764,2,0,L|280:273,1,59.9999981689454,8|8,0:0|0:0,0:0:0:0:
392,136,295944,2,0,P|396:104|392:76,1,59.9999981689454,8|4,0:0|0:0,0:0:0:0:
236,132,296125,2,0,P|232:164|236:192,1,59.9999981689454,8|4,0:0|0:0,0:0:0:0:
392,272,296306,21,6,0:0:0:0:
472,140,296486,1,10,0:0:0:0:
472,140,296577,1,4,0:0:0:0:
472,140,296667,1,4,0:0:0:0:
356,36,296848,1,10,0:0:0:0:
328,32,296938,1,4,0:0:0:0:
296,28,297029,1,4,0:0:0:0:
176,124,297209,1,10,0:0:0:0:
204,128,297299,1,4,0:0:0:0:
236,132,297390,1,4,0:0:0:0:
188,16,297571,1,10,0:0:0:0:
296,208,297752,21,4,0:0:0:0:
292,236,297842,1,4,0:0:0:0:
288,264,297932,1,10,0:0:0:0:
184,180,298113,1,4,0:0:0:0:
180,152,298203,1,4,0:0:0:0:
176,124,298294,1,10,0:0:0:0:
368,148,298474,1,4,0:0:0:0:
372,176,298564,1,4,0:0:0:0:
376,204,298656,1,10,0:0:0:0:
100,240,298836,1,4,0:0:0:0:
104,212,298926,1,4,0:0:0:0:
108,184,299016,1,10,0:0:0:0:
288,264,299197,5,4,0:0:0:0:
104,336,299378,1,10,0:0:0:0:
104,336,299468,1,4,0:0:0:0:
104,336,299559,1,4,0:0:0:0:
184,180,299739,1,10,0:0:0:0:
212,176,299830,1,4,0:0:0:0:
240,172,299920,1,4,0:0:0:0:
236,328,300101,1,10,0:0:0:0:
208,324,300192,1,4,0:0:0:0:
180,320,300282,1,4,0:0:0:0:
240,172,300462,1,10,0:0:0:0:
372,264,300643,5,4,0:0:0:0:
382,309,300733,1,4,0:0:0:0:
353,345,300823,1,10,0:0:0:0:
307,345,300914,1,4,0:0:0:0:
277,309,301004,1,4,0:0:0:0:
287,264,301095,1,4,0:0:0:0:
297,218,301185,1,10,0:0:0:0:
268,182,301275,1,4,0:0:0:0:
222,182,301366,1,6,0:0:0:0:
192,218,301456,1,4,0:0:0:0:
202,263,301546,1,10,0:0:0:0:
452,268,301727,1,2,0:2:0:0:
456,232,301818,1,2,0:2:0:0:
460,196,301908,1,10,0:0:0:0:
464,160,301999,1,2,0:2:0:0:
468,124,302089,21,6,0:0:0:0:
297,218,302270,1,10,0:0:0:0:
292,248,302360,1,4,0:0:0:0:
288,276,302450,1,4,0:0:0:0:
344,116,302631,1,10,0:0:0:0:
336,76,302721,1,4,0:0:0:0:
328,36,302812,1,4,0:0:0:0:
186,183,302993,1,10,0:0:0:0:
194,223,303083,1,4,0:0:0:0:
202,263,303174,1,4,0:0:0:0:
252,104,303354,1,10,0:0:0:0:
96,152,303535,5,4,0:0:0:0:
88,192,303625,1,4,0:0:0:0:
80,232,303715,1,10,0:0:0:0:
252,104,303896,1,4,0:0:0:0:
244,64,303986,1,4,0:0:0:0:
236,24,304076,1,10,0:0:0:0:
202,263,304258,1,4,0:0:0:0:
244,268,304348,1,4,0:0:0:0:
284,272,304438,1,10,0:0:0:0:
392,176,304619,1,4,0:0:0:0:
350,181,304709,1,4,0:0:0:0:
310,185,304799,1,10,0:0:0:0:
224,360,304980,5,6,0:0:0:0:
180,382,305070,1,4,0:0:0:0:
131,374,305160,1,10,0:0:0:0:
96,340,305251,1,4,0:0:0:0:
87,291,305341,1,4,0:0:0:0:
108,247,305432,1,4,0:0:0:0:
111,198,305522,1,10,0:0:0:0:
75,166,305612,1,4,0:0:0:0:
28,174,305703,1,6,0:0:0:0:
5,216,305793,1,4,0:0:0:0:
26,263,305884,1,10,0:0:0:0:
40,310,305974,1,4,0:0:0:0:
33,360,306065,1,6,0:0:0:0:
78,340,306155,1,4,0:0:0:0:
128,334,306245,1,8,0:0:0:0:
177,340,306336,1,4,0:0:0:0:
223,359,306426,21,6,0:0:0:0:
368,252,306607,1,8,0:0:0:0:
372,244,306697,1,8,0:0:0:0:
376,236,306788,1,8,0:0:0:0:
379,187,306878,1,8,0:0:0:0:
351,147,306968,1,8,0:0:0:0:
303,135,307059,1,8,0:0:0:0:
259,156,307149,2,0,B|208:164|208:164|164:152|164:152|112:160,2,150,8|4|4,0:0|0:0|0:0,0:0:0:0:
156,264,307872,5,6,0:0:0:0:
256,192,307962,12,0,313474,0:0:0:0:
216,320,313655,6,0,L|164:324,1,50,8|8,2:3|2:3,0:0:0:0:
184,240,313836,2,0,L|236:236,1,50,8|8,2:3|2:3,0:0:0:0:
296,296,314017,1,8,2:3:0:0:
296,64,316547,22,0,L|348:60,1,50,8|8,2:3|2:3,0:0:0:0:
328,144,316728,2,0,L|276:148,1,50,8|8,2:3|2:3,0:0:0:0:
216,88,316909,1,8,2:3:0:0:
296,320,318896,37,4,0:0:0:0:
292,328,318956,1,4,0:0:0:0:
288,336,319017,1,4,0:0:0:0:
284,344,319077,22,0,L|208:352,1,75,10|0,0:0|0:0,0:0:0:0:
116,312,319438,6,0,P|100:288|96:268,1,44.999998626709,6|2,0:0|0:2,0:0:0:0:
104,176,319618,1,4,0:0:0:0:
137,146,319708,1,4,0:0:0:0:
181,137,319798,1,10,0:0:0:0:
223,151,319889,1,4,0:0:0:0:
253,184,319980,1,4,0:0:0:0:
281,218,320070,1,4,0:0:0:0:
324,227,320160,2,0,P|347:223|383:223,1,44.999998626709,10|2,0:0|0:2,0:0:0:0:
460,264,320341,1,4,0:0:0:0:
473,305,320431,1,4,0:0:0:0:
453,344,320521,1,10,0:0:0:0:
411,356,320612,1,4,0:0:0:0:
373,333,320703,2,0,P|347:323|327:323,1,44.999998626709,4|2,0:0|0:2,0:0:0:0:
240,364,320883,21,10,0:0:0:0:
199,382,320973,1,4,0:0:0:0:
155,375,321063,1,4,0:0:0:0:
122,346,321154,1,4,0:0:0:0:
111,303,321245,2,0,P|116:280|116:256,1,44.999998626709,10|2,0:0|0:2,0:0:0:0:
68,172,321425,1,4,0:0:0:0:
46,133,321515,1,4,0:0:0:0:
47,88,321605,1,10,0:0:0:0:
70,50,321696,1,4,0:0:0:0:
109,28,321787,2,0,P|136:28|156:24,1,44.999998626709,4|2,0:0|0:2,0:0:0:0:
252,0,321968,5,10,0:0:0:0:
252,0,322058,1,4,0:0:0:0:
252,0,322148,2,4,L|256:44,1,44.999998626709,4|2,0:0|0:2,0:0:0:0:
228,140,322329,1,10,0:0:0:0:
212,182,322419,1,4,0:0:0:0:
216,226,322509,1,4,0:0:0:0:
237,265,322600,1,4,0:0:0:0:
247,308,322691,2,0,P|244:336|236:352,1,44.999998626709,10|2,0:0|0:2,0:0:0:0:
140,372,322871,1,4,0:0:0:0:
101,350,322961,1,4,0:0:0:0:
81,310,323051,1,10,0:0:0:0:
87,266,323142,1,4,0:0:0:0:
117,233,323233,2,0,P|128:216|132:192,1,44.999998626709,4|2,0:0|0:2,0:0:0:0:
64,120,323413,5,10,0:0:0:0:
23,136,323503,1,4,0:0:0:0:
3,175,323593,1,4,0:0:0:0:
14,218,323684,1,4,0:0:0:0:
51,242,323775,2,0,P|72:252|88:268,1,44.999998626709,10|2,0:0|0:2,0:0:0:0:
101,350,323956,1,4,0:0:0:0:
140,371,324046,1,4,0:0:0:0:
184,371,324136,1,10,0:0:0:0:
222,347,324227,1,4,0:0:0:0:
243,308,324317,1,4,0:0:0:0:
241,264,324407,1,4,0:0:0:0:
216,226,324498,22,0,P|204:192|204:176,1,47.4999987316132,10|2,0:0|0:2,0:0:0:0:
236,88,324678,1,4,0:0:0:0:
269,55,324768,1,4,0:0:0:0:
315,48,324858,1,10,0:0:0:0:
357,69,324949,1,4,0:0:0:0:
380,110,325039,1,4,0:0:0:0:
375,156,325129,1,4,0:0:0:0:
344,191,325221,2,0,P|328:208|320:232,1,47.4999987316132,10|2,0:0|0:2,0:0:0:0:
344,328,325401,1,4,0:0:0:0:
386,347,325491,1,4,0:0:0:0:
432,339,325581,1,10,0:0:0:0:
466,307,325672,1,4,0:0:0:0:
475,261,325763,2,0,P|468:236|456:216,1,47.4999987316132,4|2,0:0|0:2,0:0:0:0:
375,156,325944,5,10,0:0:0:0:
330,143,326034,1,4,0:0:0:0:
284,156,326124,1,4,0:0:0:0:
239,168,326215,1,4,0:0:0:0:
193,155,326305,2,0,P|168:144|140:140,1,47.4999987316132,10|2,0:0|0:2,0:0:0:0:
52,164,326486,1,4,0:0:0:0:
18,195,326576,1,4,0:0:0:0:
15,241,326666,1,10,0:0:0:0:
46,276,326757,1,4,0:0:0:0:
92,279,326847,2,0,P|120:272|144:272,1,47.4999987316132,4|2,0:0|0:2,0:0:0:0:
228,320,327028,5,10,0:0:0:0:
232,324,327118,1,4,0:0:0:0:
236,328,327209,2,0,L|232:376,1,47.4999987316132,4|2,0:0|0:2,0:0:0:0:
208,244,327389,1,10,0:0:0:0:
254,244,327479,1,4,0:0:0:0:
293,270,327569,1,4,0:0:0:0:
313,313,327660,1,4,0:0:0:0:
306,359,327751,2,0,P|332:356|356:356,1,47.4999987316132,10|2,0:0|0:2,0:0:0:0:
428,292,327931,1,4,0:0:0:0:
436,245,328021,1,4,0:0:0:0:
419,202,328111,1,10,0:0:0:0:
381,174,328202,1,4,0:0:0:0:
335,171,328293,2,0,P|304:176|284:176,1,47.4999987316132,4|2,0:0|0:2,0:0:0:0:
200,128,328474,21,10,0:0:0:0:
183,85,328564,1,4,0:0:0:0:
202,43,328654,1,4,0:0:0:0:
246,28,328745,1,4,0:0:0:0:
287,51,328835,2,0,P|312:64|332:68,1,47.4999987316132,10|2,0:0|0:2,0:0:0:0:
432,60,329016,1,4,0:0:0:0:
476,73,329106,1,4,0:0:0:0:
502,111,329196,1,10,0:0:0:0:
499,158,329287,1,4,0:0:0:0:
467,191,329377,1,4,0:0:0:0:
419,202,329468,1,4,0:0:0:0:
381,174,329558,6,0,P|360:168|332:172,1,47.4999987316132,10|2,0:0|0:2,0:0:0:0:
272,248,329739,1,4,0:0:0:0:
231,276,329829,1,4,0:0:0:0:
182,274,329919,1,10,0:0:0:0:
145,242,330010,1,4,0:0:0:0:
135,194,330100,1,4,0:0:0:0:
156,150,330190,1,4,0:0:0:0:
200,128,330281,2,0,P|228:132|256:128,1,50,10|2,0:0|0:2,0:0:0:0:
296,40,330462,1,4,0:0:0:0:
257,9,330552,1,4,0:0:0:0:
208,4,330642,1,10,0:0:0:0:
163,25,330733,1,4,0:0:0:0:
136,66,330823,2,0,P|116:80|92:84,1,50,4|2,0:0|0:2,0:0:0:0:
4,36,331004,5,10,0:0:0:0:
18,83,331094,1,4,0:0:0:0:
18,133,331184,1,4,0:0:0:0:
5,181,331275,1,4,0:0:0:0:
0,232,331365,2,0,P|8:256|24:276,1,50,10|2,0:0|0:2,0:0:0:0:
120,304,331546,1,4,0:0:0:0:
167,291,331636,1,4,0:0:0:0:
193,250,331726,1,10,0:0:0:0:
185,202,331817,1,4,0:0:0:0:
183,154,331907,1,4,0:0:0:0:
219,121,331997,1,4,0:0:0:0:
267,127,332088,22,0,P|292:136|320:136,1,52.4999983978272,10|2,0:0|0:2,0:0:0:0:
416,100,332269,1,4,0:0:0:0:
462,122,332359,1,4,0:0:0:0:
485,168,332449,1,10,0:0:0:0:
476,219,332540,1,4,0:0:0:0:
438,254,332630,1,4,0:0:0:0:
387,258,332720,1,4,0:0:0:0:
343,231,332811,2,0,P|324:224|292:220,1,52.4999983978272,10|2,0:0|0:2,0:0:0:0:
193,250,332992,1,4,0:0:0:0:
144,265,333082,1,4,0:0:0:0:
97,244,333172,1,10,0:0:0:0:
76,198,333263,1,4,0:0:0:0:
91,148,333353,2,0,P|100:120|100:92,1,52.4999983978272,4|2,0:0|0:2,0:0:0:0:
40,12,333534,5,10,0:0:0:0:
90,23,333624,1,4,0:0:0:0:
141,13,333715,1,4,0:0:0:0:
191,1,333805,1,4,0:0:0:0:
242,11,333895,2,0,P|264:32|272:56,1,52.4999983978272,10|2,0:0|0:2,0:0:0:0:
240,156,334076,1,4,0:0:0:0:
238,207,334166,1,4,0:0:0:0:
271,246,334256,1,10,0:0:0:0:
321,254,334347,1,4,0:0:0:0:
364,226,334437,1,4,0:0:0:0:
378,176,334527,1,4,0:0:0:0:
355,130,334618,6,0,P|332:120|304:120,1,55.0000016784668,10|2,0:0|0:2,0:0:0:0:
238,207,334799,1,4,0:0:0:0:
195,239,334889,1,4,0:0:0:0:
141,237,334979,1,10,0:0:0:0:
100,201,335070,1,4,0:0:0:0:
91,148,335160,1,4,0:0:0:0:
64,104,335250,1,4,0:0:0:0:
12,88,335341,2,0,P|4:55|8:31,1,55.0000016784668,10|2,0:0|0:2,0:0:0:0:
116,12,335522,1,4,0:0:0:0:
147,56,335612,1,4,0:0:0:0:
156,110,335702,1,10,0:0:0:0:
139,162,335793,1,4,0:0:0:0:
100,201,335883,2,0,P|92:228|96:260,1,55.0000016784668,4|2,0:0|0:2,0:0:0:0:
172,336,336064,21,10,0:0:0:0:
225,338,336154,1,4,0:0:0:0:
266,303,336244,1,4,0:0:0:0:
271,250,336335,1,4,0:0:0:0:
238,207,336425,2,0,P|232:184|236:152,1,55.0000016784668,10|2,0:0|0:2,0:0:0:0:
288,56,336606,1,4,0:0:0:0:
328,20,336696,1,4,0:0:0:0:
382,19,336786,1,10,0:0:0:0:
425,52,336877,1,4,0:0:0:0:
437,104,336967,1,4,0:0:0:0:
414,153,337057,1,4,0:0:0:0:
364,176,337148,6,0,P|336:172|308:176,1,57.5000010967255,10|2,0:0|0:2,0:0:0:0:
224,260,337329,1,4,0:0:0:0:
170,277,337419,1,4,0:0:0:0:
119,253,337509,1,10,0:0:0:0:
100,200,337600,1,4,0:0:0:0:
96,145,337690,1,4,0:0:0:0:
47,121,337780,1,4,0:0:0:0:
0,150,337871,2,0,P|-4:180|0:208,1,57.5000010967255,10|2,0:0|0:2,0:0:0:0:
116,384,338052,1,4,0:0:0:0:
116,384,338142,1,4,0:0:0:0:
116,384,338233,2,0,P|120:354|116:326,1,57.5000010967255,10|2,0:0|0:2,0:0:0:0:
76,240,338413,2,0,P|71:210|75:182,1,57.5000010967255,4|2,0:0|0:2,0:0:0:0:
192,48,338594,5,8,0:0:0:0:
192,48,338684,1,4,0:0:0:0:
192,48,338775,1,8,0:0:0:0:
192,48,338865,1,4,0:0:0:0:
192,48,338956,1,8,0:0:0:0:
216,99,339046,1,8,0:0:0:0:
202,153,339136,1,4,0:0:0:0:
157,187,339227,1,8,0:0:0:0:
106,211,339317,1,4,0:0:0:0:
87,263,339407,1,8,0:0:0:0:
112,313,339498,1,4,0:0:0:0:
165,330,339588,1,4,0:0:0:0:
215,304,339678,22,0,P|244:292|272:288,1,59.9999981689454,6|2,0:0|0:2,0:0:0:0:
388,324,339859,1,10,0:0:0:0:
446,318,339949,1,4,0:0:0:0:
487,276,340039,1,4,0:0:0:0:
492,218,340130,1,4,0:0:0:0:
457,170,340220,1,10,0:0:0:0:
400,156,340310,1,4,0:0:0:0:
348,183,340401,2,0,P|320:192|288:192,1,59.9999981689454,4|2,0:0|0:2,0:0:0:0:
216,100,340582,1,10,0:0:0:0:
161,76,340672,1,4,0:0:0:0:
104,88,340762,1,4,0:0:0:0:
63,131,340853,1,4,0:0:0:0:
55,189,340944,2,0,P|63:219|63:251,1,59.9999981689454,10|2,0:0|0:2,0:0:0:0:
20,360,341124,5,4,0:0:0:0:
75,340,341214,1,4,0:0:0:0:
135,349,341304,1,10,0:0:0:0:
193,361,341395,1,4,0:0:0:0:
251,352,341486,2,0,P|276:332|288:304,1,59.9999981689454,4|2,0:0|0:2,0:0:0:0:
272,188,341666,1,10,0:0:0:0:
244,137,341756,1,4,0:0:0:0:
187,135,341846,1,4,0:0:0:0:
156,183,341937,1,4,0:0:0:0:
184,236,342028,2,0,P|205:261|213:289,1,59.9999981689454,10|2,0:0|0:2,0:0:0:0:
55,251,342209,5,10,0:0:0:0:
55,251,342299,1,4,0:0:0:0:
55,251,342389,1,4,0:0:0:0:
76,193,342479,1,4,0:0:0:0:
50,138,342570,1,6,0:0:0:0:
33,79,342660,1,4,0:0:0:0:
60,24,342750,1,4,0:0:0:0:
117,2,342841,1,4,0:0:0:0:
174,23,342931,2,0,P|204:32|236:32,1,62.5,10|2,0:0|0:2,0:0:0:0:
356,0,343112,21,4,0:0:0:0:
414,14,343202,1,4,0:0:0:0:
439,69,343292,1,6,0:0:0:0:
412,123,343383,1,4,0:0:0:0:
353,136,343474,2,0,P|319:135|287:143,1,62.5,4|2,0:0|0:2,0:0:0:0:
196,220,343654,5,10,0:0:0:0:
137,236,343744,1,4,0:0:0:0:
86,202,343835,1,4,0:0:0:0:
78,142,343925,1,4,0:0:0:0:
117,97,344016,2,0,P|152:100|184:96,1,62.5,10|2,0:0|0:2,0:0:0:0:
280,20,344197,5,4,0:0:0:0:
280,20,344287,1,4,0:0:0:0:
280,20,344377,2,0,L|288:84,1,62.5,10|2,0:0|0:2,0:0:0:0:
188,282,344558,1,4,0:0:0:0:
188,282,344648,1,4,0:0:0:0:
188,282,344738,22,0,L|196:218,1,62.5,10|2,0:0|0:2,0:0:0:0:
100,300,344919,1,4,0:0:0:0:
134,350,345009,1,4,0:0:0:0:
193,367,345099,1,4,0:0:0:0:
248,342,345190,1,4,0:0:0:0:
275,287,345281,2,0,P|292:260|316:244,1,62.5,10|4,0:0|0:0,0:0:0:0:
444,232,345462,5,2,0:2:0:0:
485,188,345552,1,4,0:0:0:0:
477,128,345642,1,10,0:0:0:0:
425,97,345733,1,4,0:0:0:0:
369,118,345823,1,4,0:0:0:0:
311,139,345913,1,4,0:0:0:0:
253,121,346004,2,0,P|224:108|192:104,1,62.5,10|2,0:0|0:2,0:0:0:0:
72,136,346184,5,4,0:0:0:0:
34,184,346274,1,4,0:0:0:0:
35,246,346364,1,4,0:0:0:0:
73,294,346455,1,4,0:0:0:0:
133,308,346546,2,0,P|160:292|192:280,1,62.5,10|2,0:0|0:2,0:0:0:0:
316,288,346727,21,4,0:0:0:0:
316,288,346817,1,4,0:0:0:0:
316,288,346907,2,0,L|308:352,1,62.5,10|2,0:0|0:2,0:0:0:0:
184,208,347088,1,4,0:0:0:0:
172,128,347178,1,4,0:0:0:0:
160,48,347269,5,10,0:0:0:0:
