osu file format v12

[General]
AudioFilename: Demetori-OPENING---The-Introduction(mp3hamster.net).mp3
AudioLeadIn: 0
PreviewTime: -1
Countdown: 0
SampleSet: Normal
StackLeniency: 0.7
Mode: 1
LetterboxInBreaks: 0
WidescreenStoryboard: 1

[Editor]
DistanceSpacing: 0.8
BeatDivisor: 4
GridSize: 32

[Metadata]
Title:OPENING- The Introduction
TitleUnicode:OPENING- The Introduction
Artist:Demetori
ArtistUnicode:Demetori
Creator:Sy[K]es
Version:Muzukashii
Source:
Tags:
BeatmapID:314638
BeatmapSetID:123150

[Difficulty]
HPDrainRate:0
CircleSize:3
OverallDifficulty:2
ApproachRate:2
SliderMultiplier:1.4
SliderTickRate:1

[Events]
//Background and Video events
0,0,"o7r514.jpg",0,0
//Break Periods
//Storyboard Layer 0 (Background)
//Storyboard Layer 1 (Fail)
//Storyboard Layer 2 (Pass)
//Storyboard Layer 3 (Foreground)
//Storyboard Sound Samples
//Background Colour Transformations
3,100,163,162,255

[TimingPoints]
15626,555.555555555556,4,1,0,100,1,0
48126,-100,4,1,0,100,0,1
64705,-100,4,1,0,100,0,0

[Colours]
Combo1 : 255,128,255
Combo2 : 128,0,64
Combo3 : 128,128,255
Combo4 : 128,255,255

[HitObjects]
256,192,8959,1,0,0:0:0:0:
256,192,9237,1,0,0:0:0:0:
256,192,9514,1,0,0:0:0:0:
256,192,9792,1,8,0:0:0:0:
256,192,10070,1,8,0:0:0:0:
256,192,10348,1,0,0:0:0:0:
256,192,10625,1,8,0:0:0:0:
256,192,10903,1,0,0:0:0:0:
256,192,11181,1,0,0:0:0:0:
256,192,11459,1,8,0:0:0:0:
256,192,11737,1,8,0:0:0:0:
256,192,12014,1,8,0:0:0:0:
256,192,12292,1,8,0:0:0:0:
256,192,12570,1,8,0:0:0:0:
256,192,12848,1,8,0:0:0:0:
256,192,13125,1,8,0:0:0:0:
256,192,13403,1,0,0:0:0:0:
256,192,13681,1,8,0:0:0:0:
256,192,13959,1,8,0:0:0:0:
256,192,14514,1,8,0:0:0:0:
256,192,14653,1,8,0:0:0:0:
256,192,14792,1,8,0:0:0:0:
256,192,15070,1,8,0:0:0:0:
256,192,15348,1,8,0:0:0:0:
256,192,15625,1,0,0:0:0:0:
256,192,15903,1,8,0:0:0:0:
256,192,16181,1,8,0:0:0:0:
256,192,16320,1,8,0:0:0:0:
256,192,16459,1,8,0:0:0:0:
256,192,16737,1,8,0:0:0:0:
256,192,17014,1,0,0:0:0:0:
256,192,17292,1,8,0:0:0:0:
256,192,17570,1,0,0:0:0:0:
256,192,17848,1,8,0:0:0:0:
256,192,17987,1,8,0:0:0:0:
256,192,18125,1,8,0:0:0:0:
256,192,18403,1,0,0:0:0:0:
256,192,18681,1,8,0:0:0:0:
256,192,18959,1,8,0:0:0:0:
256,192,19237,1,8,0:0:0:0:
256,192,19514,1,8,0:0:0:0:
160,128,20625,1,0,0:0:0:0:
160,128,21459,1,0,0:0:0:0:
160,128,21737,1,0,0:0:0:0:
160,128,22014,1,8,0:0:0:0:
160,128,22292,1,8,0:0:0:0:
160,128,22709,1,8,0:0:0:0:
160,128,22848,1,8,0:0:0:0:
160,128,23126,1,8,0:0:0:0:
160,128,23403,1,0,0:0:0:0:
160,128,23681,1,0,0:0:0:0:
160,128,23959,1,8,0:0:0:0:
160,128,24237,1,0,0:0:0:0:
160,128,24514,1,0,0:0:0:0:
160,128,24653,1,0,0:0:0:0:
160,128,24792,1,0,0:0:0:0:
160,128,25070,1,8,0:0:0:0:
160,128,25348,1,8,0:0:0:0:
160,128,25626,1,8,0:0:0:0:
160,128,25903,1,8,0:0:0:0:
160,128,26042,1,0,0:0:0:0:
160,128,26181,1,8,0:0:0:0:
160,128,26320,1,0,0:0:0:0:
160,128,26459,1,8,0:0:0:0:
160,128,27014,1,0,0:0:0:0:
160,128,27292,1,8,0:0:0:0:
160,128,27570,1,0,0:0:0:0:
160,128,27848,1,0,0:0:0:0:
160,128,28126,1,8,0:0:0:0:
160,128,28264,1,8,0:0:0:0:
160,128,28403,1,8,0:0:0:0:
160,128,28959,1,0,0:0:0:0:
160,128,29237,1,8,0:0:0:0:
160,128,29514,1,8,0:0:0:0:
160,128,29653,1,8,0:0:0:0:
160,128,29792,1,8,0:0:0:0:
160,128,30070,1,8,0:0:0:0:
160,128,30348,1,0,0:0:0:0:
160,128,30626,1,8,0:0:0:0:
160,128,30903,1,0,0:0:0:0:
160,128,31181,1,0,0:0:0:0:
160,128,31320,1,0,0:0:0:0:
160,128,31459,1,0,0:0:0:0:
160,128,31737,1,8,0:0:0:0:
160,128,32014,1,8,0:0:0:0:
160,128,32292,1,0,0:0:0:0:
160,128,33126,1,0,0:0:0:0:
160,128,33403,1,0,0:0:0:0:
160,128,33681,1,8,0:0:0:0:
160,128,33959,1,8,0:0:0:0:
160,128,34792,1,0,0:0:0:0:
160,128,35070,1,0,0:0:0:0:
160,128,35348,1,8,0:0:0:0:
160,128,35626,1,8,0:0:0:0:
160,128,35903,1,0,0:0:0:0:
160,128,36181,1,8,0:0:0:0:
160,128,36459,1,8,0:0:0:0:
160,128,36737,1,0,0:0:0:0:
160,128,37014,1,0,0:0:0:0:
160,128,37292,1,8,0:0:0:0:
160,128,37570,1,0,0:0:0:0:
160,128,37848,1,0,0:0:0:0:
160,128,38126,1,8,0:0:0:0:
160,128,38403,1,0,0:0:0:0:
160,128,38681,1,0,0:0:0:0:
160,128,38959,1,8,0:0:0:0:
160,128,39237,1,0,0:0:0:0:
160,128,39514,1,0,0:0:0:0:
160,128,39792,1,0,0:0:0:0:
160,128,40070,1,0,0:0:0:0:
160,128,40348,1,0,0:0:0:0:
160,128,40626,1,8,0:0:0:0:
160,128,40903,1,0,0:0:0:0:
160,128,41181,1,0,0:0:0:0:
160,128,41459,1,0,0:0:0:0:
160,128,41737,1,0,0:0:0:0:
160,128,42292,1,8,0:0:0:0:
160,128,42570,1,0,0:0:0:0:
160,128,42848,1,0,0:0:0:0:
160,128,43126,1,8,0:0:0:0:
160,128,43403,1,8,0:0:0:0:
160,128,43681,1,8,0:0:0:0:
160,128,43820,1,0,0:0:0:0:
160,128,43959,1,8,0:0:0:0:
160,128,44237,1,0,0:0:0:0:
160,128,44514,1,0,0:0:0:0:
160,128,44792,1,8,0:0:0:0:
160,128,45070,1,8,0:0:0:0:
160,128,45348,1,8,0:0:0:0:
160,128,45487,1,0,0:0:0:0:
160,128,45626,1,8,0:0:0:0:
160,128,45903,1,0,0:0:0:0:
160,128,46181,1,8,0:0:0:0:
160,128,46459,1,8,0:0:0:0:
160,128,46737,1,0,0:0:0:0:
160,128,47014,1,0,0:0:0:0:
160,128,47292,1,8,0:0:0:0:
160,128,47570,1,0,0:0:0:0:
160,128,47848,1,0,0:0:0:0:
160,128,48126,1,0,0:0:0:0:
160,128,48264,1,0,0:0:0:0:
160,128,48403,1,0,0:0:0:0:
160,128,48542,1,0,0:0:0:0:
160,128,48681,1,0,0:0:0:0:
160,128,48820,1,0,0:0:0:0:
160,128,48959,1,0,0:0:0:0:
160,128,49098,1,0,0:0:0:0:
160,128,49237,1,0,0:0:0:0:
160,128,49376,1,0,0:0:0:0:
160,128,49653,1,0,0:0:0:0:
160,128,49931,1,0,0:0:0:0:
160,128,50209,1,0,0:0:0:0:
160,128,50348,1,0,0:0:0:0:
160,128,50487,1,0,0:0:0:0:
160,128,50626,1,0,0:0:0:0:
160,128,50764,1,0,0:0:0:0:
160,128,50903,1,0,0:0:0:0:
160,128,51042,1,0,0:0:0:0:
160,128,51181,1,0,0:0:0:0:
160,128,51459,1,0,0:0:0:0:
160,128,51598,1,0,0:0:0:0:
160,128,51737,1,0,0:0:0:0:
160,128,51876,1,0,0:0:0:0:
160,128,52014,1,0,0:0:0:0:
160,128,52153,1,0,0:0:0:0:
160,128,52292,1,0,0:0:0:0:
160,128,52431,1,0,0:0:0:0:
160,128,52570,1,0,0:0:0:0:
160,128,52709,1,0,0:0:0:0:
160,128,53126,1,0,0:0:0:0:
160,128,53264,1,0,0:0:0:0:
160,128,53403,1,0,0:0:0:0:
160,128,53542,1,0,0:0:0:0:
160,128,53681,1,0,0:0:0:0:
160,128,53820,1,0,0:0:0:0:
160,128,53959,1,0,0:0:0:0:
160,128,54098,1,0,0:0:0:0:
160,128,54237,1,0,0:0:0:0:
160,128,54376,1,0,0:0:0:0:
160,128,54653,1,0,0:0:0:0:
160,128,54931,1,0,0:0:0:0:
160,128,55348,1,0,0:0:0:0:
160,128,55626,1,8,0:0:0:0:
160,128,55903,1,0,0:0:0:0:
160,128,56181,1,0,0:0:0:0:
160,128,56459,1,0,0:0:0:0:
160,128,56737,1,0,0:0:0:0:
160,128,57014,1,0,0:0:0:0:
160,128,57292,1,8,0:0:0:0:
160,128,57570,1,0,0:0:0:0:
160,128,57848,1,0,0:0:0:0:
160,128,58126,1,0,0:0:0:0:
160,128,58403,1,0,0:0:0:0:
160,128,58681,1,0,0:0:0:0:
160,128,58959,1,8,0:0:0:0:
160,128,59237,1,0,0:0:0:0:
160,128,59514,1,0,0:0:0:0:
160,128,59792,1,0,0:0:0:0:
160,128,60070,1,0,0:0:0:0:
160,128,60348,1,8,0:0:0:0:
160,128,60626,1,8,0:0:0:0:
160,128,60903,1,8,0:0:0:0:
160,128,61042,1,8,0:0:0:0:
160,128,61181,1,8,0:0:0:0:
