osu file format v12

[General]
AudioFilename: Demetori-OPENING---The-Introduction(mp3hamster.net).mp3
AudioLeadIn: 0
PreviewTime: -1
Countdown: 0
SampleSet: Normal
StackLeniency: 0.7
Mode: 1
LetterboxInBreaks: 0
WidescreenStoryboard: 0

[Editor]
DistanceSpacing: 0.8
BeatDivisor: 4
GridSize: 32

[Metadata]
Title:OPENING- The Introduction
TitleUnicode:OPENING- The Introduction
Artist:Demetori
ArtistUnicode:Demetori
Creator:Sy[K]es
Version:Futsuu
Source:
Tags:
BeatmapID:314636
BeatmapSetID:123150

[Difficulty]
HPDrainRate:0
CircleSize:2
OverallDifficulty:0
ApproachRate:0
SliderMultiplier:1.4
SliderTickRate:1

[Events]
//Background and Video events
0,0,"o7r514.jpg",0,0
//Break Periods
//Storyboard Layer 0 (Background)
//Storyboard Layer 1 (Fail)
//Storyboard Layer 2 (Pass)
//Storyboard Layer 3 (Foreground)
//Storyboard Sound Samples
//Background Colour Transformations
3,100,163,162,255

[TimingPoints]
15626,555.555555555556,4,1,0,100,1,0
48126,-100,4,1,0,100,0,1
64705,-100,4,1,0,100,0,0

[Colours]
Combo1 : 255,128,255
Combo2 : 128,0,64
Combo3 : 128,128,255
Combo4 : 128,255,255

[HitObjects]
352,32,2292,1,0,0:0:0:0:
352,32,3959,1,0,0:0:0:0:
352,32,5625,1,0,0:0:0:0:
352,32,7292,1,0,0:0:0:0:
352,32,8959,1,0,0:0:0:0:
352,32,10626,1,0,0:0:0:0:
352,32,11459,1,0,0:0:0:0:
352,32,11736,1,0,0:0:0:0:
352,32,12014,1,0,0:0:0:0:
352,32,12292,1,0,0:0:0:0:
352,32,12570,1,0,0:0:0:0:
352,32,12847,1,0,0:0:0:0:
352,32,13125,1,0,0:0:0:0:
352,32,13403,1,0,0:0:0:0:
352,32,13681,1,0,0:0:0:0:
352,32,13959,1,4,0:0:0:0:
352,32,14792,1,0,0:0:0:0:
352,32,15070,1,0,0:0:0:0:
352,32,15348,1,0,0:0:0:0:
352,32,15626,1,4,0:0:0:0:
352,32,15903,1,0,0:0:0:0:
352,32,16181,1,0,0:0:0:0:
352,32,16459,1,0,0:0:0:0:
352,32,16737,1,0,0:0:0:0:
352,32,17014,1,0,0:0:0:0:
352,32,17292,1,4,0:0:0:0:
352,32,17570,1,0,0:0:0:0:
352,32,17848,1,0,0:0:0:0:
352,32,18126,1,0,0:0:0:0:
352,32,18959,1,4,0:0:0:0:
352,32,19237,1,0,0:0:0:0:
352,32,19514,1,0,0:0:0:0:
352,32,19792,1,0,0:0:0:0:
352,32,20626,1,4,0:0:0:0:
352,32,20903,1,0,0:0:0:0:
352,32,21181,1,0,0:0:0:0:
352,32,21459,1,0,0:0:0:0:
352,32,22292,1,4,0:0:0:0:
352,32,22570,1,0,0:0:0:0:
352,32,22848,1,0,0:0:0:0:
352,32,23126,1,0,0:0:0:0:
352,32,23959,1,8,0:0:0:0:
352,32,24237,1,0,0:0:0:0:
352,32,24514,1,0,0:0:0:0:
352,32,24792,1,8,0:0:0:0:
352,32,25626,1,8,0:0:0:0:
352,32,25903,1,0,0:0:0:0:
352,32,26181,1,8,0:0:0:0:
352,32,26459,1,8,0:0:0:0:
352,32,26737,1,0,0:0:0:0:
352,32,27014,1,8,0:0:0:0:
352,32,27292,1,8,0:0:0:0:
352,32,28126,1,0,0:0:0:0:
352,32,28403,1,0,0:0:0:0:
352,32,28681,1,8,0:0:0:0:
352,32,28959,1,8,0:0:0:0:
352,32,29237,1,0,0:0:0:0:
352,32,29514,1,8,0:0:0:0:
352,32,29792,1,8,0:0:0:0:
352,32,30070,1,0,0:0:0:0:
352,32,30348,1,0,0:0:0:0:
352,32,30626,1,8,0:0:0:0:
352,32,30903,1,8,0:0:0:0:
352,32,31181,1,0,0:0:0:0:
352,32,31459,1,8,0:0:0:0:
352,32,32014,1,0,0:0:0:0:
352,32,32292,1,0,0:0:0:0:
352,32,32570,1,0,0:0:0:0:
352,32,32848,1,0,0:0:0:0:
352,32,33126,1,0,0:0:0:0:
352,32,33403,1,0,0:0:0:0:
352,32,33681,1,0,0:0:0:0:
352,32,33959,1,0,0:0:0:0:
352,32,34792,1,0,0:0:0:0:
352,32,35070,1,0,0:0:0:0:
352,32,35348,1,0,0:0:0:0:
352,32,35626,1,0,0:0:0:0:
352,32,35903,1,8,0:0:0:0:
352,32,36181,1,8,0:0:0:0:
352,32,36459,1,0,0:0:0:0:
352,32,36737,1,0,0:0:0:0:
352,32,37014,1,0,0:0:0:0:
352,32,37292,1,8,0:0:0:0:
352,32,37570,1,0,0:0:0:0:
352,32,37848,1,0,0:0:0:0:
352,32,38126,1,8,0:0:0:0:
352,32,38403,1,0,0:0:0:0:
352,32,38681,1,0,0:0:0:0:
352,32,38959,1,8,0:0:0:0:
352,32,39237,1,0,0:0:0:0:
352,32,39514,1,0,0:0:0:0:
352,32,39792,1,0,0:0:0:0:
352,32,40070,1,0,0:0:0:0:
352,32,40626,1,0,0:0:0:0:
352,32,41459,1,4,0:0:0:0:
352,32,41737,1,0,0:0:0:0:
352,32,42014,1,0,0:0:0:0:
352,32,42292,1,8,0:0:0:0:
352,32,42570,1,0,0:0:0:0:
352,32,42848,1,0,0:0:0:0:
352,32,43126,1,8,0:0:0:0:
352,32,43403,1,8,0:0:0:0:
352,32,43681,1,0,0:0:0:0:
352,32,43959,1,0,0:0:0:0:
352,32,44237,1,0,0:0:0:0:
352,32,44514,1,0,0:0:0:0:
352,32,44792,1,4,0:0:0:0:
352,32,45070,1,0,0:0:0:0:
352,32,45348,1,0,0:0:0:0:
352,32,45626,1,8,0:0:0:0:
352,32,45903,1,0,0:0:0:0:
352,32,46181,1,0,0:0:0:0:
352,32,46459,1,8,0:0:0:0:
352,32,46737,1,0,0:0:0:0:
352,32,47014,1,0,0:0:0:0:
352,32,47292,1,8,0:0:0:0:
352,32,47570,1,0,0:0:0:0:
352,32,47848,1,0,0:0:0:0:
352,32,48126,1,4,0:0:0:0:
352,32,48403,1,8,0:0:0:0:
352,32,48681,1,8,0:0:0:0:
352,32,48959,1,0,0:0:0:0:
352,32,49237,1,8,0:0:0:0:
352,32,49514,1,8,0:0:0:0:
352,32,49792,1,4,0:0:0:0:
352,32,50070,1,0,0:0:0:0:
352,32,50348,1,0,0:0:0:0:
352,32,50626,1,8,0:0:0:0:
352,32,50903,1,8,0:0:0:0:
352,32,51181,1,8,0:0:0:0:
352,32,51459,1,4,0:0:0:0:
352,32,51737,1,0,0:0:0:0:
352,32,52014,1,0,0:0:0:0:
352,32,52292,1,0,0:0:0:0:
352,32,52570,1,0,0:0:0:0:
352,32,52848,1,0,0:0:0:0:
352,32,53126,1,0,0:0:0:0:
352,32,53403,1,0,0:0:0:0:
352,32,53681,1,0,0:0:0:0:
352,32,53959,1,8,0:0:0:0:
352,32,54792,1,4,0:0:0:0:
352,32,55070,1,0,0:0:0:0:
352,32,55348,1,0,0:0:0:0:
352,32,55626,1,0,0:0:0:0:
352,32,55903,1,0,0:0:0:0:
352,32,56181,1,0,0:0:0:0:
352,32,56459,1,0,0:0:0:0:
352,32,56737,1,0,0:0:0:0:
352,32,57014,1,0,0:0:0:0:
352,32,57292,1,0,0:0:0:0:
352,32,57570,1,0,0:0:0:0:
352,32,57848,1,0,0:0:0:0:
352,32,58126,1,4,0:0:0:0:
352,32,58403,1,0,0:0:0:0:
352,32,58681,1,0,0:0:0:0:
352,32,58959,1,0,0:0:0:0:
352,32,59237,1,0,0:0:0:0:
352,32,59514,1,0,0:0:0:0:
352,32,59792,1,0,0:0:0:0:
352,32,60070,1,0,0:0:0:0:
352,32,60348,1,0,0:0:0:0:
352,32,60626,1,8,0:0:0:0:
352,32,60903,1,8,0:0:0:0:
352,32,61181,1,4,0:0:0:0:
