osu file format v14

[General]
AudioFilename: sic.mp3
AudioLeadIn: 0
PreviewTime: 204115
Countdown: 1
SampleSet: None
StackLeniency: 0.7
Mode: 1
LetterboxInBreaks: 1
WidescreenStoryboard: 1

[Editor]
Bookmarks: 10416,20212,30008,39804,49600,59396,69192,78988,88937,98732,108528,118324,128120,137915,150313,160109,169905,179701,191946,201742,204191,213987,223783,236028,245824
DistanceSpacing: 1
BeatDivisor: 4
GridSize: 32
TimelineZoom: 1

[Metadata]
Title:Nostalgic Blood of the East ~ Sic World
TitleUnicode:懐かしき東方の血 ~ Sic World
Artist:Demetori
ArtistUnicode:Demetori
Creator:Jinyan
Version:JinKo no muzukashi
Source:Touhou
Tags:
BeatmapID:672525
BeatmapSetID:299823

[Difficulty]
HPDrainRate:6
CircleSize:4
OverallDifficulty:6
ApproachRate:5
SliderMultiplier:1.4
SliderTickRate:1

[Events]
//Background and Video events
0,0,"touhou - Keine Kamishirasawa.jpg",0,0
//Break Periods
//Storyboard Layer 0 (Background)
//Storyboard Layer 1 (Fail)
//Storyboard Layer 2 (Pass)
//Storyboard Layer 3 (Foreground)
//Storyboard Sound Samples

[TimingPoints]
634,306.122448979592,4,2,1,51,1,0
634,-100,4,2,1,51,0,0
2700,-100,4,1,1,71,0,0
2853,-100,4,2,1,51,0,0
5149,-100,4,1,1,81,0,0
5302,-100,4,2,1,50,0,0
5519,306.122448979592,4,2,1,51,1,0
7279,-100,4,1,1,71,0,0
7432,-100,4,2,1,51,0,0
7585,-100,4,1,1,71,0,0
7738,-100,4,2,1,51,0,0
8656,-100,4,1,1,71,0,0
8962,-100,4,2,1,51,0,0
9115,-100,4,1,1,51,0,0
9575,-100,4,1,1,71,0,0
12483,-100,4,1,1,100,0,0
12636,-100,4,1,1,70,0,0
14932,-100,4,1,1,100,0,0
15085,-100,4,1,1,70,0,0
17381,-100,4,1,1,100,0,0
17534,-100,4,1,1,70,0,0
18911,-100,4,1,1,100,0,0
19064,-100,4,1,1,70,0,0
22279,-100,4,1,1,100,0,0
22432,-100,4,1,1,70,0,0
24728,-100,4,1,1,100,0,0
24881,-100,4,1,1,70,0,0
27177,-100,4,1,1,100,0,0
27330,-100,4,2,1,80,0,0
29166,-100,4,1,1,70,0,0
61462,-100,4,1,1,100,0,0
61615,-100,4,1,1,70,0,0
63911,-100,4,1,1,100,0,0
64064,-100,4,1,1,70,0,0
66360,-100,4,1,1,100,0,0
66513,-100,4,1,1,70,0,0
88937,306.122448979592,4,1,1,70,1,0
98732,-100,4,1,1,85,0,1
108452,-100,4,1,1,70,0,0
108528,-100,4,1,1,85,0,1
118324,-100,4,2,1,51,0,0
120391,-100,4,1,1,71,0,0
120544,-100,4,2,1,51,0,0
122840,-100,4,1,1,81,0,0
122993,-100,4,2,1,51,0,0
125289,-100,4,1,1,81,0,0
125442,-100,4,2,1,51,0,0
125595,-100,4,1,1,81,0,0
125748,-100,4,2,1,51,0,0
126054,-100,4,1,1,81,0,0
126207,-100,4,2,1,51,0,0
126513,-100,4,1,1,81,0,0
126666,-100,4,2,1,51,0,0
126972,-100,4,1,1,81,0,0
127125,-100,4,1,1,51,0,0
128120,306.122448979592,4,2,1,95,1,0
138451,-100,4,1,1,75,0,0
139216,-100,4,2,1,95,0,0
140900,-100,4,1,1,75,0,0
141665,-100,4,2,1,95,0,0
143349,-100,4,1,1,75,0,0
144114,-100,4,2,1,95,0,0
150314,306.122448979592,4,1,1,70,1,0
160109,-100,4,2,1,90,0,0
162558,-100,4,1,1,70,0,0
175951,-100,4,1,1,100,0,0
176104,-100,4,1,1,70,0,0
177214,-100,4,1,1,100,0,0
177291,-100,4,1,1,70,0,0
178094,-100,4,1,1,100,0,0
178247,-100,4,1,1,70,0,0
179701,-100,4,1,1,85,0,1
191946,-100,4,1,1,70,0,0
204191,-100,4,1,1,85,0,1
213910,-100,4,1,1,70,0,0
213987,-100,4,1,1,85,0,1
223783,-100,4,1,1,70,0,0
228298,-100,4,1,1,100,0,0
228451,-100,4,1,1,70,0,0
230747,-100,4,1,1,100,0,0
230900,-100,4,1,1,70,0,0
233196,-100,4,1,1,100,0,0
233349,-100,4,1,1,70,0,0
238094,-100,4,1,1,100,0,0
238247,-100,4,1,1,70,0,0
240543,-100,4,1,1,100,0,0
240696,-100,4,1,1,70,0,0
243069,-100,4,1,1,100,0,0
243298,-100,4,2,1,80,0,0

[Colours]
Combo1 : 0,128,192
Combo2 : 0,0,160
Combo3 : 192,192,192

[HitObjects]
256,192,480,5,0,0:0:0:0:
256,192,557,1,0,0:0:0:0:
256,192,634,1,0,0:0:0:0:
256,192,787,1,0,0:0:0:0:
256,192,1093,1,4,0:0:0:0:
256,192,1246,1,0,0:0:0:0:
256,192,1399,1,0,0:0:0:0:
256,192,1705,1,4,0:0:0:0:
256,192,1858,1,0,0:0:0:0:
256,192,2011,1,0,0:0:0:0:
256,192,2317,1,4,0:0:0:0:
256,192,2470,1,0,0:0:0:0:
256,192,2623,1,0,0:0:0:0:
256,192,2776,1,2,0:0:0:0:
256,192,3082,1,4,0:0:0:0:
256,192,3236,1,4,0:0:0:0:
256,192,3542,1,4,0:0:0:0:
256,192,3695,1,0,0:0:0:0:
256,192,3848,1,0,0:0:0:0:
256,192,4154,1,4,0:0:0:0:
256,192,4307,1,0,0:0:0:0:
256,192,4460,1,0,0:0:0:0:
256,192,4766,1,4,0:0:0:0:
256,192,4919,1,0,0:0:0:0:
256,192,5072,1,0,0:0:0:0:
256,192,5225,1,6,0:0:0:0:
256,192,5519,1,4,0:0:0:0:
256,192,5672,1,2,0:0:0:0:
256,192,5825,1,0,0:0:0:0:
256,192,6131,1,4,0:0:0:0:
256,192,6284,1,2,0:0:0:0:
256,192,6360,1,0,0:0:0:0:
256,192,6437,1,0,0:0:0:0:
256,192,6743,1,4,0:0:0:0:
256,192,6896,1,2,0:0:0:0:
256,192,7050,1,0,0:0:0:0:
256,192,7355,1,6,0:0:0:0:
256,192,7508,1,4,0:0:0:0:
256,192,7661,1,6,0:0:0:0:
256,192,7967,1,4,0:0:0:0:
256,192,8121,1,4,0:0:0:0:
256,192,8274,1,2,0:0:0:0:
256,192,8351,1,0,0:0:0:0:
256,192,8427,1,2,0:0:0:0:
256,192,8733,1,2,0:0:0:0:
256,192,8886,1,2,0:0:0:0:
256,192,9039,1,0,0:0:0:0:
256,192,9192,1,6,0:0:0:0:
256,192,9498,1,4,0:0:0:0:
256,192,9651,1,6,0:0:0:0:
256,192,9957,1,0,0:0:0:0:
256,192,10110,1,8,0:0:0:0:
256,192,10187,1,8,0:0:0:0:
256,192,10263,1,8,0:0:0:0:
256,192,10416,1,0,0:0:0:0:
256,192,10570,1,2,0:0:0:0:
256,192,10723,1,0,0:0:0:0:
256,192,11029,1,2,0:0:0:0:
256,192,11182,1,2,0:0:0:0:
256,192,11335,1,0,0:0:0:0:
256,192,11641,1,0,0:0:0:0:
256,192,11794,1,2,0:0:0:0:
256,192,11947,1,0,0:0:0:0:
256,192,12100,1,0,0:0:0:0:
256,192,12253,1,2,0:0:0:0:
256,192,12406,1,2,0:0:0:0:
256,192,12559,1,12,0:0:0:0:
256,192,12865,1,0,0:0:0:0:
256,192,13019,1,2,0:0:0:0:
256,192,13172,1,0,0:0:0:0:
256,192,13478,1,0,0:0:0:0:
256,192,13631,1,2,0:0:0:0:
256,192,13784,1,0,0:0:0:0:
256,192,14090,1,0,0:0:0:0:
256,192,14243,1,2,0:0:0:0:
256,192,14396,1,0,0:0:0:0:
256,192,14549,1,2,0:0:0:0:
256,192,14702,1,0,0:0:0:0:
256,192,14855,1,2,0:0:0:0:
256,192,15008,1,12,0:0:0:0:
256,192,15314,1,2,0:0:0:0:
256,192,15467,1,2,0:0:0:0:
256,192,15621,1,0,0:0:0:0:
256,192,15927,1,2,0:0:0:0:
256,192,16080,1,2,0:0:0:0:
256,192,16233,1,0,0:0:0:0:
256,192,16539,1,2,0:0:0:0:
256,192,16692,1,2,0:0:0:0:
256,192,16845,1,0,0:0:0:0:
256,192,16998,1,2,0:0:0:0:
256,192,17151,1,2,0:0:0:0:
256,192,17304,1,2,0:0:0:0:
256,192,17457,1,12,0:0:0:0:
256,192,17763,1,0,0:0:0:0:
256,192,17916,1,2,0:0:0:0:
256,192,18070,1,0,0:0:0:0:
256,192,18376,1,2,0:0:0:0:
256,192,18529,1,0,0:0:0:0:
256,192,18682,1,8,0:0:0:0:
256,192,18835,1,2,0:0:0:0:
256,192,18988,1,8,0:0:0:0:
256,192,19141,1,0,0:0:0:0:
256,192,19294,1,12,0:0:0:0:
256,192,19447,1,0,0:0:0:0:
256,192,19600,1,8,0:0:0:0:
256,192,19677,1,8,0:0:0:0:
256,192,19753,1,8,0:0:0:0:
256,192,19906,1,0,0:0:0:0:
256,192,19983,1,0,0:0:0:0:
256,192,20059,1,0,0:0:0:0:
256,192,20212,1,0,0:0:0:0:
256,192,20366,1,2,0:0:0:0:
256,192,20519,1,0,0:0:0:0:
256,192,20825,1,2,0:0:0:0:
256,192,20978,1,2,0:0:0:0:
256,192,21131,1,0,0:0:0:0:
256,192,21437,1,0,0:0:0:0:
256,192,21590,1,2,0:0:0:0:
256,192,21743,1,0,0:0:0:0:
256,192,22049,1,2,0:0:0:0:
256,192,22202,1,2,0:0:0:0:
256,192,22355,1,12,0:0:0:0:
256,192,22661,1,0,0:0:0:0:
256,192,22815,1,2,0:0:0:0:
256,192,22967,1,0,0:0:0:0:
256,192,23121,1,2,0:0:0:0:
256,192,23274,1,0,0:0:0:0:
256,192,23427,1,2,0:0:0:0:
256,192,23733,1,2,0:0:0:0:
256,192,23809,1,2,0:0:0:0:
256,192,23886,1,0,0:0:0:0:
256,192,24039,1,2,0:0:0:0:
256,192,24345,1,2,0:0:0:0:
256,192,24498,1,0,0:0:0:0:
256,192,24651,1,2,0:0:0:0:
256,192,24804,1,12,0:0:0:0:
256,192,25110,1,2,0:0:0:0:
256,192,25263,1,2,0:0:0:0:
256,192,25570,1,2,0:0:0:0:
256,192,25646,1,2,0:0:0:0:
256,192,25723,1,2,0:0:0:0:
256,192,25876,1,2,0:0:0:0:
256,192,26182,1,2,0:0:0:0:
256,192,26258,1,2,0:0:0:0:
256,192,26335,1,2,0:0:0:0:
256,192,26488,1,2,0:0:0:0:
256,192,26794,1,2,0:0:0:0:
256,192,26871,1,2,0:0:0:0:
256,192,26947,1,2,0:0:0:0:
256,192,27100,1,2,0:0:0:0:
256,192,27253,1,12,0:0:0:0:
256,192,27559,1,2,0:0:0:0:
256,192,27712,1,0,0:0:0:0:
256,192,28019,1,2,0:0:0:0:
256,192,28172,1,0,0:0:0:0:
256,192,28478,1,2,0:0:0:0:
256,192,28631,1,0,0:0:0:0:
256,192,28937,1,2,0:0:0:0:
256,192,29090,1,0,0:0:0:0:
256,192,29243,1,0,0:0:0:0:
256,192,29320,1,0,0:0:0:0:
256,192,29396,1,2,0:0:0:0:
256,192,29549,1,0,0:0:0:0:
256,192,30008,1,0,0:0:0:0:
256,192,30161,1,0,0:0:0:0:
256,192,30314,1,2,0:0:0:0:
256,192,30467,1,0,0:0:0:0:
256,192,30621,1,0,0:0:0:0:
256,192,30774,1,2,0:0:0:0:
256,192,30927,1,8,0:0:0:0:
256,192,31080,1,0,0:0:0:0:
256,192,31233,1,2,0:0:0:0:
256,192,31386,1,0,0:0:0:0:
256,192,31539,1,0,0:0:0:0:
256,192,31692,1,2,0:0:0:0:
256,192,31845,1,8,0:0:0:0:
256,192,32151,1,2,0:0:0:0:
256,192,32304,1,0,0:0:0:0:
256,192,32457,1,8,0:0:0:0:
256,192,32763,1,2,0:0:0:0:
256,192,32916,1,0,0:0:0:0:
256,192,33070,1,0,0:0:0:0:
256,192,33223,1,2,0:0:0:0:
256,192,33376,1,0,0:0:0:0:
256,192,33682,1,2,0:0:0:0:
256,192,33835,1,0,0:0:0:0:
256,192,33988,1,0,0:0:0:0:
256,192,34141,1,2,0:0:0:0:
256,192,34294,1,0,0:0:0:0:
256,192,34447,1,0,0:0:0:0:
256,192,34524,1,0,0:0:0:0:
256,192,34600,1,2,0:0:0:0:
256,192,34906,1,8,0:0:0:0:
256,192,35059,1,0,0:0:0:0:
256,192,35212,1,2,0:0:0:0:
256,192,35365,1,0,0:0:0:0:
256,192,35519,1,0,0:0:0:0:
256,192,35672,1,2,0:0:0:0:
256,192,35825,1,0,0:0:0:0:
256,192,36131,1,2,0:0:0:0:
256,192,36284,1,0,0:0:0:0:
256,192,36437,1,0,0:0:0:0:
256,192,36590,1,2,0:0:0:0:
256,192,36743,1,0,0:0:0:0:
256,192,36896,1,0,0:0:0:0:
256,192,37049,1,10,0:0:0:0:
256,192,37355,1,8,0:0:0:0:
256,192,37508,1,0,0:0:0:0:
256,192,37661,1,2,0:0:0:0:
256,192,37814,1,0,0:0:0:0:
256,192,37967,1,0,0:0:0:0:
256,192,38121,1,2,0:0:0:0:
256,192,38274,1,0,0:0:0:0:
256,192,38580,1,2,0:0:0:0:
256,192,38733,1,0,0:0:0:0:
256,192,38886,1,0,0:0:0:0:
256,192,39039,1,2,0:0:0:0:
256,192,39192,1,8,0:0:0:0:
256,192,39345,1,0,0:0:0:0:
256,192,39422,1,0,0:0:0:0:
256,192,39498,1,2,0:0:0:0:
256,192,39804,1,0,0:0:0:0:
256,192,39957,1,0,0:0:0:0:
256,192,40110,1,2,0:0:0:0:
256,192,40263,1,0,0:0:0:0:
256,192,40570,1,2,0:0:0:0:
256,192,40723,1,8,0:0:0:0:
256,192,40876,1,0,0:0:0:0:
256,192,41029,1,2,0:0:0:0:
256,192,41105,1,2,0:0:0:0:
256,192,41182,1,0,0:0:0:0:
256,192,41488,1,2,0:0:0:0:
256,192,41641,1,8,0:0:0:0:
256,192,41794,1,0,0:0:0:0:
256,192,41947,1,2,0:0:0:0:
256,192,42100,1,0,0:0:0:0:
256,192,42253,1,8,0:0:0:0:
256,192,42406,1,0,0:0:0:0:
256,192,42559,1,2,0:0:0:0:
256,192,42712,1,0,0:0:0:0:
256,192,42866,1,0,0:0:0:0:
256,192,43019,1,2,0:0:0:0:
256,192,43172,1,0,0:0:0:0:
256,192,43478,1,2,0:0:0:0:
256,192,43631,1,0,0:0:0:0:
256,192,43784,1,0,0:0:0:0:
256,192,43937,1,2,0:0:0:0:
256,192,44090,1,0,0:0:0:0:
256,192,44396,1,2,0:0:0:0:
256,192,44549,1,0,0:0:0:0:
256,192,44626,1,0,0:0:0:0:
256,192,44702,1,8,0:0:0:0:
256,192,45008,1,2,0:0:0:0:
256,192,45161,1,0,0:0:0:0:
256,192,45315,1,0,0:0:0:0:
256,192,45468,1,2,0:0:0:0:
256,192,45621,1,0,0:0:0:0:
256,192,45927,1,2,0:0:0:0:
256,192,46003,1,2,0:0:0:0:
256,192,46080,1,0,0:0:0:0:
256,192,46233,1,0,0:0:0:0:
256,192,46386,1,2,0:0:0:0:
256,192,46539,1,0,0:0:0:0:
256,192,46845,1,10,0:0:0:0:
256,192,46998,1,0,0:0:0:0:
256,192,47151,1,8,0:0:0:0:
256,192,47457,1,2,0:0:0:0:
256,192,47610,1,0,0:0:0:0:
256,192,47763,1,0,0:0:0:0:
256,192,47917,1,2,0:0:0:0:
256,192,48070,1,0,0:0:0:0:
256,192,48376,1,2,0:0:0:0:
256,192,48529,1,0,0:0:0:0:
256,192,48682,1,0,0:0:0:0:
256,192,48835,1,2,0:0:0:0:
256,192,48988,1,2,0:0:0:0:
256,192,49141,1,2,0:0:0:0:
256,192,49294,1,2,0:0:0:0:
256,192,49447,1,0,0:0:0:0:
256,192,49753,1,0,0:0:0:0:
256,192,49906,1,12,0:0:0:0:
256,192,50212,1,0,0:0:0:0:
256,192,50365,1,0,0:0:0:0:
256,192,50519,1,8,0:0:0:0:
256,192,50672,1,0,0:0:0:0:
256,192,50825,1,2,0:0:0:0:
256,192,50978,1,0,0:0:0:0:
256,192,51131,1,8,0:0:0:0:
256,192,51437,1,0,0:0:0:0:
256,192,51590,1,0,0:0:0:0:
256,192,51743,1,8,0:0:0:0:
256,192,51896,1,0,0:0:0:0:
256,192,52202,1,0,0:0:0:0:
256,192,52355,1,8,0:0:0:0:
256,192,52661,1,0,0:0:0:0:
256,192,52814,1,0,0:0:0:0:
256,192,52967,1,8,0:0:0:0:
256,192,53121,1,0,0:0:0:0:
256,192,53427,1,0,0:0:0:0:
256,192,53580,1,8,0:0:0:0:
256,192,53733,1,0,0:0:0:0:
256,192,53886,1,0,0:0:0:0:
256,192,54039,1,0,0:0:0:0:
256,192,54192,1,8,0:0:0:0:
256,192,54345,1,2,0:0:0:0:
256,192,54651,1,0,0:0:0:0:
256,192,54804,1,8,0:0:0:0:
256,192,55110,1,0,0:0:0:0:
256,192,55263,1,0,0:0:0:0:
256,192,55416,1,8,0:0:0:0:
256,192,55570,1,0,0:0:0:0:
256,192,55876,1,0,0:0:0:0:
256,192,56029,1,8,0:0:0:0:
256,192,56182,1,2,0:0:0:0:
256,192,56335,1,0,0:0:0:0:
256,192,56488,1,0,0:0:0:0:
256,192,56641,1,8,0:0:0:0:
256,192,56947,1,2,0:0:0:0:
256,192,57253,1,12,0:0:0:0:
256,192,57406,1,0,0:0:0:0:
256,192,57559,1,2,0:0:0:0:
256,192,57865,1,8,0:0:0:0:
256,192,58019,1,0,0:0:0:0:
256,192,58172,1,8,0:0:0:0:
256,192,58478,1,0,0:0:0:0:
256,192,58631,1,8,0:0:0:0:
256,192,58937,1,0,0:0:0:0:
256,192,59090,1,8,0:0:0:0:
256,192,59166,1,8,0:0:0:0:
256,192,59243,1,8,0:0:0:0:
256,192,59396,1,0,0:0:0:0:
256,192,59550,1,2,0:0:0:0:
256,192,59703,1,0,0:0:0:0:
256,192,60009,1,2,0:0:0:0:
256,192,60162,1,2,0:0:0:0:
256,192,60315,1,0,0:0:0:0:
256,192,60621,1,2,0:0:0:0:
256,192,60697,1,0,0:0:0:0:
256,192,60774,1,2,0:0:0:0:
256,192,60927,1,0,0:0:0:0:
256,192,61233,1,2,0:0:0:0:
256,192,61386,1,2,0:0:0:0:
256,192,61539,1,12,0:0:0:0:
256,192,61845,1,0,0:0:0:0:
256,192,61999,1,2,0:0:0:0:
256,192,62152,1,0,0:0:0:0:
256,192,62305,1,2,0:0:0:0:
256,192,62458,1,0,0:0:0:0:
256,192,62611,1,2,0:0:0:0:
256,192,62917,1,2,0:0:0:0:
256,192,62993,1,2,0:0:0:0:
256,192,63070,1,0,0:0:0:0:
256,192,63223,1,2,0:0:0:0:
256,192,63529,1,2,0:0:0:0:
256,192,63682,1,0,0:0:0:0:
256,192,63835,1,2,0:0:0:0:
256,192,63988,1,12,0:0:0:0:
256,192,64294,1,2,0:0:0:0:
256,192,64447,1,2,0:0:0:0:
256,192,64601,1,0,0:0:0:0:
256,192,64754,1,2,0:0:0:0:
256,192,64907,1,2,0:0:0:0:
256,192,65213,1,0,0:0:0:0:
256,192,65289,1,0,0:0:0:0:
256,192,65366,1,2,0:0:0:0:
256,192,65519,1,2,0:0:0:0:
256,192,65825,1,0,0:0:0:0:
256,192,65978,1,2,0:0:0:0:
256,192,66131,1,2,0:0:0:0:
256,192,66284,1,2,0:0:0:0:
256,192,66437,1,12,0:0:0:0:
256,192,66743,1,2,0:0:0:0:
256,192,66896,1,0,0:0:0:0:
256,192,67049,1,0,0:0:0:0:
256,192,67202,1,2,0:0:0:0:
256,192,67355,1,0,0:0:0:0:
256,192,67432,1,0,0:0:0:0:
256,192,67508,1,0,0:0:0:0:
256,192,67661,1,2,0:0:0:0:
256,192,67814,1,0,0:0:0:0:
256,192,67967,1,0,0:0:0:0:
32,192,68121,2,0,L|480:192,1,420
256,192,69192,1,0,0:0:0:0:
256,192,69345,1,0,0:0:0:0:
256,192,69498,1,2,0:0:0:0:
256,192,69651,1,0,0:0:0:0:
256,192,69958,1,2,0:0:0:0:
256,192,70111,1,0,0:0:0:0:
256,192,70264,1,0,0:0:0:0:
256,192,70417,1,2,0:0:0:0:
256,192,70570,1,0,0:0:0:0:
256,192,70876,1,2,0:0:0:0:
256,192,71029,1,0,0:0:0:0:
256,192,71182,1,0,0:0:0:0:
256,192,71335,1,2,0:0:0:0:
256,192,71488,1,0,0:0:0:0:
256,192,71794,1,0,0:0:0:0:
256,192,71947,1,2,0:0:0:0:
256,192,72100,1,0,0:0:0:0:
256,192,72254,1,0,0:0:0:0:
256,192,72407,1,2,0:0:0:0:
256,192,72713,1,0,0:0:0:0:
256,192,72866,1,2,0:0:0:0:
256,192,73019,1,0,0:0:0:0:
256,192,73172,1,0,0:0:0:0:
256,192,73325,1,2,0:0:0:0:
256,192,73631,1,0,0:0:0:0:
256,192,73784,1,2,0:0:0:0:
256,192,73937,1,0,0:0:0:0:
256,192,74243,1,0,0:0:0:0:
256,192,74396,1,2,0:0:0:0:
256,192,74549,1,0,0:0:0:0:
256,192,74703,1,0,0:0:0:0:
256,192,74856,1,2,0:0:0:0:
256,192,75162,1,0,0:0:0:0:
256,192,75315,1,2,0:0:0:0:
256,192,75468,1,0,0:0:0:0:
256,192,75621,1,0,0:0:0:0:
256,192,75774,1,2,0:0:0:0:
256,192,75927,1,0,0:0:0:0:
256,192,76233,1,8,0:0:0:0:
256,192,76386,1,0,0:0:0:0:
256,192,76692,1,0,0:0:0:0:
256,192,76845,1,2,0:0:0:0:
256,192,76998,1,0,0:0:0:0:
256,192,77151,1,0,0:0:0:0:
256,192,77305,1,2,0:0:0:0:
256,192,77611,1,0,0:0:0:0:
256,192,77764,1,2,0:0:0:0:
256,192,77917,1,0,0:0:0:0:
256,192,78070,1,0,0:0:0:0:
256,192,78223,1,2,0:0:0:0:
256,192,78376,1,0,0:0:0:0:
256,192,78452,1,0,0:0:0:0:
256,192,78529,1,0,0:0:0:0:
256,192,78682,1,8,0:0:0:0:
256,192,78758,1,8,0:0:0:0:
256,192,78835,1,8,0:0:0:0:
256,192,78988,1,0,0:0:0:0:
256,192,79141,1,0,0:0:0:0:
256,192,79294,1,2,0:0:0:0:
256,192,79447,1,2,0:0:0:0:
256,192,79600,1,0,0:0:0:0:
256,192,79753,1,2,0:0:0:0:
256,192,80059,1,0,0:0:0:0:
256,192,80212,1,2,0:0:0:0:
256,192,80365,1,2,0:0:0:0:
256,192,80519,1,0,0:0:0:0:
256,192,80672,1,2,0:0:0:0:
256,192,80978,1,0,0:0:0:0:
256,192,81131,1,2,0:0:0:0:
256,192,81284,1,2,0:0:0:0:
256,192,81590,1,0,0:0:0:0:
256,192,81743,1,2,0:0:0:0:
256,192,81896,1,2,0:0:0:0:
256,192,82049,1,0,0:0:0:0:
256,192,82202,1,2,0:0:0:0:
256,192,82508,1,0,0:0:0:0:
256,192,82661,1,2,0:0:0:0:
256,192,82814,1,2,0:0:0:0:
256,192,82967,1,0,0:0:0:0:
256,192,83121,1,2,0:0:0:0:
256,192,83427,1,0,0:0:0:0:
256,192,83580,1,2,0:0:0:0:
256,192,83733,1,2,0:0:0:0:
256,192,84039,1,0,0:0:0:0:
256,192,84192,1,10,0:0:0:0:
256,192,84345,1,2,0:0:0:0:
256,192,84498,1,0,0:0:0:0:
256,192,84651,1,2,0:0:0:0:
256,192,84957,1,0,0:0:0:0:
256,192,85110,1,2,0:0:0:0:
256,192,85263,1,2,0:0:0:0:
256,192,85416,1,0,0:0:0:0:
256,192,85570,1,2,0:0:0:0:
256,192,85876,1,0,0:0:0:0:
256,192,86029,1,2,0:0:0:0:
256,192,86182,1,0,0:0:0:0:
256,192,86488,1,0,0:0:0:0:
256,192,86641,1,2,0:0:0:0:
256,192,86794,1,2,0:0:0:0:
256,192,86947,1,0,0:0:0:0:
256,192,87100,1,2,0:0:0:0:
256,192,87406,1,0,0:0:0:0:
256,192,87559,1,2,0:0:0:0:
256,192,87712,1,2,0:0:0:0:
256,192,87865,1,0,0:0:0:0:
256,192,88019,1,2,0:0:0:0:
256,192,88172,1,0,0:0:0:0:
256,192,88376,1,0,0:0:0:0:
256,192,88580,1,0,0:0:0:0:
256,192,88784,1,4,0:0:0:0:
256,192,89090,1,0,0:0:0:0:
256,192,89243,1,8,0:0:0:0:
256,192,89549,1,2,0:0:0:0:
256,192,89702,1,0,0:0:0:0:
256,192,89855,1,8,0:0:0:0:
256,192,90008,1,2,0:0:0:0:
256,192,90161,1,0,0:0:0:0:
256,192,90314,1,0,0:0:0:0:
256,192,90467,1,8,0:0:0:0:
256,192,90620,1,2,0:0:0:0:
256,192,90773,1,0,0:0:0:0:
256,192,90926,1,0,0:0:0:0:
256,192,91079,1,8,0:0:0:0:
256,192,91232,1,2,0:0:0:0:
256,192,91539,1,0,0:0:0:0:
256,192,91692,1,8,0:0:0:0:
256,192,91998,1,0,0:0:0:0:
256,192,92151,1,2,0:0:0:0:
256,192,92304,1,8,0:0:0:0:
256,192,92457,1,0,0:0:0:0:
256,192,92763,1,0,0:0:0:0:
256,192,92916,1,10,0:0:0:0:
256,192,93069,1,2,0:0:0:0:
256,192,93222,1,2,0:0:0:0:
256,192,93375,1,0,0:0:0:0:
256,192,93528,1,8,0:0:0:0:
256,192,93681,1,2,0:0:0:0:
256,192,93988,1,0,0:0:0:0:
256,192,94141,1,8,0:0:0:0:
256,192,94447,1,0,0:0:0:0:
256,192,94600,1,2,0:0:0:0:
256,192,94753,1,8,0:0:0:0:
256,192,94906,1,0,0:0:0:0:
256,192,95212,1,0,0:0:0:0:
256,192,95365,1,8,0:0:0:0:
256,192,95518,1,0,0:0:0:0:
256,192,95977,1,12,0:0:0:0:
256,192,96130,1,0,0:0:0:0:
256,192,96207,1,0,0:0:0:0:
256,192,96283,1,2,0:0:0:0:
256,192,96743,1,2,0:0:0:0:
256,192,97202,1,2,0:0:0:0:
256,192,97508,1,2,0:0:0:0:
256,192,97661,1,0,0:0:0:0:
256,192,97967,1,2,0:0:0:0:
256,192,98120,1,0,0:0:0:0:
256,192,98426,1,2,0:0:0:0:
256,192,98579,1,0,0:0:0:0:
256,192,98732,1,2,0:0:0:0:
256,192,99192,1,2,0:0:0:0:
256,192,99345,1,2,0:0:0:0:
256,192,99498,1,0,0:0:0:0:
256,192,99651,1,8,0:0:0:0:
256,192,99804,1,2,0:0:0:0:
256,192,99957,1,0,0:0:0:0:
256,192,100263,1,0,0:0:0:0:
256,192,100416,1,8,0:0:0:0:
256,192,100722,1,0,0:0:0:0:
256,192,101028,1,2,0:0:0:0:
256,192,101181,1,2,0:0:0:0:
256,192,101488,1,2,0:0:0:0:
256,192,101794,1,0,0:0:0:0:
256,192,101870,1,0,0:0:0:0:
256,192,101947,1,0,0:0:0:0:
256,192,102100,1,0,0:0:0:0:
32,192,102406,2,0,L|480:192,1,420
256,192,103477,1,0,0:0:0:0:
256,192,103554,1,0,0:0:0:0:
256,192,103630,1,2,0:0:0:0:
256,192,103937,1,0,0:0:0:0:
256,192,104090,1,2,0:0:0:0:
256,192,104396,1,0,0:0:0:0:
256,192,104702,1,2,0:0:0:0:
256,192,104855,1,0,0:0:0:0:
256,192,105161,1,2,0:0:0:0:
256,192,105467,1,0,0:0:0:0:
256,192,105544,1,0,0:0:0:0:
256,192,105620,1,0,0:0:0:0:
256,192,105773,1,8,0:0:0:0:
256,192,106079,1,0,0:0:0:0:
256,192,106385,1,0,0:0:0:0:
256,192,106539,1,2,0:0:0:0:
256,192,106845,1,0,0:0:0:0:
256,192,106998,1,2,0:0:0:0:
256,192,107304,1,2,0:0:0:0:
256,192,107457,1,0,0:0:0:0:
256,192,107610,1,0,0:0:0:0:
256,192,107763,1,2,0:0:0:0:
256,192,107916,1,0,0:0:0:0:
256,192,107993,1,0,0:0:0:0:
256,192,108069,1,0,0:0:0:0:
256,192,108222,1,2,0:0:0:0:
256,192,108375,1,0,0:0:0:0:
256,192,108528,1,2,0:0:0:0:
256,192,108834,1,0,0:0:0:0:
256,192,108988,1,2,0:0:0:0:
256,192,109141,1,0,0:0:0:0:
256,192,109294,1,0,0:0:0:0:
256,192,109447,1,0,0:0:0:0:
256,192,109600,1,2,0:0:0:0:
256,192,109753,1,0,0:0:0:0:
256,192,110059,1,0,0:0:0:0:
256,192,110212,1,2,0:0:0:0:
256,192,110365,1,0,0:0:0:0:
256,192,110518,1,0,0:0:0:0:
256,192,110824,1,0,0:0:0:0:
256,192,110977,1,2,0:0:0:0:
256,192,111283,1,2,0:0:0:0:
256,192,111360,1,2,0:0:0:0:
256,192,111437,1,2,0:0:0:0:
256,192,111590,1,0,0:0:0:0:
256,192,111743,1,0,0:0:0:0:
256,192,111896,1,2,0:0:0:0:
256,192,112049,1,2,0:0:0:0:
32,192,112202,2,0,L|480:192,1,420
256,192,113273,1,0,0:0:0:0:
256,192,113350,1,0,0:0:0:0:
256,192,113426,1,2,0:0:0:0:
256,192,113732,1,0,0:0:0:0:
256,192,113885,1,2,0:0:0:0:
256,192,114192,1,0,0:0:0:0:
256,192,114498,1,0,0:0:0:0:
256,192,114651,1,2,0:0:0:0:
256,192,114804,1,2,0:0:0:0:
256,192,114957,1,0,0:0:0:0:
256,192,115110,1,0,0:0:0:0:
256,192,115263,1,2,0:0:0:0:
256,192,115416,1,0,0:0:0:0:
256,192,115569,1,2,0:0:0:0:
256,192,115722,1,2,0:0:0:0:
256,192,115875,1,2,0:0:0:0:
256,192,116181,1,0,0:0:0:0:
256,192,116334,1,2,0:0:0:0:
256,192,116488,1,0,0:0:0:0:
256,192,116564,1,0,0:0:0:0:
256,192,116641,1,0,0:0:0:0:
256,192,116794,1,2,0:0:0:0:
256,192,117100,1,12,0:0:0:0:
256,192,117278,1,0,0:0:0:0:
256,192,117482,1,0,0:0:0:0:
256,192,117712,1,4,0:0:0:0:
256,192,118018,1,2,0:0:0:0:
256,192,118324,1,0,0:0:0:0:
256,192,118477,1,0,0:0:0:0:
256,192,118783,1,0,0:0:0:0:
256,192,118936,1,0,0:0:0:0:
256,192,119089,1,0,0:0:0:0:
256,192,119395,1,4,0:0:0:0:
256,192,119548,1,0,0:0:0:0:
256,192,119701,1,0,0:0:0:0:
256,192,120007,1,0,0:0:0:0:
256,192,120160,1,0,0:0:0:0:
256,192,120313,1,0,0:0:0:0:
256,192,120467,1,2,0:0:0:0:
256,192,120772,1,4,0:0:0:0:
256,192,120926,1,0,0:0:0:0:
256,192,121232,1,0,0:0:0:0:
256,192,121385,1,0,0:0:0:0:
256,192,121538,1,0,0:0:0:0:
256,192,121844,1,4,0:0:0:0:
256,192,121997,1,0,0:0:0:0:
256,192,122150,1,0,0:0:0:0:
256,192,122456,1,0,0:0:0:0:
256,192,122609,1,0,0:0:0:0:
256,192,122762,1,0,0:0:0:0:
256,192,122915,1,6,0:0:0:0:
256,192,123222,1,4,0:0:0:0:
256,192,123375,1,4,0:0:0:0:
256,192,123681,1,0,0:0:0:0:
256,192,123834,1,0,0:0:0:0:
256,192,123987,1,0,0:0:0:0:
256,192,124293,1,4,0:0:0:0:
256,192,124446,1,0,0:0:0:0:
256,192,124599,1,0,0:0:0:0:
256,192,124905,1,0,0:0:0:0:
256,192,125058,1,0,0:0:0:0:
256,192,125211,1,0,0:0:0:0:
256,192,125364,1,6,0:0:0:0:
256,192,125670,1,2,0:0:0:0:
256,192,125824,1,0,0:0:0:0:
256,192,125977,1,0,0:0:0:0:
256,192,126130,1,2,0:0:0:0:
256,192,126283,1,0,0:0:0:0:
256,192,126436,1,0,0:0:0:0:
256,192,126590,1,2,0:0:0:0:
256,192,126742,1,0,0:0:0:0:
256,192,126895,1,0,0:0:0:0:
256,192,127049,1,2,0:0:0:0:
256,192,127202,1,4,0:0:0:0:
256,192,127354,1,4,0:0:0:0:
256,192,127507,1,4,0:0:0:0:
256,192,127712,1,4,0:0:0:0:
256,192,127916,1,4,0:0:0:0:
256,192,128120,1,4,0:0:0:0:
256,192,129956,1,6,0:0:0:0:
256,192,130568,1,6,0:0:0:0:
256,192,131793,1,0,0:0:0:0:
256,192,131946,1,0,0:0:0:0:
256,192,132099,1,0,0:0:0:0:
256,192,132252,1,0,0:0:0:0:
256,192,132405,1,4,0:0:0:0:
256,192,133017,1,6,0:0:0:0:
256,192,134854,1,6,0:0:0:0:
256,192,135466,1,6,0:0:0:0:
256,192,136691,1,6,0:0:0:0:
256,192,137150,1,2,0:0:0:0:
256,192,137227,1,2,0:0:0:0:
256,192,137303,1,0,0:0:0:0:
256,192,137507,1,0,0:0:0:0:
256,192,137711,1,0,0:0:0:0:
256,192,137915,1,4,0:0:0:0:
256,192,138528,1,8,0:0:0:0:
256,192,138834,1,0,0:0:0:0:
256,192,139140,1,8,0:0:0:0:
256,192,139752,1,6,0:0:0:0:
256,192,140364,1,6,0:0:0:0:
256,192,140977,1,8,0:0:0:0:
256,192,141283,1,0,0:0:0:0:
256,192,141589,1,8,0:0:0:0:
256,192,142048,1,0,0:0:0:0:
256,192,142125,1,0,0:0:0:0:
256,192,142201,1,8,0:0:0:0:
256,192,142813,1,6,0:0:0:0:
256,192,143426,1,8,0:0:0:0:
256,192,143732,1,4,0:0:0:0:
256,192,144038,1,8,0:0:0:0:
256,192,144650,1,4,0:0:0:0:
256,192,145262,1,6,0:0:0:0:
256,192,146334,1,0,0:0:0:0:
256,192,146410,1,0,0:0:0:0:
256,192,146487,1,2,0:0:0:0:
256,192,146793,1,0,0:0:0:0:
256,192,147099,1,0,0:0:0:0:
256,192,147558,1,0,0:0:0:0:
256,192,147635,1,0,0:0:0:0:
256,192,147711,1,0,0:0:0:0:
256,192,147864,1,0,0:0:0:0:
256,192,148324,1,4,0:0:0:0:
256,192,148477,1,0,0:0:0:0:
256,192,148936,1,4,0:0:0:0:
256,192,149089,1,4,0:0:0:0:
256,192,150313,1,0,0:0:0:0:
256,192,150467,1,0,0:0:0:0:
256,192,150620,1,2,0:0:0:0:
256,186,150927,1,0,0:0:0:0:
256,192,151080,1,2,0:0:0:0:
256,192,151233,1,0,0:0:0:0:
256,192,151385,1,0,0:0:0:0:
256,192,151539,1,2,0:0:0:0:
256,192,151692,1,0,0:0:0:0:
256,192,151845,1,0,0:0:0:0:
256,192,151998,1,2,0:0:0:0:
256,192,152151,1,0,0:0:0:0:
256,192,152304,1,0,0:0:0:0:
256,192,152456,1,2,0:0:0:0:
256,192,152762,1,0,0:0:0:0:
256,192,152916,1,0,0:0:0:0:
256,192,153069,1,2,0:0:0:0:
256,192,153376,1,0,0:0:0:0:
256,192,153529,1,2,0:0:0:0:
256,192,153682,1,0,0:0:0:0:
256,192,153835,1,0,0:0:0:0:
256,192,153988,1,2,0:0:0:0:
256,192,154141,1,0,0:0:0:0:
256,192,154217,1,0,0:0:0:0:
256,192,154294,1,0,0:0:0:0:
256,192,154447,1,2,0:0:0:0:
256,192,154600,1,0,0:0:0:0:
256,192,154753,1,0,0:0:0:0:
256,192,154906,1,2,0:0:0:0:
256,192,155212,1,8,0:0:0:0:
256,192,155365,1,0,0:0:0:0:
256,192,155518,1,2,0:0:0:0:
256,192,155825,1,0,0:0:0:0:
256,192,155978,1,2,0:0:0:0:
256,192,156131,1,0,0:0:0:0:
256,192,156284,1,0,0:0:0:0:
256,192,156437,1,2,0:0:0:0:
256,192,156590,1,0,0:0:0:0:
256,192,156666,1,0,0:0:0:0:
256,192,156743,1,0,0:0:0:0:
256,192,156896,1,2,0:0:0:0:
256,192,157049,1,0,0:0:0:0:
256,192,157202,1,0,0:0:0:0:
256,192,157355,1,10,0:0:0:0:
256,192,157661,1,8,0:0:0:0:
256,192,157814,1,0,0:0:0:0:
256,192,157967,1,2,0:0:0:0:
256,192,158043,1,2,0:0:0:0:
256,192,158120,1,0,0:0:0:0:
256,192,158427,1,2,0:0:0:0:
256,192,158580,1,0,0:0:0:0:
256,192,158655,1,0,0:0:0:0:
256,192,158733,1,0,0:0:0:0:
256,192,158886,1,2,0:0:0:0:
256,192,159039,1,0,0:0:0:0:
256,192,159192,1,0,0:0:0:0:
256,192,159345,1,2,0:0:0:0:
256,192,159498,1,8,0:0:0:0:
256,192,159651,1,0,0:0:0:0:
256,192,159804,1,2,0:0:0:0:
256,192,159880,1,2,0:0:0:0:
256,192,159956,1,2,0:0:0:0:
256,192,160109,1,2,0:0:0:0:
256,192,160416,1,0,0:0:0:0:
64,192,160722,2,0,B|448:192|448:192|60:192,1,770
256,192,163171,1,0,0:0:0:0:
256,192,163324,1,2,0:0:0:0:
256,192,163477,1,2,0:0:0:0:
256,192,163630,1,0,0:0:0:0:
256,192,163783,1,2,0:0:0:0:
256,192,163936,1,0,0:0:0:0:
256,192,164089,1,2,0:0:0:0:
256,192,164242,1,0,0:0:0:0:
256,192,164395,1,2,0:0:0:0:
256,192,164548,1,0,0:0:0:0:
256,192,164701,1,2,0:0:0:0:
256,192,164854,1,0,0:0:0:0:
96,192,165007,2,0,L|384:192,1,280
256,192,165773,1,2,0:0:0:0:
256,192,166079,1,2,0:0:0:0:
256,192,166232,1,2,0:0:0:0:
256,192,166487,1,2,0:0:0:0:
256,192,166691,1,2,0:0:0:0:
256,192,167150,1,0,0:0:0:0:
256,192,167303,1,2,0:0:0:0:
256,192,167456,1,2,0:0:0:0:
256,192,167609,1,0,0:0:0:0:
256,192,167762,1,2,0:0:0:0:
256,192,167916,1,2,0:0:0:0:
256,192,168069,1,0,0:0:0:0:
256,192,168222,1,2,0:0:0:0:
256,192,168375,1,2,0:0:0:0:
256,192,168528,1,0,0:0:0:0:
256,192,168681,1,2,0:0:0:0:
256,192,168833,1,2,0:0:0:0:
96,192,168987,2,0,L|448:192,1,350
256,192,169905,1,2,0:0:0:0:
256,192,170058,1,0,0:0:0:0:
256,192,170211,1,0,0:0:0:0:
256,192,170365,1,2,0:0:0:0:
256,192,170518,1,0,0:0:0:0:
256,192,170671,1,0,0:0:0:0:
256,192,170824,1,2,0:0:0:0:
256,192,171130,1,2,0:0:0:0:
256,192,171283,1,0,0:0:0:0:
256,192,171436,1,0,0:0:0:0:
256,192,171589,1,2,0:0:0:0:
256,192,171742,1,0,0:0:0:0:
256,192,171895,1,0,0:0:0:0:
256,192,172048,1,2,0:0:0:0:
256,192,172125,1,2,0:0:0:0:
256,192,172201,1,2,0:0:0:0:
256,192,172354,1,2,0:0:0:0:
256,192,172507,1,0,0:0:0:0:
256,192,172660,1,0,0:0:0:0:
256,192,172814,1,2,0:0:0:0:
256,192,172967,1,0,0:0:0:0:
256,192,173120,1,0,0:0:0:0:
256,192,173273,1,2,0:0:0:0:
256,192,173579,1,2,0:0:0:0:
256,192,173732,1,0,0:0:0:0:
256,192,173885,1,0,0:0:0:0:
256,192,174038,1,2,0:0:0:0:
256,192,174191,1,0,0:0:0:0:
256,192,174344,1,0,0:0:0:0:
256,192,174497,1,2,0:0:0:0:
256,192,174574,1,2,0:0:0:0:
256,192,174650,1,2,0:0:0:0:
256,192,174803,1,2,0:0:0:0:
256,192,174956,1,0,0:0:0:0:
256,192,175109,1,0,0:0:0:0:
256,192,175262,1,2,0:0:0:0:
256,192,175416,1,0,0:0:0:0:
256,192,175569,1,0,0:0:0:0:
256,192,175722,1,2,0:0:0:0:
256,192,176028,1,6,0:0:0:0:
256,192,176181,1,0,0:0:0:0:
256,192,176334,1,0,0:0:0:0:
256,192,176487,1,2,0:0:0:0:
256,192,176640,1,0,0:0:0:0:
256,192,176793,1,0,0:0:0:0:
256,192,176946,1,2,0:0:0:0:
256,192,177023,1,2,0:0:0:0:
256,192,177099,1,2,0:0:0:0:
256,192,177252,1,2,0:0:0:0:
256,192,177405,1,0,0:0:0:0:
256,192,177558,1,0,0:0:0:0:
256,192,177711,1,2,0:0:0:0:
256,192,177865,1,0,0:0:0:0:
256,192,178018,1,0,0:0:0:0:
256,192,178171,1,6,0:0:0:0:
256,192,178477,1,8,0:0:0:0:
256,192,178630,1,0,0:0:0:0:
256,192,178783,1,0,0:0:0:0:
256,192,178936,1,8,0:0:0:0:
256,192,179089,1,0,0:0:0:0:
256,192,179166,1,0,0:0:0:0:
256,192,179242,1,0,0:0:0:0:
256,192,179395,1,8,0:0:0:0:
256,192,179472,1,8,0:0:0:0:
256,192,179548,1,8,0:0:0:0:
256,192,179701,1,2,0:0:0:0:
256,192,179855,1,0,0:0:0:0:
256,192,180008,1,0,0:0:0:0:
256,192,180160,1,2,0:0:0:0:
256,192,180314,1,0,0:0:0:0:
256,192,180620,1,2,0:0:0:0:
256,192,180773,1,0,0:0:0:0:
256,192,180926,1,2,0:0:0:0:
256,192,181079,1,0,0:0:0:0:
256,192,181232,1,0,0:0:0:0:
256,192,181385,1,2,0:0:0:0:
256,192,181538,1,0,0:0:0:0:
256,192,181844,1,2,0:0:0:0:
256,192,181998,1,0,0:0:0:0:
256,192,182150,1,2,0:0:0:0:
256,192,182304,1,0,0:0:0:0:
256,192,182457,1,0,0:0:0:0:
256,192,182609,1,2,0:0:0:0:
256,192,182763,1,0,0:0:0:0:
256,192,183069,1,2,0:0:0:0:
256,192,183222,1,0,0:0:0:0:
256,192,183375,1,2,0:0:0:0:
256,192,183528,1,0,0:0:0:0:
256,192,183681,1,2,0:0:0:0:
256,192,183834,1,0,0:0:0:0:
256,192,183987,1,2,0:0:0:0:
256,192,184141,1,0,0:0:0:0:
256,192,184293,1,2,0:0:0:0:
256,192,184599,1,2,0:0:0:0:
256,192,184752,1,0,0:0:0:0:
256,192,184905,1,0,0:0:0:0:
256,192,185058,1,2,0:0:0:0:
256,192,185211,1,0,0:0:0:0:
256,192,185518,1,2,0:0:0:0:
256,192,185671,1,0,0:0:0:0:
256,192,185824,1,2,0:0:0:0:
256,192,185977,1,0,0:0:0:0:
256,192,186053,1,0,0:0:0:0:
256,192,186130,1,0,0:0:0:0:
256,192,186283,1,2,0:0:0:0:
256,192,186436,1,0,0:0:0:0:
256,192,186742,1,2,0:0:0:0:
256,192,186895,1,0,0:0:0:0:
256,192,187048,1,2,0:0:0:0:
256,192,187201,1,0,0:0:0:0:
256,192,187278,1,0,0:0:0:0:
256,192,187354,1,0,0:0:0:0:
256,192,187507,1,2,0:0:0:0:
256,192,187660,1,0,0:0:0:0:
256,192,187814,1,0,0:0:0:0:
256,192,187967,1,2,0:0:0:0:
256,192,188120,1,0,0:0:0:0:
256,192,188273,1,2,0:0:0:0:
256,192,188426,1,0,0:0:0:0:
256,192,188502,1,0,0:0:0:0:
256,192,188579,1,0,0:0:0:0:
256,192,188732,1,2,0:0:0:0:
256,192,188885,1,0,0:0:0:0:
256,192,189191,1,2,0:0:0:0:
256,192,189344,1,0,0:0:0:0:
256,192,189497,1,2,0:0:0:0:
256,192,189650,1,0,0:0:0:0:
256,192,189727,1,0,0:0:0:0:
256,192,189803,1,0,0:0:0:0:
256,192,189956,1,2,0:0:0:0:
256,192,190109,1,0,0:0:0:0:
256,192,190416,1,2,0:0:0:0:
256,192,190569,1,0,0:0:0:0:
160,192,190722,2,0,L|384:192,1,210
256,192,191334,1,2,0:0:0:0:
256,192,191640,1,2,0:0:0:0:
256,192,191946,1,2,0:0:0:0:
256,192,192099,1,4,0:0:0:0:
256,192,192865,1,0,0:0:0:0:
256,192,192941,1,0,0:0:0:0:
256,192,193018,1,2,0:0:0:0:
256,192,193324,1,4,0:0:0:0:
256,192,193477,1,0,0:0:0:0:
256,192,194242,1,0,0:0:0:0:
256,192,194319,1,0,0:0:0:0:
256,192,194395,1,2,0:0:0:0:
256,192,194548,1,0,0:0:0:0:
256,192,195467,1,4,0:0:0:0:
256,192,195773,1,0,0:0:0:0:
256,192,195926,1,2,0:0:0:0:
256,192,196079,1,0,0:0:0:0:
256,192,196155,1,0,0:0:0:0:
256,192,196232,1,2,0:0:0:0:
256,192,196385,1,2,0:0:0:0:
256,192,196538,1,2,0:0:0:0:
256,192,196691,1,0,0:0:0:0:
256,192,196997,1,0,0:0:0:0:
256,192,197150,1,2,0:0:0:0:
256,192,197456,1,2,0:0:0:0:
256,192,197609,1,2,0:0:0:0:
256,192,197762,1,0,0:0:0:0:
256,192,197916,1,2,0:0:0:0:
256,192,198528,1,2,0:0:0:0:
256,192,198681,1,0,0:0:0:0:
256,192,198834,1,2,0:0:0:0:
256,192,198987,1,2,0:0:0:0:
256,192,199140,1,0,0:0:0:0:
256,192,199293,1,2,0:0:0:0:
256,192,199599,1,0,0:0:0:0:
256,192,199752,1,2,0:0:0:0:
256,192,200211,1,6,0:0:0:0:
256,192,200365,1,0,0:0:0:0:
256,192,200518,1,2,0:0:0:0:
256,192,200824,1,0,0:0:0:0:
256,192,200977,1,2,0:0:0:0:
256,192,201283,1,2,0:0:0:0:
256,192,201436,1,0,0:0:0:0:
256,192,201742,1,2,0:0:0:0:
256,192,201895,1,0,0:0:0:0:
256,192,202048,1,0,0:0:0:0:
256,192,202201,1,2,0:0:0:0:
256,192,202354,1,0,0:0:0:0:
256,192,202431,1,0,0:0:0:0:
256,192,202507,1,0,0:0:0:0:
256,192,202660,1,2,0:0:0:0:
256,192,202814,1,0,0:0:0:0:
256,192,202967,1,0,0:0:0:0:
256,192,203120,1,2,0:0:0:0:
256,192,203273,1,0,0:0:0:0:
256,192,203349,1,0,0:0:0:0:
256,192,203426,1,0,0:0:0:0:
256,192,203579,1,2,0:0:0:0:
256,192,203732,1,2,0:0:0:0:
256,192,204191,1,2,0:0:0:0:
256,192,204651,1,2,0:0:0:0:
256,192,204804,1,2,0:0:0:0:
256,192,204957,1,0,0:0:0:0:
256,192,205110,1,8,0:0:0:0:
256,192,205263,1,2,0:0:0:0:
256,192,205416,1,0,0:0:0:0:
256,192,205722,1,0,0:0:0:0:
256,192,205875,1,8,0:0:0:0:
256,192,206181,1,0,0:0:0:0:
256,192,206487,1,2,0:0:0:0:
256,192,206640,1,2,0:0:0:0:
256,192,206947,1,2,0:0:0:0:
256,192,207253,1,0,0:0:0:0:
256,192,207329,1,0,0:0:0:0:
256,192,207406,1,0,0:0:0:0:
256,192,207559,1,0,0:0:0:0:
32,192,207865,2,0,L|480:192,1,420
256,192,208936,1,0,0:0:0:0:
256,192,209013,1,0,0:0:0:0:
256,192,209089,1,2,0:0:0:0:
256,192,209396,1,0,0:0:0:0:
256,192,209549,1,2,0:0:0:0:
256,192,209855,1,0,0:0:0:0:
256,192,210161,1,2,0:0:0:0:
256,192,210314,1,0,0:0:0:0:
256,192,210620,1,2,0:0:0:0:
256,192,210926,1,0,0:0:0:0:
256,192,211003,1,0,0:0:0:0:
256,192,211079,1,0,0:0:0:0:
256,192,211232,1,8,0:0:0:0:
256,192,211538,1,0,0:0:0:0:
256,192,211844,1,0,0:0:0:0:
256,192,211998,1,2,0:0:0:0:
256,192,212304,1,0,0:0:0:0:
256,192,212457,1,2,0:0:0:0:
256,192,212763,1,2,0:0:0:0:
256,192,212916,1,0,0:0:0:0:
256,192,213069,1,0,0:0:0:0:
256,192,213222,1,2,0:0:0:0:
256,192,213375,1,0,0:0:0:0:
256,192,213452,1,0,0:0:0:0:
256,192,213528,1,0,0:0:0:0:
256,192,213681,1,2,0:0:0:0:
256,192,213834,1,0,0:0:0:0:
256,192,213987,1,2,0:0:0:0:
256,192,214293,1,0,0:0:0:0:
256,192,214447,1,2,0:0:0:0:
256,192,214600,1,0,0:0:0:0:
256,192,214753,1,0,0:0:0:0:
256,192,214906,1,0,0:0:0:0:
256,192,215059,1,2,0:0:0:0:
256,192,215212,1,0,0:0:0:0:
256,192,215518,1,0,0:0:0:0:
256,192,215671,1,2,0:0:0:0:
256,192,215824,1,0,0:0:0:0:
256,192,215977,1,0,0:0:0:0:
256,192,216283,1,0,0:0:0:0:
256,192,216436,1,2,0:0:0:0:
256,192,216742,1,2,0:0:0:0:
256,192,216819,1,2,0:0:0:0:
256,192,216896,1,2,0:0:0:0:
256,192,217049,1,0,0:0:0:0:
256,192,217202,1,0,0:0:0:0:
256,192,217355,1,2,0:0:0:0:
256,192,217508,1,2,0:0:0:0:
32,192,217661,2,0,L|480:192,1,420
256,192,218732,1,0,0:0:0:0:
256,192,218809,1,0,0:0:0:0:
256,192,218885,1,2,0:0:0:0:
256,192,219191,1,0,0:0:0:0:
256,192,219344,1,2,0:0:0:0:
256,192,219651,1,0,0:0:0:0:
256,192,219957,1,0,0:0:0:0:
256,192,220110,1,2,0:0:0:0:
256,192,220263,1,2,0:0:0:0:
256,192,220416,1,0,0:0:0:0:
256,192,220569,1,0,0:0:0:0:
256,192,220722,1,2,0:0:0:0:
256,192,220875,1,0,0:0:0:0:
256,192,221028,1,2,0:0:0:0:
256,192,221181,1,2,0:0:0:0:
256,192,221334,1,2,0:0:0:0:
256,192,221640,1,0,0:0:0:0:
256,192,221793,1,2,0:0:0:0:
256,192,221947,1,0,0:0:0:0:
256,192,222023,1,0,0:0:0:0:
256,192,222100,1,0,0:0:0:0:
256,192,222253,1,2,0:0:0:0:
256,192,222559,1,12,0:0:0:0:
256,192,222711,5,0,0:0:0:0:
256,192,222865,1,0,0:0:0:0:
256,192,223018,1,2,0:0:0:0:
256,192,223171,1,0,0:0:0:0:
256,192,223324,1,0,0:0:0:0:
256,192,223477,1,2,0:0:0:0:
256,192,223630,1,4,0:0:0:0:
256,192,223783,1,2,0:0:0:0:
256,192,225467,1,0,0:0:0:0:
256,192,225544,1,0,0:0:0:0:
256,192,225620,1,8,0:0:0:0:
256,192,225773,1,12,0:0:0:0:
256,192,226232,1,0,0:0:0:0:
256,192,226386,1,2,0:0:0:0:
256,192,226539,1,0,0:0:0:0:
256,192,226845,1,2,0:0:0:0:
256,192,226998,1,2,0:0:0:0:
256,192,227151,1,0,0:0:0:0:
256,192,227457,1,0,0:0:0:0:
256,192,227610,1,2,0:0:0:0:
256,192,227763,1,0,0:0:0:0:
256,192,227916,1,0,0:0:0:0:
256,192,228069,1,2,0:0:0:0:
256,192,228222,1,2,0:0:0:0:
256,192,228375,1,12,0:0:0:0:
256,192,228681,1,0,0:0:0:0:
256,192,228835,1,2,0:0:0:0:
256,192,228988,1,0,0:0:0:0:
256,192,229294,1,0,0:0:0:0:
256,192,229447,1,2,0:0:0:0:
256,192,229600,1,0,0:0:0:0:
256,192,229906,1,0,0:0:0:0:
256,192,230059,1,2,0:0:0:0:
256,192,230212,1,0,0:0:0:0:
256,192,230365,1,2,0:0:0:0:
256,192,230518,1,0,0:0:0:0:
256,192,230671,1,2,0:0:0:0:
256,192,230824,1,12,0:0:0:0:
256,192,231130,1,2,0:0:0:0:
256,192,231283,1,2,0:0:0:0:
256,192,231437,1,0,0:0:0:0:
256,192,231743,1,2,0:0:0:0:
256,192,231896,1,2,0:0:0:0:
256,192,232049,1,0,0:0:0:0:
256,192,232355,1,2,0:0:0:0:
256,192,232508,1,2,0:0:0:0:
256,192,232661,1,0,0:0:0:0:
256,192,232814,1,2,0:0:0:0:
256,192,232967,1,2,0:0:0:0:
256,192,233120,1,2,0:0:0:0:
256,192,233273,1,12,0:0:0:0:
256,192,233579,1,0,0:0:0:0:
256,192,233732,1,2,0:0:0:0:
256,192,233886,1,0,0:0:0:0:
256,192,234192,1,2,0:0:0:0:
256,192,234345,1,0,0:0:0:0:
256,192,234498,1,8,0:0:0:0:
256,192,234651,1,2,0:0:0:0:
256,192,234804,1,8,0:0:0:0:
256,192,234957,1,0,0:0:0:0:
256,192,235110,1,12,0:0:0:0:
256,192,235263,1,0,0:0:0:0:
256,192,235416,1,8,0:0:0:0:
256,192,235493,1,8,0:0:0:0:
256,192,235569,1,8,0:0:0:0:
256,192,235722,1,0,0:0:0:0:
256,192,235799,1,0,0:0:0:0:
256,192,235875,1,0,0:0:0:0:
256,192,236028,1,0,0:0:0:0:
256,192,236182,1,2,0:0:0:0:
256,192,236335,1,0,0:0:0:0:
256,192,236641,1,2,0:0:0:0:
256,192,236794,1,2,0:0:0:0:
256,192,236947,1,0,0:0:0:0:
256,192,237253,1,0,0:0:0:0:
256,192,237406,1,2,0:0:0:0:
256,192,237559,1,0,0:0:0:0:
256,192,237865,1,2,0:0:0:0:
256,192,238018,1,2,0:0:0:0:
256,192,238171,1,12,0:0:0:0:
256,192,238477,1,0,0:0:0:0:
256,192,238631,1,2,0:0:0:0:
256,192,238783,1,0,0:0:0:0:
256,192,238937,1,2,0:0:0:0:
256,192,239090,1,0,0:0:0:0:
256,192,239243,1,2,0:0:0:0:
256,192,239549,1,2,0:0:0:0:
256,192,239625,1,2,0:0:0:0:
256,192,239702,1,0,0:0:0:0:
256,192,239855,1,2,0:0:0:0:
256,192,240161,1,2,0:0:0:0:
256,192,240314,1,0,0:0:0:0:
256,192,240467,1,2,0:0:0:0:
256,192,240620,1,12,0:0:0:0:
256,192,240926,1,2,0:0:0:0:
256,192,241079,1,2,0:0:0:0:
256,192,241386,1,2,0:0:0:0:
256,192,241462,1,2,0:0:0:0:
256,192,241539,1,2,0:0:0:0:
256,192,241692,1,2,0:0:0:0:
256,192,241998,1,2,0:0:0:0:
256,192,242074,1,2,0:0:0:0:
256,192,242151,1,2,0:0:0:0:
256,192,242304,1,2,0:0:0:0:
256,192,242610,1,2,0:0:0:0:
256,192,242687,1,2,0:0:0:0:
256,192,242763,1,2,0:0:0:0:
256,192,242916,1,2,0:0:0:0:
256,192,243069,1,12,0:0:0:0:
256,192,243375,1,2,0:0:0:0:
256,192,243528,1,0,0:0:0:0:
256,192,243835,1,2,0:0:0:0:
256,192,243988,1,0,0:0:0:0:
256,192,244294,1,2,0:0:0:0:
256,192,244447,1,0,0:0:0:0:
256,192,244753,1,2,0:0:0:0:
256,192,244906,1,0,0:0:0:0:
256,192,245059,1,0,0:0:0:0:
256,192,245136,1,0,0:0:0:0:
256,192,245212,1,2,0:0:0:0:
256,192,245416,1,0,0:0:0:0:
256,192,245620,1,0,0:0:0:0:
