osu file format v7

[General]
AudioFilename: Demetori - Il Mondo dove e finito il Tempo - 04 - .mp3
AudioLeadIn: 0
PreviewTime: 28700
Countdown: 1
SampleSet: Normal
StackLeniency: 0.7
Mode: 0
LetterboxInBreaks: 1

[Editor]
Bookmarks: 169325
DistanceSpacing: 0.800000011920929
BeatDivisor: 4
GridSize: 8

[Metadata]
Title:Lunar Clock ~ Luna Dial
Artist:Demetori
Creator:lordfoster
Version:Lunatic
Source:Touhou
Tags:Linkred2 sakuya Kotomi-chan

[Difficulty]
HPDrainRate:6
CircleSize:5
OverallDifficulty:8
SliderMultiplier:1.6
SliderTickRate:0.5

[Events]
//Background and Video events
0,0,"Konachan.com - 66199 gray_hair izayoi_sakuya kanaria_(artist) maid red_eyes ribbons short_hair touhou weapon.jpg"
//Break Periods
2,60279,61017
2,81092,82017
2,103966,106017
2,124967,133767
2,145217,150267
2,171842,179142
//Storyboard Layer 0 (Background)
//Storyboard Layer 1 (Fail)
//Storyboard Layer 2 (Pass)
//Storyboard Layer 3 (Foreground)
//Storyboard Sound Samples
//Background Colour Transformations
3,100,163,162,255

[TimingPoints]
3267,375,4,1,0,70,1,0
82767,-100,4,1,0,70,0,1
94767,-100,4,1,0,70,0,0
112767,-100,4,1,0,70,0,1
118767,-100,4,1,0,70,0,0
134517,-100,4,1,0,70,0,1
145017,-100,4,1,0,70,0,0
179892,-100,4,1,0,70,0,1
191892,-100,4,1,0,70,0,0

[Colours]
Combo1 : 134,134,134
Combo2 : 0,128,192
Combo3 : 255,255,255
Combo4 : 0,128,255

[HitObjects]
48,48,28767,6,0,B|136:48,1,80,8|8
192,48,29142,1,0
256,48,29329,2,0,B|352:48|320:96,1,80,8|8
328,136,29704,1,0
328,200,29892,6,0,B|240:200,3,80,8|8|8|8
184,200,30642,1,0
120,200,30829,2,0,B|24:200|56:256,1,80,12|8
48,288,31204,1,0
112,288,31392,5,8
176,288,31579,1,8
240,288,31767,2,0,B|368:288|368:200,1,160,4|4
240,96,32329,2,0,B|368:96|368:184,1,160,4|4
424,192,32892,1,4
296,192,33267,2,0,B|296:296|128:296|128:24|128:24|128:24,1,320,4|8
256,64,34392,5,8
256,80,34485,1,0
256,96,34579,1,8
256,160,34767,1,8
256,176,34860,1,0
256,192,34954,1,8
320,192,35142,6,0,B|408:192,1,80
464,192,35517,2,0,B|464:104,1,80
464,48,35892,1,8
48,288,36267,6,0,B|48:352|264:352|264:248,1,240,4|0
256,216,37017,1,8
256,152,37204,1,8
256,88,37392,6,0,B|256:24|40:24|40:128,1,240,4|0
48,160,38142,1,8
48,224,38329,1,8
256,192,38423,12,4,41892
80,56,42267,6,0,B|40:56|40:192|112:192,1,160,6|0
112,128,42829,2,2,B|232:128|232:264|96:264,1,240,4|4
112,192,43767,2,2,B|112:384|448:384|448:152,1,480
256,96,45267,5,0
256,160,45454,2,0,B|304:160,2,40,0|0|0
256,224,45829,1,0
192,224,46017,2,0,B|144:224,4,40,8|0|0|0|12
464,96,46767,6,2,B|464:32|248:32|248:136,1,240,4|0
256,168,47517,1,8
256,232,47704,1,8
256,296,47892,6,2,B|256:360|472:360|472:256,1,240,4|0
464,224,48642,1,8
464,160,48829,1,8
256,192,49017,12,0,52767
40,40,53142,5,8
104,40,53329,1,0
104,104,53517,1,8
40,104,53704,1,0
40,168,53892,1,8
104,168,54079,1,0
168,192,54267,5,2
184,200,54360,1,0
200,192,54454,1,0
216,200,54548,1,0
232,192,54642,1,2
248,200,54735,1,0
264,192,54829,1,0
280,200,54923,1,0
296,192,55017,1,2
312,200,55110,1,0
328,192,55204,1,0
344,200,55298,1,0
360,192,55392,2,2,B|448:192,1,80,4|0
472,264,55767,5,12
472,264,55954,1,0
400,264,56142,5,8
400,264,56329,1,0
328,264,56517,5,8
328,264,56704,1,0
256,264,56892,5,8
256,264,57079,1,0
184,264,57267,5,8
184,264,57454,1,0
112,264,57642,5,8
112,264,57829,1,0
40,264,58017,5,8
40,264,58204,1,0
40,192,58392,5,12
200,192,58767,6,4,B|248:192,2,40,4|0|0
200,192,59142,2,4,B|200:144,2,40
200,192,59517,2,4,B|152:192,2,40
200,192,59892,2,4,B|200:240,2,40
104,136,61767,6,2,B|104:304|104:304|408:304|408:304|408:128,1,640,4|0
256,192,63360,12,4,64392
184,184,64767,6,2,B|184:208|224:208|280:208|328:208|328:176,1,160,4|0
352,240,65329,2,2,B|352:304|296:304|200:304|152:304|152:232,1,240,4|0
136,136,66267,2,2,B|136:312|176:312|352:312|392:312|392:96,1,480,4|0
320,32,67767,5,8
192,32,68142,1,0
256,144,68517,1,8
256,272,68892,1,4
256,144,69267,6,2,B|328:296,1,160,4|0
256,144,70017,2,0,B|256:312,1,160,4|0
256,144,70767,2,2,B|184:296,1,160,4|0
128,192,71517,5,8
376,192,71892,1,8
256,144,72079,1,0
256,144,72267,5,2
256,208,72454,1,0
192,208,72642,1,2
224,264,72829,1,0
288,264,73017,1,2
320,208,73204,1,0
256,208,73392,1,2
256,144,73579,1,0
256,80,73767,1,2
256,80,73954,6,0,B|256:32,12,40,2|0|2|0|0|0|2|0|0|0|2|0|0
256,104,75267,6,0,B|256:192,1,80,4|0
312,128,75642,2,0,B|248:192,1,80
336,184,76017,2,0,B|248:184,1,80
312,240,76392,2,0,B|248:176,1,80
256,264,76767,2,0,B|256:176,1,80
200,240,77142,2,0,B|264:176,1,80
176,184,77517,2,0,B|264:184,1,80
200,128,77892,2,0,B|264:192,1,80,0|0
224,80,78267,5,2
256,80,78360,1,0
288,80,78454,1,8
224,152,78642,5,2
256,152,78735,1,0
288,152,78829,1,8
224,224,79017,5,2
256,224,79110,1,0
288,224,79204,1,8
224,296,79392,5,2
256,296,79485,1,0
288,296,79579,1,8
256,192,79767,12,0,80892
56,192,82767,5,2
136,192,82954,1,2
216,192,83142,1,0
296,192,83329,1,10
376,192,83517,1,0
456,192,83704,1,2
376,192,83892,1,2
360,192,83985,1,0
344,192,84079,1,2
256,112,84267,6,0,B|256:200,1,80,8|8
176,192,84642,2,0,B|264:192,1,80,0|8
256,272,85017,2,0,B|256:184,1,80,0|8
336,192,85392,2,0,L|256:192,1,80
216,120,85767,5,2
256,120,85860,1,0
296,120,85954,1,2
216,192,86142,1,0
256,196,86235,1,0
296,192,86329,1,2
216,264,86517,1,0
256,264,86610,1,0
296,264,86704,1,2
256,328,86892,6,2,B|256:376,2,40,2|2|2
176,328,87267,6,0,B|192:328|192:328|264:328,1,80,8|8
336,328,87642,2,0,B|248:328|248:328,1,80,0|8
256,248,88017,2,0,B|256:336|256:336,1,80,0|8
256,328,88392,6,4,B|256:376,4,40,12|12|12|0|6
200,296,88954,6,0,B|264:232,1,80,2|0
312,296,89329,2,0,B|248:232,1,80,2|0
256,184,89704,1,2
256,128,89892,1,2
256,112,89985,1,0
256,96,90079,1,2
256,80,90173,1,0
256,64,90267,1,8
328,64,90454,5,8
408,64,90642,1,0
408,144,90829,1,8
328,144,91017,1,0
328,224,91204,1,8
408,224,91392,2,8,B|408:272,2,40
408,224,91767,5,2
328,224,91954,1,2
328,144,92142,1,0
408,144,92329,1,2
408,64,92517,1,0
328,64,92704,1,2
256,64,92892,5,2
240,64,92985,1,0
224,64,93079,1,2
208,64,93173,1,0
192,64,93267,1,8
112,72,93454,2,0,B|168:128|136:160,1,80,8|0
88,128,93829,2,0,B|32:184|64:216,1,80,8|0
112,184,94204,2,0,B|168:240|136:272,1,80,8|0
208,248,94579,2,12,B|224:248|224:232|208:232|208:224|224:224,2,40,12|12|14
272,248,94954,6,0,B|360:248,4,80,2|0|2|0|2
208,248,95892,1,12
144,248,96079,1,12
80,248,96267,2,0,L|80:168,3,80,6|0|6|0
80,168,97017,2,4,L|240:168,1,160,6|6
240,168,97579,1,2
240,168,97767,1,2
304,168,97954,6,0,L|304:248,2,80,2|0|2
272,112,98517,1,12
216,80,98704,1,12
272,40,98892,1,12
336,40,99079,2,0,L|376:40,2,40
336,40,99454,5,4
256,40,99642,1,0
256,120,99829,1,0
336,120,100017,1,0
336,200,100204,1,4
256,200,100392,1,0
184,200,100579,5,4
168,200,100673,1,4
152,200,100767,1,4
88,200,100954,6,4,L|88:240,12,40,0|0|0|0|0|0|0|0|0|0|0|0|4
88,136,102267,5,4
88,72,102454,6,4,L|88:32,14,40,0|0|0|0|0|0|0|0|4|0|0|0|4|0|4
48,192,106767,5,8
88,160,106954,1,0
128,192,107142,1,0
168,160,107329,1,8
208,192,107517,1,0
248,160,107704,1,0
288,192,107892,1,8
328,160,108079,1,0
368,192,108267,1,0
408,160,108454,1,8
448,192,108642,5,2
432,192,108735,1,0
416,192,108829,1,2
400,192,108923,1,0
384,192,109017,1,6
368,192,109110,1,0
352,192,109204,1,2
336,192,109298,1,0
320,192,109392,2,0,L|280:192,2,40,6|0|2
224,264,109767,6,0,B|168:264|168:216,1,80,8|0
288,120,110142,2,0,B|344:120|344:168,1,80,0|8
224,264,110517,2,0,B|168:264|168:216,1,80,0|0
288,120,110892,2,0,B|344:120|344:168,1,80,8|0
224,264,111267,2,0,B|168:264|168:216,1,80,0|8
256,192,111642,6,0,B|224:160,7,40,2|0|2|0|2|0|2|0
256,192,112392,2,0,B|304:192,2,40,2|0|2
256,256,112767,5,8
192,192,112954,1,0
256,128,113142,1,8
320,192,113329,1,0
256,256,113517,1,12
192,192,113704,1,0
256,128,113892,1,8
320,192,114079,1,0
256,256,114267,1,8
192,192,114454,1,0
256,192,114642,5,2
256,192,114735,1,2
256,192,114829,1,2
256,192,114923,1,2
256,192,115017,1,2
256,192,115110,1,2
256,192,115204,1,2
256,192,115298,1,2
256,192,115392,1,2
256,192,115485,1,2
256,192,115579,1,2
256,96,115767,5,8
352,192,115954,1,0
256,288,116142,1,8
160,192,116329,1,0
256,96,116517,1,8
352,192,116704,1,0
256,288,116892,1,8
160,192,117079,1,0
256,96,117267,1,8
352,192,117454,1,0
256,192,117642,5,2
256,192,117735,1,2
256,192,117829,1,2
256,192,117923,1,2
256,192,118017,1,2
256,192,118110,1,2
256,192,118204,1,2
256,192,118298,1,2
256,192,118392,1,2
256,192,118485,1,2
256,192,118579,1,2
256,192,118767,6,0,B|320:128,1,80,8|0
256,192,119142,2,0,B|192:256,1,80,0|8
256,192,119517,2,0,B|192:128,1,80
256,192,119892,2,0,B|320:256,1,80,8|0
256,192,120267,2,0,B|256:104,1,80,0|8
256,64,120642,5,2
256,48,120735,1,0
256,32,120829,1,2
240,32,120923,1,0
224,32,121017,1,2
208,32,121110,1,0
192,32,121204,1,2
176,32,121298,1,0
160,32,121392,2,0,B|112:32,2,40,2|0|2
120,32,121767,6,0,B|120:120,1,80,8|0
224,96,122142,2,0,B|224:184,1,80,0|8
120,144,122517,2,0,B|120:232,1,80,0|0
224,200,122892,2,0,B|224:288,1,80,8|0
120,256,123267,2,0,B|120:344,1,80,0|8
184,336,123642,5,2
200,336,123735,1,0
216,336,123829,1,2
232,336,123923,1,0
248,336,124017,1,2
264,336,124110,1,0
280,336,124204,1,2
296,336,124298,1,0
312,336,124392,2,0,B|360:336,4,40
184,192,134517,5,2
184,192,134610,1,0
184,192,134704,1,8
328,192,134892,5,2
328,192,134985,1,0
328,192,135079,1,8
256,120,135267,5,2
256,120,135360,1,0
256,120,135454,1,8
256,264,135642,5,2
256,264,135735,1,0
256,264,135829,1,8
336,112,136017,5,2
336,112,136110,1,0
336,112,136204,1,8
176,272,136392,5,2
176,272,136485,1,0
176,272,136579,1,8
176,112,136767,5,2
176,112,136860,1,0
176,112,136954,1,8
336,272,137142,5,2
336,272,137235,1,0
336,272,137329,1,8
256,264,137517,6,0,C|328:264|360:232|360:152|328:120|248:120,2,320,0|0|0
256,88,139392,5,6
256,88,139579,1,8
152,88,139767,5,2
152,88,139954,1,8
256,88,140142,5,2
256,88,140329,1,8
256,192,140517,5,2
256,192,140704,1,2
256,88,140892,5,0
256,88,141079,1,2
360,88,141267,5,2
360,88,141454,1,0
256,8,141642,6,0,B|256:56,2,40,2|0|0
256,88,142017,6,0,B|256:136,2,40,2|0|0
256,168,142392,6,0,B|256:216,2,40,2|0|0
256,248,142767,6,0,B|256:328,2,40,2|0|0
256,328,143142,2,0,B|256:376,2,40,2|0|0
328,328,143517,6,0,C|328:256|296:224|216:224|184:256|184:336,2,320,0|0|0
144,192,151017,5,4
368,192,151579,5,4
256,304,152142,5,4
464,336,152892,6,0,B|376:336,1,80,8|8
320,336,153267,1,0
256,336,153454,2,0,B|160:336|192:288,1,80,8|8
184,248,153829,1,0
184,184,154017,6,0,B|272:184,3,80,8|8|8|8
328,184,154767,1,0
392,184,154954,2,0,B|488:184|456:128,1,80,12|8
464,96,155329,1,0
400,96,155517,5,8
336,96,155704,1,8
272,96,155892,2,0,B|144:96|144:184,1,160,4|4
272,288,156454,2,0,B|144:288|144:200,1,160,4|4
160,152,157017,2,0,B|288:152|288:240,1,160,4|0
160,224,157579,2,0,B|288:224|288:136,1,160,4|0
384,192,158142,5,8
136,192,158517,1,8
256,240,158704,1,0
256,240,158892,5,2
256,176,159079,1,0
320,176,159267,1,2
288,120,159454,1,0
224,120,159642,1,2
192,176,159829,1,0
256,176,160017,1,2
256,240,160204,1,0
256,304,160392,1,2
256,304,160579,6,0,B|256:352,12,40,2|0|2|0|0|0|2|0|0|0|2|0|0
256,192,161892,6,0,B|256:280,1,80,4|0
256,192,162267,2,0,B|192:256,1,80
256,192,162642,2,0,B|168:192,1,80
256,192,163017,2,0,B|192:128,1,80
256,192,163392,2,0,B|256:104,1,80
256,192,163767,2,0,B|320:128,1,80
256,192,164142,2,0,B|344:192,1,80
256,192,164517,2,0,B|320:256,1,80
288,304,164892,5,2
256,304,164985,1,0
224,304,165079,1,8
288,232,165267,5,2
256,232,165360,1,0
224,232,165454,1,8
288,160,165642,5,2
256,160,165735,1,0
224,160,165829,1,8
288,88,166017,5,6
256,88,166110,1,0
224,88,166204,1,8
256,192,166392,12,4,169017
352,240,169392,6,0,L|296:240|296:280|256:240|152:240|128:232|112:216|112:192,1,320
112,200,170517,1,0
112,199,170892,2,0,L|112:184|128:168|152:160|256:160|296:120|296:160|352:160,1,320
456,192,179892,5,2
376,192,180079,1,2
296,192,180267,1,0
216,192,180454,1,10
136,192,180642,1,0
56,192,180829,1,2
136,192,181017,1,2
152,192,181110,1,0
168,192,181204,1,2
256,272,181392,6,0,B|256:184,1,80,8|8
336,192,181767,2,0,B|248:192,1,80,0|8
256,112,182142,2,0,B|256:200,1,80,0|8
176,192,182517,2,0,L|256:192,1,80
296,264,182892,5,2
256,264,182985,1,0
216,264,183079,1,2
296,192,183267,1,0
256,188,183360,1,0
216,192,183454,1,2
296,120,183642,1,0
256,120,183735,1,0
216,120,183829,1,2
256,56,184017,6,2,B|256:8,2,40,2|2|2
336,56,184392,6,0,B|320:56|320:56|248:56,1,80,8|8
176,56,184767,2,0,B|264:56|264:56,1,80,0|8
256,136,185142,2,0,B|256:48|256:48,1,80,0|8
256,56,185517,6,4,B|256:8,4,40,12|12|12|0|6
312,88,186079,6,0,B|248:152,1,80,2|0
200,88,186454,2,0,B|264:152,1,80,2|0
256,200,186829,1,2
256,256,187017,1,2
256,272,187110,1,0
256,288,187204,1,2
256,304,187298,1,0
256,320,187392,1,8
184,320,187579,5,8
104,320,187767,1,0
104,240,187954,1,8
184,240,188142,1,0
184,160,188329,1,8
104,160,188517,2,8,B|104:112,2,40
104,160,188892,5,2
184,160,189079,1,2
184,240,189267,1,0
104,240,189454,1,2
104,320,189642,1,0
184,320,189829,1,2
256,320,190017,5,2
272,320,190110,1,0
288,320,190204,1,2
304,320,190298,1,0
320,320,190392,1,8
400,312,190579,2,0,B|344:256|376:224,1,80,8|0
424,256,190954,2,0,B|480:200|448:168,1,80,8|0
400,200,191329,2,0,B|344:144|376:112,1,80,8|0
304,136,191704,2,12,B|288:136|288:152|304:152|304:160|288:160,2,40,12|12|14
240,136,192079,6,0,B|152:136,4,80,2|0|2|0|2
304,136,193017,1,12
368,136,193204,1,12
432,136,193392,2,0,L|432:216,3,80,6|0|6|0
432,216,194142,2,4,L|272:216,1,160,6|6
272,216,194704,1,2
272,216,194892,1,2
208,216,195079,6,0,L|208:136,2,80,2|0|2
240,272,195642,1,12
296,304,195829,1,12
240,344,196017,1,12
176,344,196204,2,0,L|136:344,2,40
176,344,196579,5,4
256,344,196767,1,0
256,264,196954,1,0
176,264,197142,1,0
176,184,197329,1,4
256,184,197517,1,0
328,184,197704,5,4
344,184,197798,1,4
360,184,197892,1,4
424,184,198079,6,4,L|424:144,12,40,0|0|0|0|0|0|0|0|0|0|0|0|4
424,248,199392,5,4
424,312,199579,6,4,L|424:352,14,40,0|0|0|0|0|0|0|0|4|0|0|0|4|0|4
256,192,201079,12,0,203517
136,192,203892,5,2
56,192,204079,1,2
296,192,204267,5,2
216,192,204454,1,2
456,192,204642,5,2
376,192,204829,1,2
256,192,205017,6,0,B|256:144,4,40
256,272,205579,6,0,B|344:272,1,80,8|0
256,112,205954,2,8,B|168:112,1,80
176,272,206329,2,0,B|240:336,1,80,8|0
256,192,206704,1,8
176,192,206892,6,2,B|128:192|128:248,1,80
336,192,207267,2,2,B|384:192|384:136,1,80
256,272,207642,2,2,B|256:320|312:320,1,80
256,192,208017,2,0,B|256:144,4,40
256,272,208579,5,8
256,352,208767,1,0
256,112,208954,5,8
256,192,209142,1,8
216,32,209329,5,8
296,32,209517,1,8
256,112,209704,5,8
256,112,209798,1,8
256,112,209892,1,8
256,192,210079,5,2
256,192,210267,1,2
256,272,210454,1,2
256,272,210642,1,2
256,192,210829,1,2
256,192,211017,1,2
176,192,211204,6,4,B|128:192,1,40
96,192,211392,1,0
16,192,211579,6,0,B|16:280,1,80,8|0
96,272,211954,2,8,B|96:184,1,80,8|8
96,112,212329,2,0,B|0:112,1,80,8|0
256,192,212704,12,4,215892
