osu file format v7

[General]
AudioFilename: Demetori - Il Mondo dove e finito il Tempo - 04 - .mp3
AudioLeadIn: 0
PreviewTime: 28700
Countdown: 1
SampleSet: Soft
StackLeniency: 0.7
Mode: 0
LetterboxInBreaks: 1

[Editor]
DistanceSpacing: 0.800000011920929
BeatDivisor: 4
GridSize: 8

[Metadata]
Title:Lunar Clock ~ Luna Dial
Artist:Demetori
Creator:lordfoster
Version:Extra Stage
Source:Touhou
Tags:Linkred2 sakuya Kotomi-chan

[Difficulty]
HPDrainRate:6
CircleSize:4
OverallDifficulty:8
SliderMultiplier:1.8
SliderTickRate:0.5

[Events]
//Background and Video events
0,0,"konachan-com-49508-izayoi_sakuya-shushio-touhou.jpg"
//Break Periods
2,25779,28017
2,60279,61017
2,69467,82017
2,103967,106017
2,124966,133767
2,145216,150267
2,174091,179142
//Storyboard Layer 0 (Background)
//Storyboard Layer 1 (Fail)
//Storyboard Layer 2 (Pass)
//Storyboard Layer 3 (Foreground)
Sprite,Foreground,Centre,"speedup.png",320,240 F,0,24200,,1,0 F,0,24200,24387,0,1 M,1,24200,25325,229,263,496,291 F,0,25137,25325,1,0 F,0,35075,35262,0,1 M,1,35075,36200,229,373,448,352 F,0,36012,36200,1,0 F,0,45575,45762,0,1 M,1,45575,46700,229,300,523,291 F,0,46512,46700,0.9790579,0.01124844 F,1,81575,81762,0,1 M,1,81575,82700,229,247,463,242 F,0,82512,82700,1,0 F,0,133325,133512,0,1 M,1,133325,134450,214,245,527,244 F,0,134262,134450,1,0 F,0,154700,154887,0,1 M,1,154700,155825,229,173,454,174 F,0,155637,155825,1,0 F,0,165200,165387,0,1 M,1,165200,166325,230,321,509,320 F,0,166137,166325,1,0 F,0,178700,178887,0,1 M,1,178700,179825,226,243,460,247 F,0,179637,179825,1,0
Sprite,Foreground,Centre,"slowdown.png",320,240 F,0,48575,48762,0,1 M,1,48575,49700,411,140,128,139 F,0,49512,,1 F,0,49512,49700,1,0 F,0,105575,105762,0,1 M,1,105575,106700,411,245,120,242 F,0,106512,106700,1,0
//Storyboard Sound Samples
//Background Colour Transformations
3,100,0,0,0

[TimingPoints]
3267,375,4,2,0,70,1,0
25392,-50,4,2,0,70,0,0
28767,-100,4,2,0,70,0,0
36267,-50,4,2,0,70,0,0
49767,-100,4,2,0,70,0,0
82767,-50,4,2,0,70,0,1
94954,-50,4,2,0,70,0,0
104329,-100,4,2,0,70,0,0
112767,-100,4,2,0,70,0,1
118767,-100,4,2,0,70,0,0
134517,-50,4,2,0,70,0,1
145017,-100,4,2,0,70,0,0
152142,-200,4,2,0,70,0,0
152892,-100,4,2,0,70,0,0
155824,-50,4,2,0,70,0,0
161892,-100,4,2,0,70,0,0
166392,-50,4,2,0,70,0,0
172392,-100,4,2,0,70,0,0
179892,-50,4,2,0,70,0,1
191704,-50,4,2,0,70,0,0

[Colours]
Combo1 : 255,0,0
Combo2 : 0,128,192
Combo3 : 103,103,103
Combo4 : 0,128,255

[HitObjects]
96,288,15267,1,4
416,288,15642,1,8
416,96,16017,1,4
96,96,16392,1,8
168,48,16767,6,0,B|352:48,1,180,0|8
344,328,17517,2,4,B|160:328,1,180,0|8
96,232,18267,6,8,B|200:232,1,90,8|8
416,152,18642,2,8,B|312:152,1,90
96,232,19017,2,8,B|200:232,1,90
416,152,19392,2,8,B|312:152,1,90
256,192,19767,5,4
256,192,19954,1,0
256,192,20048,1,0
256,192,20142,1,4
256,192,20235,1,0
256,192,20329,1,0
256,192,20423,1,0
256,192,20517,1,4
256,192,20610,1,0
256,192,20704,1,0
256,192,20798,1,0
256,192,20892,1,4
256,192,20985,1,0
256,192,21079,1,0
256,312,21267,5,4
72,192,21642,1,8
256,72,22017,1,4
440,192,22392,1,8
408,280,22767,6,0,B|408:80,1,180,0|8
104,104,23517,2,4,B|104:304,1,180,0|8
216,352,24267,6,8,B|216:256,1,90
296,32,24642,2,8,B|296:128,1,90
216,352,25017,2,8,B|216:256,1,90
296,32,25392,2,4,B|296:216,1,180
112,192,28767,5,12
256,192,28954,1,0
256,192,29048,1,0
256,192,29142,1,0
256,48,29329,5,8
256,192,29517,1,0
256,192,29610,1,0
256,192,29704,1,0
400,192,29892,5,8
256,192,30079,1,8
400,192,30267,1,8
256,192,30454,1,0
256,192,30548,1,0
256,192,30642,1,0
256,336,30829,5,8
256,192,31017,1,0
256,192,31110,1,0
256,192,31204,1,0
256,192,31392,5,8
152,192,31579,1,0
32,224,31767,5,12
64,248,31860,1,0
96,224,31954,1,0
128,248,32048,1,0
160,224,32142,1,0
192,248,32235,1,0
224,224,32329,1,12
256,248,32423,1,0
288,224,32517,1,0
320,248,32610,1,0
352,224,32704,1,0
384,248,32798,1,0
416,224,32892,1,8
448,248,32985,1,0
480,224,33079,1,0
480,160,33267,5,12
448,136,33360,1,0
416,160,33454,1,0
384,136,33548,1,0
352,160,33642,1,0
320,136,33735,1,0
288,160,33829,1,12
256,136,33923,1,0
224,160,34017,1,0
192,136,34110,1,0
160,160,34204,1,0
128,136,34298,1,0
96,160,34392,1,8
64,136,34485,1,0
32,160,34579,1,0
56,240,34767,6,12,B|296:240|336:240|248:56,1,360
160,40,36267,6,4,B|344:40,1,180
340,40,36642,1,8
344,128,36829,6,4,B|160:128,1,180
164,128,37204,1,8
160,248,37392,6,4,B|344:248,1,180
340,248,37767,1,8
336,344,37954,6,4,B|152:344,1,180
156,344,38329,1,8
120,192,38517,5,0
408,192,38892,1,0
256,192,39079,12,4,42267
160,40,42642,5,8
256,40,42829,1,0
256,40,42923,1,8
256,40,43017,1,0
256,40,43110,1,8
256,40,43204,1,0
256,40,43298,1,0
256,40,43392,1,12
160,192,43767,5,4
352,192,44142,1,4
256,192,44329,1,0
256,192,44423,1,8
256,192,44517,1,0
256,192,44610,1,8
256,192,44704,1,0
256,192,44798,1,0
256,192,44892,1,8
160,336,45267,5,4
352,336,45642,1,4
256,336,45829,1,0
256,336,45923,1,8
256,336,46017,1,0
256,336,46110,1,8
256,336,46204,1,0
256,336,46298,1,0
256,336,46392,1,12
256,192,46767,6,0,B|400:48,1,180
383,64,47142,1,8
256,192,47329,6,0,B|120:56,1,180
128,64,47704,1,8
256,192,47892,6,0,B|392:328,1,180
383,319,48267,1,8
256,192,48454,6,0,B|112:336,1,180
128,319,48829,1,8
256,256,49017,5,8
256,128,49392,1,8
256,192,49579,1,8
168,192,49767,6,8,B|352:192,5,180
392,192,52017,5,8
360,192,52110,1,0
320,192,52204,1,0
368,80,52392,5,8
344,104,52485,1,0
320,128,52579,1,0
256,48,52767,5,8
256,88,52860,1,0
256,128,52954,1,0
144,80,53142,5,8
168,104,53235,1,0
192,128,53329,1,0
120,192,53517,5,8
152,192,53610,1,0
192,192,53704,1,0
256,296,53892,5,8
256,264,53985,1,0
256,224,54079,1,0
232,192,54267,6,0,B|280:192,14,45,8|0|8|0|8|0|8|0|8|0|8|0|8|0|8
384,192,55767,5,12
352,192,55860,1,0
320,192,55954,1,0
368,304,56142,5,8
344,280,56235,1,0
320,256,56329,1,0
256,320,56517,5,8
256,288,56610,1,0
256,256,56704,1,0
144,304,56892,5,8
168,280,56985,1,0
192,256,57079,1,0
120,192,57267,5,8
160,192,57360,1,0
192,192,57454,1,0
144,80,57642,5,8
168,104,57735,1,0
192,128,57829,1,0
256,48,58017,5,8
256,88,58110,1,0
256,128,58204,1,0
368,80,58392,5,12
344,104,58485,1,0
320,128,58579,1,0
464,48,58767,6,0,B|464:96,2,45,12|0|8
256,48,59142,2,0,B|256:96,2,45,8|0|8
48,48,59517,2,0,B|48:96,2,45,8|0|8
256,168,59892,2,0,B|256:216,2,45,8|0|8
256,192,61767,5,12
144,112,61954,1,0
144,112,62048,1,0
144,112,62142,1,0
256,192,62329,5,8
256,48,62517,1,0
256,48,62610,1,0
256,48,62704,1,0
256,192,62892,5,8
368,112,63079,1,8
256,192,63267,1,8
368,112,63454,1,0
368,112,63548,1,0
368,112,63642,1,0
256,192,63829,5,8
368,272,64017,1,0
368,272,64110,1,0
368,272,64204,1,0
256,192,64392,5,8
144,272,64579,1,8
72,272,64767,5,12
72,200,64954,1,0
72,168,65048,1,0
72,128,65142,1,0
72,56,65329,1,12
120,24,65517,5,0
152,24,65610,1,0
192,24,65704,1,0
224,24,65798,1,0
264,24,65892,1,12
304,24,65985,1,0
336,24,66079,1,0
424,24,66267,5,12
424,96,66454,1,0
424,128,66548,1,0
424,168,66642,1,0
424,240,66829,1,8
384,272,67017,5,0
352,272,67110,1,0
312,272,67204,1,0
280,272,67298,1,0
240,272,67392,1,8
200,272,67485,1,0
168,272,67579,1,0
256,192,67767,12,8,69267
104,304,82767,5,8
104,80,82954,1,0
256,80,83142,1,8
256,304,83329,1,0
416,304,83517,1,8
408,80,83704,1,0
384,192,83892,5,8
320,192,83985,1,0
256,192,84079,1,8
192,192,84173,1,0
128,192,84267,1,8
104,80,84454,5,0
104,304,84642,1,8
256,304,84829,1,0
256,80,85017,1,8
408,80,85204,1,0
408,304,85392,1,8
104,304,85579,5,4
104,304,85767,1,8
104,80,85954,1,0
256,80,86142,1,8
256,304,86329,1,0
408,304,86517,1,8
408,80,86704,1,0
384,192,86892,5,8
320,192,86985,1,0
256,192,87079,1,8
192,192,87173,1,0
128,192,87267,1,8
104,80,87454,5,4
104,304,87642,1,0
256,304,87829,1,0
256,80,88017,1,0
408,80,88204,1,4
408,304,88392,1,0
304,192,88579,2,4,B|200:192,2,90
384,192,88954,5,0
128,192,89142,1,8
384,192,89329,1,0
128,192,89517,1,8
384,192,89704,1,0
128,192,89892,1,8
192,192,89985,1,0
256,192,90079,1,8
320,192,90173,1,0
384,192,90267,1,8
256,80,90454,5,0
256,304,90642,1,8
256,80,90829,1,0
256,304,91017,1,8
256,80,91204,1,0
256,304,91392,1,8
128,192,91579,5,4
128,192,91767,1,8
384,192,91954,1,0
128,192,92142,1,8
384,192,92329,1,0
128,192,92517,1,8
384,192,92704,1,0
128,192,92892,5,8
192,192,92985,1,0
256,192,93079,1,8
320,192,93173,1,0
384,192,93267,1,8
256,304,93454,5,4
256,80,93642,1,0
256,304,93829,1,0
256,80,94017,1,0
256,304,94204,1,4
256,80,94392,1,0
128,192,94579,2,4,B|32:192,2,90
168,192,94954,6,8,B|352:192,4,180
256,96,95892,6,4,B|256:224,1,90
256,288,96173,2,4,B|256:160,1,90
296,192,96454,2,8,B|480:192,2,180
296,192,97017,2,4,B|16:192,1,270
80,104,97485,2,4,B|216:104,1,90,0|8
168,104,97767,1,4
256,104,97954,6,8,B|256:288,3,180
336,288,98704,2,4,L|432:288,1,90
426,288,98892,2,4,L|426:192,1,90
426,198,99079,1,4
426,198,99173,1,4
426,198,99267,1,4
408,304,99454,5,8
408,80,99642,1,8
256,80,99829,1,8
256,304,100017,1,8
96,304,100204,1,8
104,80,100392,1,8
208,192,100579,2,4,B|312:192,2,90
144,192,100954,5,8
80,192,101048,1,0
80,128,101142,1,0
80,64,101235,1,0
144,64,101329,1,8
208,64,101423,1,0
272,64,101517,1,0
336,64,101610,1,0
400,64,101704,1,8
464,64,101798,1,0
464,128,101892,1,0
464,192,101985,1,0
400,192,102079,1,8
336,192,102173,1,0
272,192,102267,1,4
144,192,102454,5,8
80,192,102548,1,0
80,256,102642,1,0
80,320,102735,1,0
144,320,102829,1,8
208,320,102923,1,0
272,320,103017,1,0
336,320,103110,1,0
400,320,103204,1,8
464,320,103298,1,0
464,256,103392,1,0
464,192,103485,1,0
400,192,103579,1,8
336,192,103673,1,0
272,192,103767,1,4
464,192,106767,5,8
464,232,106860,1,0
448,264,106954,1,0
416,280,107048,1,0
384,288,107142,1,8
352,296,107235,1,0
320,288,107329,1,0
288,264,107423,1,0
264,232,107517,1,8
256,200,107610,1,0
248,168,107704,5,0
240,136,107798,1,0
224,104,107892,1,8
200,88,107985,1,0
168,72,108079,1,0
128,72,108173,1,0
96,88,108267,1,8
72,120,108360,1,0
64,152,108454,1,0
64,192,108548,1,0
96,192,108642,6,0,B|144:192,1,45,8|0
176,192,108829,2,0,B|224:192,1,45,8|0
256,192,109017,2,0,B|304:192,1,45,12|0
336,192,109204,2,0,B|384:192,1,45,8|0
424,192,109392,2,8,B|472:192,3,45
464,192,109767,5,12
464,152,109860,1,0
448,120,109954,1,0
416,104,110048,1,0
384,96,110142,1,8
352,88,110235,1,0
320,96,110329,1,0
288,120,110423,1,0
264,152,110517,1,8
256,184,110610,1,0
248,216,110704,5,0
240,248,110798,1,0
224,280,110892,1,8
200,296,110985,1,0
168,312,111079,1,0
128,312,111173,1,0
96,296,111267,1,8
72,264,111360,1,0
64,232,111454,1,0
64,192,111548,1,0
96,192,111642,6,0,B|144:248,1,45,8|0
144,192,111829,2,0,B|176:152,1,45,8|0
192,192,112017,2,0,B|224:240,1,45,8|0
232,192,112204,2,0,B|272:168,1,45,8|0
304,192,112392,2,8,B|376:192,3,45
384,192,112767,6,0,B|432:192,1,45,12|0
464,192,112954,2,0,B|464:136,1,45,8|0
456,128,113142,2,0,B|424:72,1,45,12|0
408,64,113329,2,0,B|352:32,1,45,8|0
336,40,113517,2,0,B|272:32,1,45,8|0
248,32,113704,2,0,B|168:32,1,45,8|0
160,32,113892,2,0,B|104:64,1,45,8|0
88,80,114079,2,0,B|64:120,1,45,8|0
48,144,114267,2,0,B|48:192,1,45,8|0
80,192,114454,2,0,B|136:192,1,45,8|0
152,192,114642,5,8
176,208,114735,1,8
200,192,114829,1,8
224,208,114923,1,8
248,192,115017,1,8
272,208,115110,1,8
288,192,115204,1,8
312,208,115298,1,8
320,192,115392,2,8,B|368:192,3,45
384,192,115767,6,0,B|432:192,1,45,8|0
464,192,115954,2,0,B|464:248,1,45,8|0
456,256,116142,2,0,B|424:312,1,45,8|0
408,320,116329,2,0,B|352:352,1,45,8|0
336,344,116517,2,0,B|272:352,1,45,8|0
248,352,116704,2,0,B|168:352,1,45,8|0
160,344,116892,2,0,B|104:312,1,45,8|0
88,304,117079,2,0,B|64:264,1,45,8|0
48,240,117267,2,0,B|48:192,1,45,8|0
80,192,117454,2,0,B|136:192,1,45,8|0
152,192,117642,5,8
176,208,117735,1,8
200,192,117829,1,8
224,208,117923,1,8
248,192,118017,1,8
272,208,118110,1,8
288,192,118204,1,8
312,208,118298,1,8
328,192,118392,2,8,B|376:192,3,45
400,192,118767,6,0,B|400:240,1,45,8|0
456,192,118954,2,0,B|456:144,1,45
456,248,119142,2,0,B|456:296,1,45,8|0
400,248,119329,2,0,B|400:296,1,45
344,248,119517,2,0,B|344:296,1,45,8|0
288,248,119704,2,0,B|288:304,1,45
232,248,119892,2,0,B|232:296,1,45,8|0
176,248,120079,2,0,B|176:296,1,45
120,248,120267,2,0,B|120:304,1,45,8|0
64,248,120454,2,0,B|64:296,1,45
64,224,120642,6,0,B|16:224,2,45,8|0|8
64,192,120923,2,0,B|64:120,2,45,0|8|0
96,192,121204,2,0,B|144:192,2,45,8|0|8
96,224,121485,2,0,B|96:272,2,45,0|8|0
112,192,121767,6,0,B|112:144,1,45,8|0
56,192,121954,2,0,B|56:144,1,45
56,248,122142,2,0,B|56:296,1,45,8|0
112,248,122329,2,0,B|112:296,1,45
168,248,122517,2,0,B|168:296,1,45,8|0
224,248,122704,2,0,B|224:304,1,45
280,248,122892,2,0,B|280:296,1,45,8|0
336,248,123079,2,0,B|336:296,1,45
392,248,123267,2,0,B|392:304,1,45,8|0
448,248,123454,2,0,B|448:296,1,45
448,224,123642,6,0,B|496:224,2,45,8|0|8
448,192,123923,2,0,B|448:120,2,45,0|8|0
416,192,124204,2,0,B|368:192,2,45,8|0|8
416,224,124485,2,0,B|416:272,3,45,0|8|0|8
208,48,134517,6,0,L|24:48,1,180,8|0
304,48,134892,2,0,L|488:48,1,180,8|0
208,136,135267,6,0,L|24:136,1,180,8|0
304,136,135642,2,0,L|488:136,1,180,8|0
208,248,136017,6,0,L|16:248,1,180,8|0
304,248,136392,2,0,L|488:248,1,180,8|0
208,336,136767,6,0,L|24:336,1,180,8|4
304,336,137142,2,0,L|488:336,1,180,8|4
256,328,137517,6,4,L|208:312|296:312|208:280|296:272|208:248|304:232|208:208|320:176|320:176|304:176,2,720,4|4|8
256,320,139110,1,0
256,320,139204,1,8
216,304,139392,6,0,C|88:176,1,180,8|8
296,304,139767,2,0,C|424:176,1,180,8|8
216,224,140142,6,0,C|88:96,1,180,8|8
296,224,140517,2,0,C|424:96,1,180,8|8
216,144,140892,6,0,C|88:16,1,180,8|8
296,144,141267,2,0,C|424:16,1,180,8|8
112,64,141642,6,0,L|160:64,5,45,8|0|0|0|0|0
400,64,142017,2,0,L|336:64,5,45,8|0|0|0|0|0
112,144,142392,2,0,L|168:144,5,45,8|0|0|0|0|0
400,144,142767,2,0,L|344:144,5,45,8|0|0|0|0|0
280,264,143142,2,0,L|224:264,5,45,8|0|0|0|0|0
256,192,143517,6,4,L|208:176|296:176|208:144|296:136|208:112|304:96|208:72|320:40|320:40|304:40,2,720
112,192,151017,5,4
400,192,151579,5,4
256,56,152142,6,0,B|256:128|256:192,1,135,4|0
400,192,152892,5,12
256,192,153079,1,0
256,192,153173,1,0
256,192,153267,1,0
256,48,153454,5,8
256,192,153642,1,0
256,192,153735,1,0
256,192,153829,1,0
112,192,154017,5,8
256,192,154204,1,8
112,192,154392,1,8
256,192,154579,1,0
256,192,154673,1,0
256,192,154767,1,0
256,336,154954,5,8
256,192,155142,1,0
256,192,155235,1,0
256,192,155329,1,0
256,192,155517,5,8
400,192,155704,1,0
352,344,155892,6,4,B|168:344,1,180
172,345,156267,1,8
168,248,156454,6,4,B|352:248,1,180
348,248,156829,1,8
344,144,157017,6,0,B|160:144,1,180
164,145,157392,1,12
168,40,157579,6,0,B|352:40,1,180
348,40,157954,1,8
352,136,158142,5,8
256,192,158517,1,8
256,192,158704,12,4,161892
352,344,162267,5,4
256,344,162454,2,0,B|256:296,6,45,0|8|0|8|0|0|8
352,192,163392,5,4
160,192,163767,1,4
256,192,163954,2,0,B|256:144,6,45,0|8|0|8|0|0|8
352,48,164892,5,4
160,48,165267,1,4
256,48,165454,2,0,B|256:96,6,45,0|8|0|8|0|0|12
384,48,166392,6,8,B|504:168|136:192,1,360
128,48,166954,6,8,B|8:168|376:192,1,360
384,336,167517,6,8,B|504:216|136:192,1,360
128,336,168079,6,8,B|8:216|376:192,1,360
424,192,168642,5,4
88,192,169017,1,4
256,192,169392,12,4,172392
248,48,172579,6,4,C|216:48|296:64|208:88|296:88|208:112|296:112|208:128|296:136|296:136|296:136|296:136|296:136|296:136|296:136,1,630
408,80,179892,5,8
408,304,180079,1,0
256,304,180267,1,8
256,80,180454,1,0
96,80,180642,1,8
104,304,180829,1,0
128,192,181017,5,8
192,192,181110,1,0
256,192,181204,1,8
320,192,181298,1,0
384,192,181392,1,8
408,304,181579,5,0
408,80,181767,1,8
256,80,181954,1,0
256,304,182142,1,8
104,304,182329,1,0
104,80,182517,1,8
408,80,182704,5,4
408,80,182892,1,8
408,304,183079,1,0
256,304,183267,1,8
256,80,183454,1,0
104,80,183642,1,8
104,304,183829,1,0
128,192,184017,5,8
192,192,184110,1,0
256,192,184204,1,8
320,192,184298,1,0
384,192,184392,1,8
408,304,184579,5,4
408,80,184767,1,0
256,80,184954,1,0
256,304,185142,1,0
104,304,185329,1,4
104,80,185517,1,0
208,192,185704,2,4,B|312:192,2,90
128,192,186079,5,0
384,192,186267,1,8
128,192,186454,1,0
384,192,186642,1,8
128,192,186829,1,0
384,192,187017,1,8
320,192,187110,1,0
256,192,187204,1,8
192,192,187298,1,0
128,192,187392,1,8
256,304,187579,5,0
256,80,187767,1,8
256,304,187954,1,0
256,80,188142,1,8
256,304,188329,1,0
256,80,188517,1,8
384,192,188704,5,4
384,192,188892,1,8
128,192,189079,1,0
384,192,189267,1,8
128,192,189454,1,0
384,192,189642,1,8
128,192,189829,1,0
384,192,190017,5,8
320,192,190110,1,0
256,192,190204,1,8
192,192,190298,1,0
128,192,190392,1,8
256,80,190579,5,4
256,304,190767,1,0
256,80,190954,1,0
256,304,191142,1,0
256,80,191329,1,4
256,304,191517,1,0
384,192,191704,2,4,B|480:192,2,90
344,192,192079,6,8,B|160:192,4,180
256,288,193017,6,4,B|256:160,1,90
256,96,193298,2,4,B|256:224,1,90
216,192,193579,2,8,B|32:192,2,180
216,192,194142,2,4,B|496:192,1,270
432,280,194610,2,0,B|296:280,1,90,0|4
344,280,194892,1,4
256,280,195079,6,8,B|256:96,3,180
176,96,195829,2,4,L|80:96,1,90
86,96,196017,2,4,L|86:192,1,90
86,186,196204,1,4
86,186,196298,1,4
86,186,196392,1,4
104,80,196579,5,8
104,304,196767,1,8
256,304,196954,1,8
256,80,197142,1,8
416,80,197329,1,8
408,304,197517,1,8
304,192,197704,2,4,B|200:192,2,90
368,192,198079,5,8
432,192,198173,1,0
432,256,198267,1,0
432,320,198360,1,0
368,320,198454,1,8
304,320,198548,1,0
240,320,198642,1,0
176,320,198735,1,0
112,320,198829,1,8
48,320,198923,1,0
48,256,199017,1,0
48,192,199110,1,0
112,192,199204,1,8
176,192,199298,1,0
240,192,199392,1,4
368,192,199579,5,8
432,192,199673,1,0
432,128,199767,1,0
432,64,199860,1,0
368,64,199954,1,8
304,64,200048,1,0
240,64,200142,1,0
176,64,200235,1,0
112,64,200329,1,8
48,64,200423,1,0
48,128,200517,1,0
48,192,200610,1,0
112,192,200704,1,8
176,192,200798,1,0
240,192,200892,1,4
256,192,201079,12,0,203517
72,192,203892,5,8
160,80,204079,1,0
256,192,204267,1,8
184,312,204454,1,0
328,312,204642,1,8
384,176,204829,1,0
256,104,205017,6,8,B|256:200,4,90
128,40,205579,6,0,B|32:40|32:168,1,180,0|8
160,96,205954,2,0,B|64:96|64:232,1,180,0|8
184,144,206329,2,0,B|88:144|88:272,1,180,0|8
208,192,206704,1,4
184,48,206892,6,0,B|256:120|344:32,1,180,8|0
208,96,207267,2,0,B|280:168|368:80,1,180,8|0
232,144,207642,2,0,B|304:216|392:128,1,180,8|0
256,192,208017,6,8,B|256:288,4,90
256,336,208579,6,0,B|208:336|208:216|104:320,1,180,0|8
256,288,208954,2,0,B|304:288|304:168|416:280,1,180,0|8
256,264,209329,2,0,B|256:216|192:216|264:144|264:88,1,180,0|8
263,92,209704,6,4,B|296:128|344:80,2,90
160,192,210079,5,4
160,192,210267,1,0
256,304,210454,1,4
256,304,210642,1,0
344,192,210829,1,4
344,192,211017,1,0
256,88,211204,5,4
256,88,211298,1,4
256,88,211392,1,4
120,48,211579,6,0,B|120:144|248:16,1,180,0|8
384,56,211954,2,0,B|288:56|416:184,1,180,0|8
392,320,212329,2,0,B|392:224|264:352,1,180,0|8
128,328,212704,2,0,B|224:328|96:200,1,180,0|8
256,192,212985,12,4,215892
