osu file format v9

[General]
AudioFilename: Demetori - Lunar Clock ~ Luna Dial.mp3
AudioLeadIn: 1500
PreviewTime: 82770
Countdown: 1
SampleSet: Normal
StackLeniency: 0.7
Mode: 0
LetterboxInBreaks: 0
AlwaysShowPlayfield: 1
SkinPreference:Default

[Editor]
DistanceSpacing: 1.2
BeatDivisor: 4
GridSize: 4

[Metadata]
Title:Lunar Clock ~ Luna Dial
Artist:Demetori
Creator:Dragvon
Version:Timeless
Source:Touhou
Tags:izayoi sakuya metal

[Difficulty]
HPDrainRate:8
CircleSize:5
OverallDifficulty:8
ApproachRate:8
SliderMultiplier:1.8
SliderTickRate:1

[Events]
//Background and Video events
0,0,"Kiss_me.jpg"
//Break Periods
2,3282,14520
2,49782,59520
2,132470,133770
2,148220,150270
2,169595,171895
//Storyboard Layer 0 (Background)
//Storyboard Layer 1 (Fail)
//Storyboard Layer 2 (Pass)
//Storyboard Layer 3 (Foreground)
//Storyboard Sound Samples
//Background Colour Transformations
3,100,163,162,255

[TimingPoints]
270,375,4,1,1,80,1,0
27270,-200,4,1,1,80,0,0
28770,-100,4,1,1,80,0,0
82770,-100,4,1,1,80,0,1
106770,-100,4,1,1,80,0,0
132270,-100,4,1,1,5,0,0
132363,-100,4,1,1,80,0,0
179895,-100,4,1,1,80,0,1
203707,-100,4,1,1,80,0,0
203895,-100,4,1,1,80,0,1
227895,-100,4,1,1,80,0,0

[Colours]
Combo1 : 45,45,255
Combo2 : 224,224,224
Combo3 : 255,0,0
SliderBorder : 0,0,0
SliderTrackOverride : 75,75,75

[HitObjects]
464,48,270,2,0,B|460:160|336:152,1,180
252,96,832,2,0,B|228:200|328:248,1,180
428,260,1395,1,0
408,308,1488,1,0
364,340,1582,1,0
308,340,1676,1,0
260,316,1770,1,0
244,264,1863,1,0
272,216,1957,1,0
324,204,2051,1,0
364,244,2145,5,4
372,296,2238,1,0
328,328,2332,1,0
276,332,2426,1,0
224,328,2520,2,0,B|132:260|124:168,1,180
124,76,3082,1,4
64,48,15270,5,0
64,48,15457,1,0
152,108,15645,1,8
152,108,15832,1,0
64,172,16020,1,0
64,172,16207,1,0
152,244,16395,1,8
152,244,16582,1,0
204,340,16770,5,0
312,340,16957,1,0
360,244,17145,2,0,B|252:244,1,90,8|0
160,244,17520,2,0,B|272:244,1,90,8|0
256,136,17895,2,0,B|256:28,1,90,8|4
448,48,18270,5,0
448,48,18457,1,0
360,108,18645,1,8
360,108,18832,1,0
448,172,19020,1,0
448,172,19207,1,0
360,244,19395,1,8
360,244,19582,1,0
308,340,19770,5,0
200,340,19957,1,0
132,256,20145,5,8
108,208,20238,1,0
104,152,20332,1,0
120,100,20426,1,0
160,64,20520,1,8
212,48,20613,1,0
268,48,20707,1,0
320,64,20801,1,0
360,100,20895,1,8
376,152,20988,1,0
372,208,21082,1,0
348,256,21176,1,0
296,276,21270,5,4
296,276,21457,1,0
188,276,21645,1,8
188,276,21832,1,0
188,276,22020,1,0
188,276,22207,1,0
44,192,22395,1,8
44,192,22582,1,0
44,192,22770,1,0
44,192,22957,1,0
192,64,23145,6,0,B|312:64,1,90,8|0
340,152,23520,2,0,B|340:56,1,90,8|0
488,64,23895,2,0,B|368:64,1,90,8|0
460,152,24270,5,0
460,260,24457,1,0
344,352,24645,1,8
236,356,24832,1,0
152,288,25020,1,0
108,188,25207,1,0
168,60,25395,1,8
168,60,25582,1,0
276,60,25770,5,0
304,60,25863,1,0
304,84,25957,1,0
332,84,26051,1,0
332,120,26145,1,0
360,120,26238,1,0
360,148,26332,1,0
388,148,26426,1,0
388,176,26520,5,0
360,176,26613,1,0
360,204,26707,1,0
332,204,26801,1,0
332,232,26895,1,0
304,232,26988,1,0
304,260,27082,1,0
276,260,27176,1,0
248,264,27270,6,0,B|132:260|132:88|244:88,1,270
256,304,28770,5,0
352,256,28957,1,0
352,256,29051,1,0
352,256,29145,1,8
424,176,29332,2,0,B|420:108|352:52|308:48,1,180
204,52,29895,5,8
124,124,30082,1,0
208,192,30270,1,0
124,256,30457,1,0
124,256,30551,1,0
124,256,30645,1,8
256,336,30832,1,0
256,56,31207,5,0
364,56,31395,1,8
472,56,31582,2,0,B|472:144,1,90,0|8
256,356,32332,1,8
52,60,32895,1,8
448,60,33270,1,12
196,192,33645,5,0
316,192,33832,1,8
208,336,34207,1,0
256,360,34301,1,0
304,336,34395,1,8
256,192,34582,1,0
256,84,34770,1,8
68,192,35145,1,0
176,192,35332,1,8
392,192,35707,1,0
444,288,35895,5,8
444,288,35988,1,0
444,288,36082,1,0
320,192,36270,1,8
256,316,36457,1,8
256,316,36551,1,0
256,316,36645,1,0
256,188,36832,1,8
104,292,37020,5,8
104,292,37113,1,0
104,292,37207,1,0
60,192,37395,1,8
60,192,37488,1,0
60,192,37582,1,0
256,188,37770,5,8
104,72,37957,1,8
104,72,38051,1,0
104,72,38145,1,0
256,188,38332,1,0
256,32,38520,1,8
256,32,38613,1,0
256,32,38707,1,0
396,72,38895,5,0
396,72,39082,2,0,B|448:100|452:140|448:212|376:224,1,180
292,236,39645,2,0,B|292:288,2,45,8|0|0
172,152,40020,1,0
172,152,40207,1,0
56,68,40395,2,0,B|56:16,2,45,8|0|0
56,192,40770,5,0
120,276,40957,1,0
240,344,41145,2,0,B|292:344,2,45,8|0|0
252,236,41520,1,0
336,168,41707,1,0
456,164,41895,2,0,B|500:164,2,45,8|0|0
456,272,42270,6,0,B|340:280|296:148,1,180,8|0
228,80,42832,2,0,B|132:42|65:141,1,180,8|0
32,232,43395,1,8
52,280,43488,1,0
100,304,43582,1,0
152,312,43676,1,0
208,312,43770,2,0,B|288:316|344:248|316:168,1,180,12|0
228,152,44332,5,8
204,144,44426,1,0
192,120,44520,1,0
240,24,44707,1,0
348,36,44895,1,8
376,44,44988,1,0
388,68,45082,1,0
492,36,45270,1,8
468,44,45363,1,0
456,68,45457,1,0
424,172,45645,5,0
424,280,45832,2,0,B|424:348,2,45,8|0|0
316,280,46207,1,0
220,232,46395,2,8,B|220:184,2,45,8|0|0
164,324,46770,6,0,B|76:308|48:212|72:172,1,180,8|0
64,84,47332,2,0,B|72:16|200:16|200:100,1,180,8|0
200,232,47895,2,0,B|208:300|336:300|336:216,1,180,8|0
336,84,48457,2,0,B|344:16|472:16|472:100,1,180,8|0
476,192,49020,1,8
40,192,49395,1,8
120,328,49582,1,12
256,192,60270,12,4,61770
256,192,62145,5,8
256,84,62332,1,0
468,40,62707,1,0
384,108,62895,1,8
264,16,63082,1,0
136,108,63270,1,0
64,312,63645,5,8
220,312,63832,1,0
420,228,64207,1,0
392,124,64395,1,8
288,100,64582,1,0
144,192,64770,1,0
376,192,65145,5,8
256,192,65332,1,0
88,60,65707,1,0
232,56,65895,1,8
160,148,66082,1,0
160,176,66176,1,0
160,204,66270,1,8
360,288,66645,5,8
428,204,66832,2,0,B|456:156|476:72|364:32,1,180
336,136,67395,2,8,B|372:192|364:232|280:256|248:152,2,180,8|0|8
244,80,68332,1,0
60,192,68707,1,0
60,300,68895,5,8
60,300,68988,1,0
60,300,69082,1,0
160,344,69270,1,8
260,300,69457,1,8
260,300,69551,1,0
260,300,69645,1,0
408,300,69832,1,8
500,192,70020,5,8
500,192,70113,1,0
500,192,70207,1,0
408,136,70395,1,8
408,136,70488,1,0
408,136,70582,1,0
256,192,70770,5,8
72,192,70957,1,8
72,192,71051,1,0
72,192,71145,1,0
72,60,71332,1,0
232,60,71520,1,8
232,60,71613,1,0
232,60,71707,1,0
152,136,71895,5,0
152,244,72082,2,0,B|180:296|220:300|292:296|304:224,1,180
320,140,72645,1,8
340,120,72738,1,0
368,120,72832,1,0
484,192,73020,1,0
484,192,73207,1,0
380,292,73395,1,8
360,312,73488,1,0
332,312,73582,1,0
224,160,73770,5,0
224,160,73957,1,0
84,156,74145,2,0,B|32:156,2,45,8|0|0
152,240,74520,1,0
84,324,74707,1,0
224,324,74895,2,0,B|268:324,2,45,8|0|0
332,320,75270,6,0,B|340:204|208:160,1,180,8|0
176,92,75832,2,0,B|272:54|339:153,1,180,8|0
376,244,76395,1,8
396,260,76488,1,0
376,280,76582,1,0
396,300,76676,1,0
376,320,76770,2,0,B|296:324|240:256|268:176,1,180,12|0
256,104,77332,5,8
248,80,77426,1,0
224,68,77520,1,0
80,68,77707,1,0
80,224,77895,2,0,B|32:224,2,45,8|0|0
188,224,78270,2,0,B|232:224,2,45,8|0|0
136,324,78645,5,0
264,324,78832,1,8
292,324,78926,1,0
320,324,79020,1,0
448,220,79207,1,0
320,116,79395,1,8
292,116,79489,1,0
264,116,79583,1,0
372,120,79770,6,0,B|356:208|260:236|220:212,1,180,8|0
116,220,80332,2,0,B|24:220,2,90,8|0|0
176,108,80895,2,0,B|176:16,2,90,8|0|0
68,156,81457,2,0,B|76:224|204:224|204:140,1,180,8|0
316,76,82020,2,8,B|324:8|452:8|452:92,2,180,8|8|8
436,140,82957,5,0
456,264,83145,1,2
344,320,83332,1,0
236,252,83520,1,8
128,316,83707,1,0
44,224,83895,1,8
44,192,83988,1,0
44,160,84082,1,0
44,128,84176,1,0
44,96,84270,5,8
148,168,84457,1,0
252,96,84645,1,2
364,40,84832,1,0
468,112,85020,1,8
468,236,85207,1,0
360,332,85395,1,8
360,332,85488,1,0
360,332,85582,1,0
256,276,85770,5,8
160,192,85957,1,0
256,108,86145,1,2
160,24,86332,1,0
256,108,86520,1,8
160,192,86707,1,0
256,276,86895,1,8
236,300,86988,1,0
216,276,87082,1,0
196,300,87176,1,0
172,276,87270,5,8
76,192,87457,1,0
204,192,87645,1,2
328,192,87832,1,0
412,64,88020,5,10
412,64,88113,1,0
412,64,88207,1,0
480,192,88395,1,2
480,192,88488,1,0
480,192,88582,1,0
412,328,88770,5,8
288,328,88957,1,0
256,192,89145,1,2
116,252,89332,1,0
116,124,89520,1,8
256,192,89707,1,0
256,64,89895,1,8
288,64,89988,1,0
320,64,90082,1,0
352,64,90176,1,0
384,64,90270,5,8
460,164,90457,1,0
356,236,90645,1,2
464,304,90832,1,0
356,236,91020,1,8
256,304,91207,1,0
256,192,91395,1,8
256,192,91488,1,0
256,192,91582,1,0
256,192,91676,1,0
256,192,91770,5,8
256,68,91957,1,0
132,44,92145,1,2
40,128,92332,1,0
40,256,92520,1,8
144,328,92707,1,0
272,328,92895,2,0,B|320:328,1,45,8|0
320,296,93082,2,0,B|384:296,1,45
368,264,93270,5,8
472,192,93457,1,0
472,64,93645,1,2
472,192,93832,1,0
472,316,94020,1,10
472,316,94113,1,0
472,316,94207,1,0
344,316,94395,1,10
344,316,94488,1,0
344,316,94582,1,0
256,192,94770,6,0,B|256:136|328:136,1,90,8|0
256,192,95145,2,0,B|256:248|184:248,1,90,2|0
256,192,95520,2,0,B|312:192|312:264,1,90,8|0
256,192,95895,1,10
232,176,95988,1,0
212,152,96082,1,0
208,120,96176,1,0
224,92,96270,1,8
340,40,96457,5,0
340,168,96645,1,2
464,168,96832,1,0
340,168,97020,1,8
340,292,97207,1,2
340,292,97300,1,0
212,292,97488,1,2
212,292,97582,1,0
132,196,97770,6,0,B|68:124,1,90,8|0
152,28,98145,2,0,B|256:28,1,90,2|0
316,132,98520,2,0,B|252:204,1,90,8|0
192,308,98895,1,10
192,308,98988,1,0
192,308,99082,1,0
192,308,99176,1,0
128,308,99270,6,0,B|128:252|56:252,1,90,10|0
128,140,99645,2,0,B|128:196|56:196,1,90,2|0
192,228,100020,2,0,B|248:228|304:228,1,90,10|0
408,228,100395,1,8
440,228,100489,1,0
472,228,100583,1,0
440,228,100677,1,0
408,228,100770,1,8
280,228,100958,5,0
188,144,101145,1,2
280,48,101333,1,0
156,52,101520,1,8
64,140,101708,1,2
64,140,101802,1,0
156,228,101989,1,2
156,228,102083,1,0
40,276,102270,6,0,B|60:336|120:344,1,90,8|0
224,352,102645,2,0,B|268:368|328:348,1,90,2|0
420,284,103020,2,0,B|480:260|484:204,1,90,8|0
480,96,103395,1,10
480,96,103489,1,0
480,96,103583,1,0
480,96,103677,1,0
480,96,103770,5,10
380,60,103957,1,0
268,140,104145,1,2
152,88,104332,1,0
64,176,104520,1,8
100,276,104707,1,0
200,316,104895,2,0,B|248:316,4,45,10|0|0|0|8
200,208,105457,5,0
228,104,105645,1,0
312,36,105832,1,0
420,40,106020,1,8
476,132,106207,1,0
448,236,106395,1,0
436,256,106488,1,0
420,276,106582,1,0
396,292,106676,1,0
372,300,106770,5,8
344,300,106863,1,0
316,296,106957,1,0
292,284,107051,1,0
280,260,107145,1,0
284,232,107238,1,0
296,208,107332,5,8
324,180,107426,1,0
336,140,107520,1,0
336,100,107613,1,0
308,72,107707,1,0
272,52,107801,1,0
224,52,107895,6,0,B|176:52,3,45,8|0|0|0
176,100,108270,2,0,B|128:100,3,45,8|0|0|0
112,120,108645,5,0
104,144,108738,1,0
104,172,108832,1,8
108,200,108926,1,0
120,228,109020,1,0
140,248,109113,1,0
164,260,109207,1,0
192,264,109301,1,0
220,260,109395,5,8
240,244,109488,1,0
264,216,109582,1,0
292,192,109676,1,0
328,180,109770,5,8
360,192,109863,1,0
384,220,109957,1,0
404,252,110051,1,0
400,288,110145,1,0
380,316,110238,1,0
348,336,110332,5,8
312,340,110426,1,0
276,340,110520,1,0
240,340,110613,1,0
204,336,110707,1,0
172,324,110801,1,0
148,296,110895,6,0,B|100:296,3,45,8|0|0|0
116,264,111270,2,0,B|68:264,3,45,8|0|0|0
116,228,111645,6,0,B|68:192,1,45,0|8
116,192,111833,2,0,B|96:152,1,45
132,152,112020,2,0,B|112:104,1,45
140,120,112207,2,0,B|140:68,1,45
184,56,112395,6,0,B|336:40|388:72,1,180,8|0
416,96,112863,1,0
436,160,112957,1,0
432,252,113145,1,8
364,312,113332,2,0,B|324:344,2,45
276,288,113707,5,0
188,312,113895,2,0,B|228:344,2,45,8|0|0
220,228,114270,2,0,B|180:260,2,45,8|0|0
256,144,114645,5,0
188,84,114832,2,0,B|148:116,2,45,8|0|0
256,24,115207,1,0
324,84,115395,2,0,B|364:116,2,45,8|0|0
256,144,115770,2,0,B|256:192,2,45,8|0|0
164,148,116145,5,0
88,196,116332,2,0,B|48:228,2,45,8|0|0
164,244,116707,1,0
116,320,116895,2,0,B|76:352,2,45,8|0|0
208,320,117270,2,0,B|248:352,2,45,8|0|0
256,244,117645,5,0
256,156,117832,2,0,B|256:108,2,45,8|0|0
348,156,118207,1,0
440,156,118395,2,0,B|440:204,2,45,8|0|0
384,84,118770,5,8
356,84,118863,1,0
328,88,118957,1,0
304,100,119051,1,0
292,124,119145,1,0
296,152,119238,1,0
308,176,119332,5,8
336,204,119426,1,0
348,244,119520,1,0
348,284,119613,1,0
320,312,119707,1,0
284,332,119801,1,0
236,332,119895,6,0,B|188:332,3,45,8|0|0|0
188,284,120270,2,0,B|140:284,3,45,8|0|0|0
140,256,120645,5,0
132,232,120738,1,0
128,204,120832,1,8
128,184,120926,1,0
132,156,121020,1,0
152,136,121113,1,0
176,124,121207,1,0
204,120,121301,1,0
232,124,121395,5,8
252,140,121488,1,0
276,168,121582,1,0
304,192,121676,1,0
340,204,121770,5,8
372,192,121863,1,0
396,164,121957,1,0
416,132,122051,1,0
412,96,122145,1,0
392,68,122238,1,0
360,48,122332,5,8
324,44,122426,1,0
288,44,122520,1,0
252,44,122613,1,0
216,48,122707,1,0
184,60,122801,1,0
160,88,122895,6,0,B|112:88,3,45,8|0|0|0
128,120,123270,2,0,B|80:120,3,45,8|0|0|0
128,156,123645,6,0,B|80:192,1,45,0|8
128,192,123833,2,0,B|108:232,1,45
144,232,124020,2,0,B|124:284,1,45
160,256,124208,2,0,B|160:308,1,45
192,312,124395,6,0,B|344:328|396:296,1,180,8|0
416,276,124863,1,0
448,224,124957,1,0
444,132,125145,1,0
388,60,125332,1,8
388,60,125426,1,0
388,60,125520,1,0
300,60,125707,5,0
212,72,125895,2,0,B|172:40,2,45,8|0|0
124,96,126270,2,0,B|164:128,2,45,8|0|0
80,176,126645,5,0
124,252,126832,1,8
124,252,126926,1,0
124,252,127020,1,0
200,304,127207,1,0
256,232,127395,2,0,B|256:184,2,45,8|0|0
312,304,127770,2,0,B|368:304,2,45,8|0|0
360,228,128145,5,0
444,192,128332,1,8
444,192,128426,1,0
444,192,128520,1,0
444,104,128707,1,0
364,60,128895,5,8
364,60,128988,1,0
364,60,129082,1,0
364,60,129176,1,0
228,60,129457,5,8
228,60,129551,1,0
228,60,129645,1,0
228,60,129738,1,0
116,140,130020,6,0,B|64:140,3,45,8|0|0|0
116,140,130395,2,0,B|160:140,3,45
116,144,130770,2,0,B|116:196,3,45
116,144,131145,2,0,B|116:100,3,45
116,144,131520,6,0,B|216:148|179:225|179:225|120:316|284:344|336:280,1,360,12|0
404,84,134520,6,0,B|440:52,2,45
404,192,134895,2,0,B|464:192,2,45
404,300,135270,2,0,B|440:332,2,45
256,340,135645,2,0,B|256:400,2,45
108,300,136020,6,0,B|72:332,2,45
108,192,136395,2,0,B|48:192,2,45
108,84,136770,2,0,B|72:52,2,45
256,44,137145,2,0,B|256:-16,2,45
256,152,137520,6,0,B|252:224|312:300|376:288,1,180
460,288,138082,1,0
488,240,138176,1,0
460,192,138270,2,0,B|376:136|276:192,1,180
200,248,138832,1,0
108,192,139020,6,0,B|52:192,1,45
112,168,139207,2,0,B|60:148,1,45
124,144,139395,2,0,B|88:104,1,45
144,132,139582,2,0,B|140:80,1,45
172,132,139770,6,0,B|172:88,1,45
196,144,139957,2,0,B|232:104,1,45
220,168,140145,2,0,B|272:148,1,45
232,192,140332,2,0,B|288:192,1,45
332,196,140520,6,0,B|428:196,1,90
420,88,140895,2,0,B|320:88,1,90
220,88,141270,2,0,B|92:88,1,90
132,196,141645,2,0,B|228:196,1,90
256,300,142020,5,0
256,300,142207,1,0
340,232,142395,1,0
340,232,142582,1,0
424,300,142770,1,0
424,300,142863,1,0
424,300,142957,1,0
424,300,143051,1,0
424,244,143145,6,0,B|424:196,3,45
428,144,143520,2,0,B|448:88|428:60|428:60|388:36|312:60,2,180
228,56,144645,2,0,B|144:116,1,90
84,192,145020,5,0
172,256,145207,2,0,B|172:304,4,45
212,220,145676,2,0,B|212:172,4,45
248,260,146145,2,0,B|248:308,4,45
300,264,146613,6,0,B|360:264,1,45
396,248,146801,2,0,B|452:192,1,45
436,164,146988,2,0,B|436:112,1,45
408,72,147176,2,0,B|356:48,1,45
296,44,147395,5,0
188,60,147520,1,0
116,132,147645,1,0
124,216,147770,1,0
176,284,147895,1,0
236,308,148020,1,4
256,36,151020,5,4
416,316,151582,1,4
92,316,152145,1,4
256,60,152895,1,4
152,288,153270,5,8
84,204,153457,2,0,B|56:156|36:72|148:32,1,180
176,136,154020,2,8,B|140:192|148:232|232:256|264:152,2,180,8|0|8
268,80,154957,1,0
452,192,155332,1,0
452,300,155520,5,8
452,300,155613,1,0
452,300,155707,1,0
352,344,155895,1,8
252,300,156082,1,8
252,300,156176,1,0
252,300,156270,1,0
104,300,156457,1,8
12,192,156645,5,8
12,192,156738,1,0
12,192,156832,1,0
104,136,157020,1,8
104,136,157113,1,0
104,136,157207,1,0
256,192,157395,5,8
440,192,157582,1,8
440,192,157676,1,0
440,192,157770,1,0
440,60,157957,1,0
280,60,158145,1,8
280,60,158238,1,0
280,60,158332,1,0
360,136,158520,5,0
360,244,158707,2,0,B|332:296|292:300|220:296|208:224,1,180
192,140,159270,1,8
172,120,159363,1,0
144,120,159457,1,0
28,192,159645,1,0
28,192,159832,1,0
132,292,160020,1,8
152,312,160113,1,0
180,312,160207,1,0
288,160,160395,5,0
288,160,160582,1,0
428,156,160770,2,0,B|480:156,2,45,8|0|0
360,240,161145,1,0
428,324,161332,1,0
288,324,161520,2,0,B|244:324,2,45,8|0|0
180,320,161895,6,0,B|172:204|304:160,1,180,8|0
336,92,162457,2,0,B|240:54|173:153,1,180,8|0
136,244,163020,1,8
116,260,163113,1,0
136,280,163207,1,0
116,300,163301,1,0
136,320,163395,2,0,B|216:324|272:256|244:176,1,180,12|0
256,104,163957,5,8
264,80,164051,1,0
288,68,164145,1,0
432,68,164332,1,0
432,224,164520,2,0,B|480:224,2,45,8|0|0
324,224,164895,2,0,B|280:224,2,45,8|0|0
376,324,165270,5,0
248,324,165457,1,8
220,324,165551,1,0
192,324,165645,1,0
64,220,165832,1,0
192,116,166020,1,8
220,116,166114,1,0
248,116,166208,1,0
140,120,166395,6,0,B|156:208|252:236|292:212,1,180,8|0
396,220,166957,2,0,B|488:220,2,90,8|0|0
336,108,167520,2,0,B|336:16,2,90,8|0|0
444,156,168082,2,0,B|436:224|308:224|308:140,1,180,8|0
196,76,168645,2,8,B|188:8|60:8|60:92,2,180,8|8|8
212,80,172645,5,0
304,80,172895,1,0
132,192,173145,1,0
380,192,173395,1,0
216,304,173645,1,0
312,304,173895,1,0
256,96,174270,5,8
348,40,174457,2,0,B|396:24|424:68|424:68|400:120|336:96,1,180
168,40,175020,2,8,B|120:24|92:68|92:68|116:120|180:96,2,180,8|0|8
256,96,175957,1,0
256,312,176332,1,0
148,312,176520,5,8
148,312,176613,1,0
148,312,176707,1,0
148,204,176895,1,8
148,96,177082,1,8
148,96,177176,1,0
148,96,177270,1,0
148,204,177457,1,8
256,204,177645,5,8
256,204,177738,1,0
256,204,177832,1,0
36,204,178020,1,8
36,204,178113,1,0
36,204,178207,1,0
52,96,178395,5,8
144,40,178582,1,8
144,40,178676,1,0
144,40,178770,1,0
236,96,178957,1,0
328,40,179145,1,8
328,40,179238,1,0
328,40,179332,1,0
420,100,179520,2,0,B|472:128|476:168|472:240|400:252,1,180
320,212,180082,5,0
256,124,180270,1,2
196,212,180457,1,0
256,304,180645,1,8
256,196,180832,1,0
180,116,181020,1,8
152,116,181113,1,0
128,132,181207,1,0
112,152,181301,1,0
104,176,181395,5,8
144,276,181582,1,0
212,192,181770,1,2
144,108,181957,1,0
80,196,182145,1,8
108,328,182332,1,0
212,352,182520,1,8
212,352,182613,1,0
212,352,182707,1,0
320,352,182895,5,8
428,352,183082,1,0
428,244,183270,1,2
320,240,183457,1,0
320,132,183645,1,8
428,132,183832,1,0
344,64,184020,1,8
324,40,184113,1,0
304,64,184207,1,0
284,40,184301,1,0
260,64,184395,5,8
152,64,184582,1,0
80,144,184770,1,2
108,248,184957,1,0
196,308,185145,5,10
196,308,185238,1,0
196,308,185332,1,0
52,308,185520,1,2
52,308,185613,1,0
52,308,185707,1,0
196,308,185895,5,8
280,240,186082,1,0
196,168,186270,1,2
280,104,186457,1,0
196,36,186645,1,8
112,104,186832,1,0
196,168,187020,1,8
220,180,187113,1,0
248,180,187207,1,0
272,172,187301,1,0
292,156,187395,5,8
360,44,187582,1,0
448,108,187770,1,2
436,216,187957,1,0
360,292,188145,1,8
256,304,188332,1,0
256,192,188520,1,8
256,192,188613,1,0
256,192,188707,1,0
256,192,188801,1,0
256,192,188895,5,8
256,68,189082,1,0
380,44,189270,1,2
472,128,189457,1,0
472,256,189645,1,8
368,328,189832,1,0
240,328,190020,2,0,B|192:328,1,45,8|0
192,296,190207,2,0,B|128:296,1,45
144,264,190395,5,8
40,192,190582,1,0
40,64,190770,1,2
40,192,190957,1,0
40,316,191145,1,10
40,316,191238,1,0
40,316,191332,1,0
168,316,191520,1,10
168,316,191613,1,0
168,316,191707,1,0
256,192,191895,6,0,B|256:136|184:136,1,90,8|0
256,192,192270,2,0,B|256:248|328:248,1,90,2|0
256,192,192645,2,0,B|200:192|200:264,1,90,8|0
256,192,193020,1,10
280,176,193113,1,0
300,152,193207,1,0
304,120,193301,1,0
288,92,193395,1,8
172,40,193582,5,0
172,168,193770,1,2
48,168,193957,1,0
172,168,194145,1,8
172,292,194332,1,2
172,292,194425,1,0
300,292,194613,1,2
300,292,194707,1,0
408,292,194895,6,0,B|408:188,1,90,8|0
480,120,195270,2,0,B|480:16,1,90,2|0
372,32,195645,2,0,B|372:140,1,90,8|0
372,232,196020,1,10
372,232,196113,1,0
372,232,196207,1,0
372,232,196301,1,0
316,232,196395,6,0,B|260:232|260:160,1,90,10|0
256,284,196770,2,0,B|200:284|200:212,1,90,2|0
188,332,197145,2,0,B|132:332|132:260,1,90,2|0
72,184,197520,1,8
64,160,197614,1,0
64,124,197708,1,0
96,108,197802,1,0
128,120,197895,1,8
208,232,198083,5,0
256,328,198270,1,2
304,232,198458,1,0
352,328,198645,1,8
400,232,198833,1,2
400,232,198927,1,0
304,140,199113,1,2
304,140,199208,1,0
212,192,199395,6,0,B|192:252|132:260,1,90,8|0
212,192,199770,2,0,B|256:208|316:188,1,90,2|0
208,192,200145,2,0,B|200:127|147:109,1,90,8|0
88,192,200520,1,10
88,192,200614,1,0
88,192,200708,1,0
88,192,200802,1,0
88,192,200895,5,10
92,84,201082,1,0
188,32,201270,1,2
288,76,201457,1,0
288,184,201645,1,8
220,268,201832,1,0
148,348,202020,2,0,B|100:348,4,45,10|0|0|0|8
256,348,202582,5,0
364,328,202770,1,0
424,240,202957,1,0
428,132,203145,1,8
372,40,203332,1,0
264,40,203520,1,0
244,52,203613,1,0
224,68,203707,1,0
208,92,203801,1,0
200,120,203895,1,8
76,140,204081,5,0
56,264,204269,1,2
168,320,204456,1,0
276,252,204644,1,8
384,316,204831,1,0
468,224,205019,1,8
452,196,205113,1,0
468,168,205206,1,0
452,140,205300,1,0
464,108,205394,5,8
364,168,205581,1,0
272,108,205769,1,2
180,168,205956,1,0
92,108,206144,1,8
4,172,206331,1,0
92,236,206519,1,8
92,236,206613,1,0
92,236,206706,1,0
36,328,206894,5,8
92,236,207081,1,0
148,328,207269,1,2
92,236,207456,1,0
36,144,207644,1,8
144,144,207831,1,0
52,48,208019,1,8
72,72,208113,1,0
92,48,208206,1,0
112,72,208300,1,0
136,48,208394,5,8
240,28,208581,1,0
344,52,208769,1,2
240,84,208956,1,0
136,112,209144,5,10
136,112,209238,1,0
136,112,209331,1,0
240,140,209519,1,2
240,140,209613,1,0
240,140,209706,1,0
344,172,209894,5,8
240,208,210081,1,0
320,284,210269,1,2
292,180,210456,1,0
248,280,210644,1,8
356,268,210831,1,0
444,208,211019,1,8
444,176,211113,1,0
444,144,211206,1,0
444,112,211300,1,0
444,80,211394,5,8
348,32,211581,1,0
256,92,211769,1,2
168,32,211956,1,0
76,88,212144,1,8
168,144,212331,1,0
256,192,212519,1,8
256,192,212613,1,0
256,192,212706,1,0
256,192,212800,1,0
256,192,212894,5,8
256,68,213081,1,0
380,44,213269,1,2
472,128,213456,1,0
472,256,213644,1,8
368,328,213831,1,0
240,328,214019,2,0,B|192:328,1,45,8|0
192,296,214206,2,0,B|128:296,1,45
144,264,214394,5,8
228,196,214581,1,0
256,92,214769,1,2
276,196,214956,1,0
360,264,215144,1,10
360,264,215238,1,0
360,264,215331,1,0
440,192,215519,1,10
440,192,215613,1,0
440,192,215706,1,0
440,84,215894,6,0,B|440:28|368:28,1,90,8|0
272,28,216269,2,0,B|216:28|216:100,1,90,2|0
220,192,216644,2,0,B|220:248|292:248,1,90,8|0
388,248,217019,1,10
412,232,217113,1,0
432,208,217206,1,0
436,176,217300,1,0
420,148,217394,1,8
340,76,217581,5,0
256,148,217769,1,2
176,76,217956,1,0
256,148,218144,1,8
256,256,218331,1,2
256,256,218425,1,0
148,256,218613,1,2
148,256,218706,1,0
208,164,218894,6,0,B|272:236,1,90,8|0
188,332,219269,2,0,B|84:332,1,90,2|0
24,228,219644,2,0,B|88:156,1,90,8|0
148,52,220019,1,10
148,52,220113,1,0
148,52,220206,1,0
148,52,220300,1,0
204,52,220394,6,0,B|260:52|260:124,1,90,10|0
152,112,220769,2,0,B|152:168|224:168,1,90,2|0
320,168,221144,2,0,B|376:168|432:168,1,90,10|0
472,256,221519,1,8
472,288,221613,1,0
472,320,221706,1,0
472,288,221800,1,0
472,256,221894,1,8
468,148,222081,5,0
312,148,222269,1,2
168,148,222456,1,0
40,148,222644,1,8
108,232,222831,1,2
108,232,222925,1,0
248,232,223113,1,2
248,232,223206,1,0
356,236,223394,6,0,B|416:216|424:156,1,90,8|0
416,68,223769,2,0,B|372:52|312:72,1,90,2|0
256,148,224144,2,0,B|196:124|192:68,1,90,8|0
96,40,224519,1,10
96,40,224613,1,0
96,40,224706,1,0
96,40,224800,1,0
96,40,224894,5,10
56,140,225081,1,0
112,232,225269,1,2
188,156,225456,1,0
256,72,225644,1,8
324,156,225831,1,0
404,228,226019,2,0,B|452:228,4,45,10|0|0|0|8
328,308,226581,5,0
224,336,226769,1,0
132,276,226956,1,0
104,172,227144,1,8
144,72,227331,1,0
244,32,227519,1,0
267,33,227613,1,0
291,38,227706,1,0
317,53,227800,1,0
352,96,227895,6,0,B|352:144,2,45,8|0|0
352,204,228270,1,0
352,312,228457,2,0,B|352:264,2,45,8|0|0
412,204,228832,2,0,B|492:204,2,45,8|0|8
304,204,229207,1,0
196,204,229395,6,0,B|244:204,2,45,8|0|0
128,120,229770,1,0
60,204,229957,2,0,B|12:204,2,45,8|0|0
128,288,230332,2,0,B|128:368,2,45,8|0|8
128,204,230707,1,0
128,96,230895,5,8
136,72,230988,1,0
156,52,231082,1,0
184,48,231176,1,0
212,52,231270,5,0
228,72,231363,1,0
240,96,231457,1,8
256,116,231551,1,0
280,100,231645,5,8
284,72,231738,1,0
304,52,231832,1,0
328,44,231926,1,0
356,48,232020,5,8
376,64,232113,1,0
380,92,232207,1,0
376,120,232301,1,0
364,144,232395,5,0
352,168,232488,1,0
340,192,232582,1,8
328,216,232676,1,0
256,192,232770,12,4,233801
