osu file format v9

[General]
AudioFilename: Demetori - Lunar Clock ~ Luna Dial.mp3
AudioLeadIn: 1500
PreviewTime: 82770
Countdown: 1
SampleSet: Normal
StackLeniency: 0.7
Mode: 0
LetterboxInBreaks: 0
AlwaysShowPlayfield: 1
SkinPreference:Default

[Editor]
DistanceSpacing: 1.2
BeatDivisor: 4
GridSize: 4

[Metadata]
Title:Lunar Clock ~ Luna Dial
Artist:Demetori
Creator:Dragvon
Version:Plenty of Time
Source:Touhou
Tags:izayoi sakuya metal

[Difficulty]
HPDrainRate:5
CircleSize:4
OverallDifficulty:5
ApproachRate:8
SliderMultiplier:1.6
SliderTickRate:1

[Events]
//Background and Video events
0,0,"Kiss_me.jpg"
//Break Periods
2,3282,14520
2,49782,59520
2,106970,118020
2,132470,133770
2,148220,150270
2,169594,171895
2,180095,191145
2,228095,232020
//Storyboard Layer 0 (Background)
//Storyboard Layer 1 (Fail)
//Storyboard Layer 2 (Pass)
//Storyboard Layer 3 (Foreground)
//Storyboard Sound Samples
//Background Colour Transformations
3,100,163,162,255

[TimingPoints]
270,375,4,1,1,80,1,0
27270,-200,4,1,1,80,0,0
28770,-100,4,1,1,80,0,0
82770,-100,4,1,1,80,0,1
106770,-100,4,1,1,80,0,0
132270,-100,4,1,1,5,0,0
132363,-100,4,1,1,80,0,0
179895,-100,4,1,1,80,0,1
203707,-100,4,1,1,80,0,0
203895,-100,4,1,1,80,0,1
227895,-100,4,1,1,80,0,0

[Colours]
Combo1 : 45,45,255
Combo2 : 224,224,224
Combo3 : 255,0,0
SliderBorder : 0,0,0
SliderTrackOverride : 75,75,75

[HitObjects]
64,48,270,2,0,B|112:32|76:144|208:128,1,160
184,48,832,2,0,B|236:48|288:72|292:100|288:144,1,160
368,140,1395,6,0,B|444:140|444:136,2,40
368,180,1676,2,0,B|428:180,2,40
368,220,1957,2,0,B|428:220,2,40
368,260,2238,2,0,B|428:260,2,40
368,300,2520,6,0,B|324:336|252:336|220:300,1,160
156,252,3082,1,4
64,48,15270,5,0
64,48,15457,1,0
144,48,15645,2,0,B|228:48,1,80,8|0
304,48,16020,1,0
304,48,16207,1,0
384,48,16395,2,0,B|468:48,1,80,8|0
464,128,16770,5,0
464,128,16957,1,0
384,128,17145,2,0,B|304:208,1,80,8|0
328,264,17520,2,0,B|440:264,1,80,8|0
408,344,17895,2,0,B|300:344,1,80,8|4
248,344,18270,5,0
248,344,18457,1,0
168,344,18645,2,0,B|144:308|144:308|168:280,1,80,8|0
248,264,19020,1,0
248,264,19207,1,0
328,264,19395,2,0,B|352:228|352:228|328:200,1,80,8|0
248,184,19770,5,0
248,104,19957,1,0
296,40,20145,2,0,B|348:40,3,40,8|0|0|0
376,40,20520,2,0,B|428:40,3,40,8|0|0|0
456,44,20895,2,0,B|456:96,3,40,8|0|0|0
456,144,21270,5,4
376,144,21457,2,0,B|292:144,2,80,0|8|0
376,224,22020,1,0
376,304,22207,2,0,B|460:304,2,80,0|8|0
296,304,22770,5,0
296,304,22957,1,0
216,304,23145,2,0,B|216:196,1,80,8|0
148,268,23520,2,0,B|148:172,1,80,8|0
88,240,23895,2,0,B|88:124,1,80,8|0
84,80,24270,5,0
148,32,24457,1,0
228,32,24645,1,8
292,80,24832,1,0
296,152,25020,1,0
352,212,25207,1,0
432,212,25395,1,8
484,152,25582,1,0
484,72,25770,6,0,B|484:16,7,40
444,36,26520,6,0,B|388:36,7,40
384,36,27270,6,0,B|268:36|324:184|188:156,1,240
44,192,28770,5,0
44,272,28957,1,0
44,272,29145,1,8
100,328,29332,2,0,B|168:324|224:256|224:228,1,160
248,160,29895,5,8
328,160,30082,1,0
248,160,30270,1,0
328,160,30457,1,0
400,192,30645,1,8
456,248,30832,6,0,B|444:300|376:328|324:312,1,160
248,300,31395,1,8
172,272,31582,2,0,B|144:220|176:192,1,80,0|8
380,80,32332,1,8
140,80,32895,1,8
380,80,33270,5,12
492,192,33645,1,0
492,192,33832,1,8
408,328,34207,1,0
348,276,34395,1,8
288,328,34582,1,0
224,276,34770,1,8
68,192,35145,1,0
68,192,35332,1,8
156,56,35707,1,0
236,56,35895,1,8
236,56,35988,1,0
236,56,36082,1,0
316,56,36270,5,8
428,56,36457,1,8
344,132,36645,1,0
456,132,36832,1,8
344,132,37020,5,8
408,224,37207,1,0
296,224,37395,1,8
336,328,37582,1,0
296,224,37770,5,8
252,328,37957,1,8
212,224,38145,1,0
168,328,38332,1,0
212,224,38520,1,8
100,224,38707,1,0
40,128,38895,5,0
92,68,39082,2,0,B|136:29|175:40|241:69|228:128,1,160
256,172,39645,2,0,B|256:224,2,45,8|0|0
304,120,40020,2,0,B|388:120,1,80
436,172,40395,2,0,B|436:224,2,45,8|0|0
424,88,40770,6,0,B|344:88,1,80
256,56,41145,2,0,B|256:4,2,45,8|0|0
200,100,41520,1,0
200,100,41707,1,0
132,144,41895,2,0,B|88:144,2,45,8|0|0
204,144,42270,6,0,B|312:120|340:240,1,160,8|0
284,296,42832,2,0,B|176:320|148:200,1,160,8|0
92,188,43395,1,8
92,188,43488,1,0
92,188,43582,1,0
92,188,43676,1,0
92,188,43770,2,0,B|88:108|156:52|204:72,1,160,12|0
260,72,44332,5,8
320,128,44520,1,0
396,100,44707,1,0
400,180,44895,1,8
476,204,45082,1,0
436,272,45270,1,8
368,312,45457,5,0
288,312,45645,1,0
208,312,45832,2,0,B|140:312,2,45,8|0|0
208,240,46207,1,0
128,236,46395,2,8,B|128:188,2,45,8|0|0
128,308,46770,6,0,B|216:308|216:308|252:220,1,160,8|0
324,240,47332,2,0,B|412:240|412:240|448:152,1,160,8|0
440,92,47895,2,0,B|436:52|304:52|304:92,1,160,8|0
236,132,48457,2,0,B|240:172|372:172|372:132,1,160,8|0
304,88,49020,1,8
220,44,49207,1,0
304,88,49395,1,8
220,44,49582,1,12
256,192,60270,12,4,61770
256,48,62145,5,8
256,48,62332,2,0,B|256:220,1,160
184,248,62895,1,8
256,280,63082,1,0
332,248,63270,2,0,B|364:204|364:204|432:204|432:204|432:152|432:152,1,160,0|8
432,88,63832,5,0
280,40,64207,1,0
200,40,64395,1,8
280,40,64582,1,0
200,40,64770,2,8,B|140:40|140:40|116:72|116:72|116:140|116:140,1,160,0|8
116,212,65332,6,8,B|116:272|116:272|148:296|148:296|216:296|216:296,1,160,0|0
288,296,65895,1,8
368,296,66082,1,0
396,296,66176,1,0
424,296,66270,1,8
392,140,66645,5,8
336,84,66832,2,0,B|288:56|288:56|236:56|236:56|184:88,1,160
128,132,67395,2,8,B|72:196|72:196|152:196|152:196,2,160,8|0|8
244,80,68332,1,0
404,84,68707,5,0
452,148,68895,1,8
452,148,68988,1,0
452,148,69082,1,0
388,196,69270,1,8
388,196,69457,1,8
388,292,69645,2,0,B|280:292,1,80,0|8
212,292,70020,5,8
212,292,70207,1,0
152,216,70395,2,0,B|112:148,2,80,8|0|0
248,216,70957,2,0,B|288:148,2,80,8|0|0
204,132,71520,5,8
204,132,71707,1,0
260,52,71895,1,0
352,32,72082,2,0,B|404:60|408:100|404:172|340:184,1,160
312,244,72645,5,8
312,244,72832,1,0
256,324,73020,2,0,B|172:324,1,80
112,252,73395,2,0,B|212:252,1,80,8|0
256,180,73770,2,0,B|172:180,1,80
116,104,74145,6,0,B|216:104,1,80,8|0
256,28,74520,1,0
352,28,74707,1,0
416,100,74895,2,0,B|416:200,1,80,8|0
368,264,75270,6,0,B|316:368|207:342,1,160,8|0
148,340,75832,2,0,B|110:244|144:168,1,160,8|0
176,96,76395,1,8
268,72,76582,1,0
332,144,76770,2,0,B|336:224|268:280|212:256,1,160,12|0
180,192,77332,5,8
116,120,77520,1,0
160,36,77707,1,0
256,40,77895,2,0,B|360:40,1,80,8|0
388,120,78270,2,0,B|388:32,1,80,8|0
444,120,78645,5,0
380,192,78832,1,8
448,260,79020,1,0
380,324,79207,1,0
284,324,79395,1,8
256,232,79583,1,0
260,136,79770,6,0,B|348:152|376:248|360:276,1,160,8|0
432,312,80332,2,0,B|404:340|404:340|356:296,2,80,8|0|0
480,228,80895,2,0,B|480:140,2,80,8|0|0
392,264,81457,2,0,B|331:295|259:189|317:145,1,160,8|0
304,76,82020,2,8,B|312:24|372:20|372:20|416:96,2,160,8|8|8
236,144,82957,5,0
164,80,83145,1,2
92,140,83332,1,0
164,204,83520,1,8
236,144,83707,1,0
308,208,83895,2,0,B|348:208,4,40,8|0|0|0|8
404,208,84457,5,0
404,112,84645,1,2
328,52,84832,1,0
252,112,85020,1,8
176,52,85207,1,0
100,112,85395,1,8
100,112,85582,1,8
100,112,85770,1,8
44,192,85957,5,0
104,268,86145,1,2
196,296,86332,1,0
292,296,86520,1,8
380,260,86707,1,0
448,188,86895,2,0,B|448:148,4,40,8|0|0|0|8
404,104,87457,5,0
324,52,87645,1,2
244,104,87832,1,0
160,56,88020,1,10
160,56,88113,1,0
160,56,88207,1,0
80,108,88395,2,0,B|40:108,2,40,2|0|0
124,192,88770,5,8
180,268,88957,1,0
240,192,89145,1,2
180,116,89332,1,0
120,192,89520,1,8
180,268,89707,1,0
240,192,89895,2,0,B|280:192,4,40,8|0|0|0|8
336,192,90457,5,0
396,268,90645,1,2
456,192,90832,1,0
396,116,91020,1,8
336,192,91207,1,0
396,268,91395,1,8
396,268,91582,1,8
400,268,91770,1,8
320,320,91957,5,0
256,248,92145,1,2
196,324,92332,1,0
140,248,92520,1,8
80,324,92707,1,0
24,248,92895,2,0,B|24:208,4,40,8|0|0|0|8
104,192,93457,5,0
108,96,93645,1,2
192,48,93832,1,0
288,44,94020,2,0,B|288:128,1,80,10|0
360,188,94395,2,0,B|360:104,1,80,10|0
428,40,94770,6,0,B|480:40|480:112,3,80,8|0|2|0
484,188,95520,2,0,B|484:244|412:244,1,90,8|0
340,244,95895,1,10
340,244,96082,1,8
340,244,96270,1,8
256,192,96457,5,0
256,96,96645,1,2
180,40,96832,1,0
104,100,97020,1,8
72,188,97207,2,0,B|116:188,1,40,2|0
96,284,97488,2,0,B|127:252,1,40,2|0
188,184,97770,6,0,B|260:120,1,90,8|0
284,204,98145,2,0,B|388:204,1,90,2|0
452,236,98520,2,0,B|388:308,1,90,8|0
308,308,98895,1,10
308,308,98988,1,0
308,308,99082,1,0
308,308,99176,1,0
308,308,99270,6,0,B|252:308|252:240,1,80,10|0
240,164,99645,2,0,B|184:164|184:232,1,80,2|0
172,308,100020,2,0,B|116:308|116:244,1,80,10|0
116,164,100395,1,8
116,164,100583,1,8
116,164,100770,1,8
212,160,100958,5,0
308,156,101145,1,2
260,72,101333,1,0
164,72,101520,1,8
68,72,101707,2,0,B|24:72,1,40,2|0
68,160,101988,2,0,B|36:191,1,40,2|0
72,280,102270,6,0,B|80:324|80:324|144:324,1,80,8|0
212,324,102645,2,0,B|232:296|232:296|212:252,1,80,2|0
124,216,103020,2,0,B|104:188|104:188|124:144,1,80,8|0
188,76,103395,1,10
188,76,103583,1,8
188,76,103770,1,10
256,144,103957,5,0
256,240,104145,1,2
340,288,104332,1,0
424,240,104520,1,8
424,144,104707,1,0
336,100,104895,2,0,B|336:56,4,40,10|0|0|0|8
336,196,105457,5,0
256,252,105645,1,2
180,196,105832,1,0
92,156,106020,1,8
8,200,106207,1,0
36,292,106395,1,8
60,292,106488,1,0
84,292,106582,1,0
108,292,106676,1,0
132,292,106770,1,12
72,64,118770,5,8
72,64,118863,1,0
72,64,118957,1,0
132,120,119145,1,0
68,168,119332,1,8
68,168,119426,1,0
68,168,119520,1,0
68,248,119707,5,0
68,248,119801,1,0
68,248,119895,2,0,B|112:248,3,40,8|0|0|0
148,248,120270,2,0,B|192:248,4,40,8|0|0|0|0
152,328,120832,5,8
152,328,120926,1,0
152,328,121020,1,0
232,328,121207,1,0
312,328,121395,1,8
312,328,121488,1,0
312,328,121582,1,0
372,272,121770,6,0,B|420:272,2,40,8|0|0
368,192,122145,1,0
368,112,122332,2,0,B|320:112,2,40,8|0|0
336,36,122707,5,0
336,36,122801,1,0
336,36,122895,2,0,B|288:36,3,40,8|0|0|0
256,40,123270,2,0,B|216:40,4,40,8|0|0|0|0
256,80,123738,6,0,B|256:128,3,40,0|8|0|0
256,160,124113,2,0,B|304:160,2,40
216,160,124395,6,0,B|108:160|108:280,1,160,8|0
108,256,124863,1,0
108,256,124957,1,0
164,312,125145,1,0
244,312,125332,2,0,B|244:352,2,40,8|0|0
244,232,125707,5,0
256,152,125895,2,0,B|216:120,2,45,8|0|0
328,152,126270,2,0,B|360:112,2,45,8|0|0
328,232,126645,5,0
388,284,126832,1,8
388,284,126926,1,0
388,284,127020,1,0
448,232,127207,1,0
448,152,127395,2,0,B|448:104,2,45,8|0|0
376,152,127770,2,0,B|320:152,2,45,8|0|0
376,80,128145,5,0
300,52,128332,1,8
300,52,128426,1,0
300,52,128520,1,0
228,84,128707,1,0
128,84,128895,6,0,B|88:84,3,40,8|0|0|0
92,204,129457,2,0,B|132:204,3,40,8|0|0|0
164,320,130020,6,0,B|116:320,3,40,8|0|0|0
164,316,130395,2,0,B|164:272,3,40
204,276,130770,6,0,B|256:276,3,40
204,280,131145,2,0,B|204:240,3,40
164,248,131520,6,0,B|264:244|227:167|227:167|168:76|340:64|344:88,1,320,12|0
404,84,134520,6,0,B|432:56,2,40
336,76,134895,2,0,B|336:24,2,40
268,88,135270,2,0,B|232:64,2,40
244,152,135645,2,0,B|184:152,2,40
268,220,136020,6,0,B|232:252,2,40
332,248,136395,2,0,B|332:304,2,40
396,216,136770,2,0,B|428:244,2,40
428,152,137145,2,0,B|484:152,2,40
424,80,137520,6,0,B|352:76|276:136|288:188,1,160
260,228,138082,1,0
260,228,138176,1,0
260,228,138270,2,0,B|159:216|122:112,1,160
140,60,138832,1,0
104,132,139020,6,0,B|56:132,2,40
104,172,139301,2,0,B|156:172,2,40
104,212,139582,2,0,B|56:212,2,40
104,252,139863,2,0,B|156:252,2,40
104,292,140145,2,0,B|56:292,2,40
176,324,140520,6,0,B|268:324,1,80
336,324,140895,2,0,B|336:240,1,80
336,164,141270,2,0,B|448:164,1,80
496,168,141645,2,0,B|496:84,1,80
424,52,142020,6,0,B|392:28|392:28|360:56,1,80
308,116,142395,2,0,B|276:140|276:140|244:112,1,80
196,52,142770,1,0
196,52,142863,1,0
196,52,142957,1,0
196,52,143051,1,0
196,52,143145,6,0,B|196:96,3,40
156,100,143520,2,0,B|136:156|156:184|156:184|196:208|264:184,2,160
308,48,144645,2,0,B|368:56|368:132,2,80
260,112,145207,6,0,B|260:156,4,40
220,112,145676,2,0,B|220:64,4,40
180,116,146145,2,0,B|180:160,4,40
140,112,146613,6,0,B|140:164,1,40
140,152,146801,2,0,B|144:216,1,40
144,192,146988,2,0,B|144:240,1,40
144,232,147176,2,0,B|196:256,1,45
232,252,147395,5,0
284,252,147520,1,0
328,220,147645,1,0
344,168,147770,1,0
344,168,147895,1,0
344,168,148020,1,4
256,100,151020,6,4,B|296:172|296:172|216:200|216:200|252:268|252:268,2,240,4|4|4
40,192,152895,1,4
144,316,153270,5,8
216,284,153457,2,0,B|264:312|264:312|288:264|288:264|368:264,1,160
420,260,154020,2,8,B|456:204|448:164|448:164|360:164,2,160,8|0|8
380,328,154957,1,0
220,332,155332,1,0
160,280,155520,1,8
160,280,155613,1,0
160,280,155707,1,0
120,192,155895,5,8
164,108,156082,1,8
260,108,156270,1,0
164,108,156457,1,8
228,36,156645,5,8
324,36,156832,1,0
388,108,157020,1,8
292,108,157207,1,8
256,196,157395,5,0
208,280,157582,1,8
304,280,157770,1,0
256,364,157957,1,0
160,364,158145,1,8
160,364,158332,1,0
104,288,158520,5,0
104,288,158707,2,0,B|87:231|112:200|166:152|217:191,1,160,12|0
260,240,159270,1,8
280,260,159363,1,0
308,260,159457,1,0
380,220,159645,1,0
380,220,159832,1,0
404,144,160020,1,8
393,117,160113,1,0
367,106,160207,1,0
316,168,160395,5,0
316,168,160582,1,0
256,116,160770,2,0,B|204:116,2,40,8|0|0
256,196,161145,1,0
256,196,161332,1,0
256,276,161520,2,0,B|296:276,2,40,8|0|0
256,356,161895,6,0,B|140:364|112:268,1,160,8|0
200,272,162457,2,0,B|296:310|360:220,1,160,8|0
312,164,163020,1,8
292,148,163113,1,0
312,128,163207,1,0
292,108,163301,1,0
312,88,163395,2,0,B|392:84|448:152|424:212,1,160,12|0
432,256,163957,5,8
424,280,164051,1,0
400,292,164145,1,0
324,320,164332,1,0
244,320,164520,2,0,B|200:320,2,40,8|0|0
244,240,164895,2,0,B|288:240,2,40,8|0|0
164,240,165270,5,0
136,164,165457,1,8
108,164,165551,1,0
80,164,165645,1,0
68,84,165832,1,0
148,84,166020,1,8
176,84,166114,1,0
204,84,166208,1,0
140,120,166395,6,0,B|156:208|252:236|276:224,1,160,8|0
328,224,166957,2,0,B|440:224,2,80,8|0|0
336,304,167520,2,0,B|248:304,2,80,8|0|0
416,304,168082,2,0,B|488:304|488:304|484:232|420:224,1,160,8|0
388,176,168645,2,8,B|340:144|340:144|336:76|400:76,2,160
96,68,172645,6,0,B|140:40|140:40|208:40,1,106.666666666667
196,148,173145,2,0,B|248:148|248:148|324:112,1,106.666666666667
388,68,173645,2,0,B|440:68|440:68|440:128,1,106.666666666667,0|4
440,284,174270,5,8
368,316,174457,2,0,B|308:336|308:336|308:224|308:224,1,160
308,160,175020,2,8,B|276:104|276:104|201:188|201:188,2,160,8|0|8
348,228,175957,1,0
448,104,176332,1,0
380,64,176520,1,8
380,64,176613,1,0
380,64,176707,1,0
312,104,176895,5,8
256,180,177082,1,8
200,104,177270,1,0
312,104,177457,1,8
256,180,177645,5,8
204,264,177832,1,0
300,264,178020,1,8
252,180,178207,1,0
200,104,178395,5,8
136,28,178582,1,8
76,104,178770,1,0
140,176,178957,1,0
204,248,179145,1,8
140,320,179332,1,0
232,344,179520,2,0,B|286:365|320:343|372:293|340:237,1,160
460,96,191895,6,0,B|460:40|388:40,1,90,8|0
316,44,192270,2,0,B|260:44|260:116,1,90,2|0
260,188,192645,2,0,B|260:244|188:244,1,90,8|0
116,240,193020,1,10
116,240,193113,1,0
116,240,193207,1,0
116,240,193301,1,0
116,240,193395,1,8
88,164,193582,5,0
116,88,193770,1,2
196,92,193957,1,0
232,164,194145,1,8
232,244,194332,1,2
232,244,194425,1,0
312,244,194613,1,2
312,244,194707,1,0
392,244,194895,6,0,B|392:156,1,80,8|0
312,168,195270,2,0,B|312:72,1,80,2|0
232,100,195645,2,0,B|232:4,1,80,8|0
160,60,196020,1,10
160,60,196113,1,0
160,60,196207,1,0
160,60,196301,1,0
160,60,196395,6,0,B|160:116|160:164,1,80,10|0
236,164,196770,2,0,B|236:220|164:220,1,90,2|0
180,304,197145,2,0,B|180:360|252:360,1,90,10|0
248,288,197520,1,8
316,288,197708,1,8
364,224,197895,1,8
444,224,198083,5,0
444,144,198270,1,2
444,224,198458,1,0
444,144,198645,1,8
404,76,198833,1,2
404,76,198926,1,0
316,52,199113,1,2
316,52,199208,1,0
236,52,199395,6,0,B|176:72|168:132,1,90,8|0
164,180,199770,2,0,B|120:196|60:176,1,90,2|0
44,120,200145,2,0,B|52:55|104:40,1,80,8|0
160,44,200520,1,10
236,76,200708,1,8
204,148,200895,5,10
124,200,201082,1,0
96,292,201270,1,2
180,340,201457,1,0
272,316,201645,1,8
316,232,201832,1,0
316,136,202020,2,0,B|316:88,4,40,10|0|0|0|8
316,232,202582,5,0
364,316,202770,1,2
432,248,202957,1,0
440,152,203145,1,8
396,68,203332,1,0
304,44,203520,1,8
284,56,203613,1,0
264,72,203707,1,0
248,96,203801,1,0
240,124,203895,1,12
256,216,204081,5,0
160,216,204269,1,2
256,216,204456,1,0
160,216,204644,1,8
256,216,204831,1,0
160,216,205019,1,8
132,232,205113,1,0
104,216,205206,1,0
76,228,205300,1,0
44,220,205394,5,8
44,124,205581,1,0
116,60,205769,1,2
208,92,205956,1,0
296,56,206144,1,8
384,92,206331,1,0
384,188,206519,1,8
480,188,206706,1,8
384,188,206894,1,8
296,228,207081,5,0
236,300,207269,1,2
168,368,207456,1,0
100,300,207644,1,8
36,228,207831,1,0
124,192,208019,1,8
144,216,208113,1,0
164,192,208206,1,0
184,216,208300,1,0
208,192,208394,5,8
256,108,208581,1,0
344,68,208769,1,2
440,64,208956,1,0
444,160,209145,6,0,B|488:160,2,40,10|0|0
444,256,209520,2,0,B|400:256,2,40,2|0|0
444,352,209894,5,8
348,352,210081,1,0
348,256,210269,1,2
348,352,210456,1,0
252,352,210644,1,8
252,256,210831,1,0
252,352,211019,1,8
156,336,211206,1,8
96,260,211394,1,8
28,192,211581,5,0
124,192,211769,1,2
124,96,211956,1,0
124,192,212144,1,8
220,192,212331,1,0
220,96,212519,1,8
220,96,212613,1,0
220,96,212706,1,0
220,96,212800,1,0
220,96,212894,5,8
300,44,213081,1,0
396,44,213269,1,2
460,116,213456,1,0
464,212,213644,1,8
396,280,213831,1,0
300,284,214020,1,8
236,212,214207,1,8
280,128,214394,5,8
376,128,214581,1,0
416,216,214769,1,2
332,260,214956,1,0
236,248,215144,1,10
236,248,215238,1,0
236,248,215331,1,0
172,176,215519,1,10
172,176,215613,1,0
172,176,215706,1,0
65,192,215894,6,0,B|65:248|135:250,1,80,8|0
189,304,216269,2,0,B|189:248|123:248,1,80,2|0
67,310,216644,2,0,B|122:318|133:247,1,90,8|0
155,180,217019,1,10
193,92,217206,1,8
286,69,217394,1,8
366,120,217581,5,0
411,204,217769,1,2
315,204,217956,1,0
363,287,218144,1,8
280,336,218332,2,0,B|239:336,1,40,2|0
163,277,218613,2,0,B|122:277,1,40,2|0
69,197,218894,6,0,B|132:136,1,80,8|0
222,132,219270,2,0,B|124:131,1,80,2|0
66,72,219644,2,0,B|132:135,1,80,8|0
168,212,220019,1,10
168,212,220113,1,0
168,212,220206,1,0
168,212,220300,1,0
168,212,220394,6,8,B|216:240|252:176,1,80,10|0
192,112,220769,2,0,B|192:168|260:168,1,80,2|0
284,80,221145,2,0,B|235:108|269:166,1,80,10|0
316,224,221519,1,8
388,284,221706,1,8
464,224,221894,1,8
388,164,222081,5,0
292,164,222269,1,2
292,68,222456,1,0
388,72,222644,1,8
388,168,222832,2,0,B|347:168,1,40,2|0
264,120,223113,2,0,B|223:120,1,40,2|0
148,64,223394,6,0,B|108:64|108:64|84:96,1,80,8|0
72,192,223769,2,0,B|108:212|108:212|148:184,1,80,2|0
204,120,224144,2,0,B|228:60|280:60,1,80,8|0
352,56,224519,1,10
352,56,224706,1,8
352,56,224894,1,10
428,116,225081,5,0
448,208,225269,1,2
384,276,225456,1,0
296,232,225644,1,8
212,276,225831,1,0
128,232,226019,2,0,B|84:232,4,40,10|0|0|0|8
216,192,226581,5,0
312,192,226769,1,2
376,120,226956,1,0
344,28,227144,1,8
248,28,227331,1,0
152,32,227519,1,8
129,33,227613,1,0
105,38,227706,1,0
79,53,227800,1,0
57,69,227895,1,4
256,192,232770,12,4,233801
