osu file format v6

[General]
AudioFilename: 04..mp3
AudioLeadIn: 1941
PreviewTime: 34726
Countdown: 3
SampleSet: Normal
StackLeniency: 0.7
Mode: 0
LetterboxInBreaks: 1

[Editor]
Bookmarks: 37163
DistanceSpacing: 0.800000011920929
BeatDivisor: 2
GridSize: 8

[Metadata]
Title:Love Coloured Master Spark
Artist:Demetori
Creator:fartownik
Version:Easy
Source:Touhou
Tags:Touhou Marisa Kirisame

[Difficulty]
HPDrainRate:4
CircleSize:3
OverallDifficulty:4
SliderMultiplier:0.7
SliderTickRate:1

[Events]
//Background and Video events
0,0,"Minitokyo.Touhou.Scans_386193.jpg"
//Break Periods
2,52763,56166
//Storyboard Layer 0 (Background)
//Storyboard Layer 1 (Fail)
//Storyboard Layer 2 (Pass)
//Storyboard Layer 3 (Foreground)
//Storyboard Sound Samples
//Background Colour Transformations
3,100,163,162,255

[TimingPoints]
871,307.692307692308,4,1,0,50,1,0

[Colours]
Combo1 : 103,224,31
Combo2 : 244,98,0
Combo3 : 0,184,204
Combo4 : 30,19,130

[HitObjects]
64,160,871,1,4
256,48,2101,1,0
448,168,3332,1,4
256,288,4563,1,0
256,64,5794,5,4
256,176,6409,1,0
256,288,7024,2,0,B|384:288,3,70
384,288,8255,5,4
384,176,8871,1,0
384,64,9486,2,0,B|288:64,3,70
256,64,10717,5,4
200,160,11332,1,0
256,256,11947,1,0
256,256,12255,1,0
256,256,12563,2,0,B|312:208|368:328|416:200,1,140,0|4
392,136,13794,5,0
296,80,14409,1,0
296,80,14717,1,0
296,80,15024,2,0,B|240:32|184:152|136:24,1,140,0|8
160,184,16255,5,8
272,184,16871,2,0,B|336:128|400:192,2,140,4|4|8
272,296,18717,5,8
160,296,19332,2,0,B|96:240|32:304,2,140,4|0|8
168,184,21178,5,8
280,184,21794,2,0,B|344:248|424:168,2,140,4|0|8
232,152,23332,5,4
136,88,23947,1,4
136,200,24563,1,4
232,264,25178,5,2
232,264,25486,1,0
344,144,26409,1,2
344,144,26717,1,0
408,296,27640,1,0
360,264,27947,1,2
272,192,28563,5,8
160,168,29178,1,8
48,192,29794,1,4
160,216,30409,6,2,B|224:272|88:288|184:344,1,140,2|4
280,336,31640,2,2,B|344:280|208:264|304:208,1,140,2|4
400,224,32870,2,2,B|464:280|328:296|424:352,1,140,2|2
464,344,33794,5,2
464,224,34409,1,4
464,112,35024,1,4
408,112,35332,6,0,L|368:24|320:128|264:24|224:120,1,420,8|4
224,216,37794,5,4
336,232,38409,2,0,L|224:312|104:224,1,280,8|4
184,144,40255,6,0,B|216:112|256:152,1,70,0|0
248,200,40871,2,2,B|280:232|320:192,1,70
312,144,41486,2,0,B|352:144,2,35
304,88,42101,2,2,B|256:88,2,35
360,88,42717,6,0,B|456:88|464:208,1,140,4|8
360,224,43947,2,0,B|264:224|256:344,1,140,4|8
152,304,45178,6,0,L|120:280|152:256|120:232|152:208|120:184|152:160|120:136|120:136,1,280,4|4
232,136,47024,1,8
336,176,47640,6,0,L|408:144,1,70,0|0
392,200,48255,2,2,L|464:216,1,70
432,264,48871,2,0,L|480:312,2,35
376,288,49486,2,2,L|336:240,2,35
328,320,50101,6,0,L|288:272,1,35,4|4
256,224,50717,2,4,L|280:256,1,35
256,192,51178,12,4,52563
256,296,57486,5,4
256,184,58101,1,0
256,72,58717,2,0,L|312:40|400:40,2,140,4|0|4
176,152,60563,5,0
128,248,61178,2,0,L|192:280|280:280,2,140,4|0|4
128,128,63024,5,8
240,128,63640,2,0,B|304:72|368:136,2,140,4|4|8
240,240,65486,5,8
128,240,66101,2,0,B|64:184|0:248,2,140,4|0|8
136,128,67947,5,8
248,128,68563,2,0,B|312:192|392:112,2,140,4|0|8
200,96,70101,5,4
104,32,70717,1,4
104,144,71332,1,4
200,200,71947,5,4
248,224,72255,1,4
416,240,73178,1,4
360,256,73486,1,0
360,88,74409,6,0,L|288:72,1,70,4|0
232,64,75024,1,2
176,160,75640,1,2
288,160,76255,1,4
232,256,76871,5,4
288,272,77178,1,4
344,256,77486,2,0,B|440:232|392:128|392:128,1,140,0|4
384,88,78409,5,4
344,48,78717,2,0,B|240:-8|256:112|256:112,1,140,0|4
272,152,79640,5,4
232,224,80101,2,0,B|168:232,1,35,0|8
184,176,80563,2,0,B|232:168,2,35,0|8|0
208,120,81178,2,0,B|152:128,6,35,0|8|0|8|0|8|0
296,192,82717,6,0,B|344:192,2,35,2|0|2
296,248,83332,6,0,B|256:280|200:280|144:232,1,140,8|8
160,136,84563,2,0,B|200:104|256:104|312:152,1,140,4|4
400,136,85794,6,8,B|496:16|432:152|432:152,1,140
384,256,87024,2,4,B|288:376|352:240|352:240,1,140
256,192,88255,6,2,B|168:152,1,70
192,216,88871,2,0,B|128:256,1,70
128,200,89486,2,0,B|80:184,2,35
88,240,90101,2,2,B|56:256,2,35
88,296,90717,5,4
200,312,91332,1,4
304,264,91947,1,4
192,232,92563,1,2
272,152,93178,6,0,B|200:96|120:152,3,140,8|8|4|4
216,56,95640,1,4
408,160,96871,1,4
248,320,98101,5,4
200,216,98717,1,4
280,136,99332,5,4
280,136,99640,1,0
280,136,99947,1,4
280,136,100255,1,0
