osu file format v14

[General]
AudioFilename: 08 Counter-Clock World.mp3
AudioLeadIn: 3000
PreviewTime: 231582
Countdown: 1
SampleSet: Normal
StackLeniency: 0.2
Mode: 0
LetterboxInBreaks: 1
WidescreenStoryboard: 1

[Editor]
DistanceSpacing: 1
BeatDivisor: 4
GridSize: 8
TimelineZoom: 1.9

[Metadata]
Title:Kuuchuu ni Shizumu Kishinjou ~ Counter-Clock World
TitleUnicode:空中に沈む輝針城 ~ Counter-Clock World
Artist:Demetori
ArtistUnicode:Demetori
Creator:nooblet
Version:Stage 5
Source:東方Project
Tags:東方輝針城 ~ Double Dealing Characterthe shining needle castle sinking in the air seija kijin 鬼人 正邪
BeatmapID:1006304
BeatmapSetID:455326

[Difficulty]
HPDrainRate:5
CircleSize:4
OverallDifficulty:9
ApproachRate:9.3
SliderMultiplier:1.6
SliderTickRate:1

[Events]
//Background and Video events
0,0,"Seija Kijin.jpg",0,0
//Break Periods
2,155242,164866
//Storyboard Layer 0 (Background)
//Storyboard Layer 1 (Fail)
//Storyboard Layer 2 (Pass)
//Storyboard Layer 3 (Foreground)
//Storyboard Sound Samples

[TimingPoints]
16,324.324324324324,4,1,1,50,1,0
16,-200,4,1,1,50,0,0
1799,-100,4,1,1,50,0,0
1961,324.324324324324,4,1,1,50,1,0
21258,-100,4,1,0,50,0,0
22717,-100,4,1,1,50,0,0
25312,-100,4,1,1,50,0,0
46069,-100,4,1,2,50,0,0
46393,-100,4,1,0,50,0,0
47366,-100,4,1,1,50,0,0
54015,-100,4,1,1,20,0,0
54177,-100,4,1,1,25,0,0
54339,-100,4,1,1,30,0,0
54501,-100,4,1,1,35,0,0
54663,-100,4,1,1,40,0,0
54825,-100,4,1,1,45,0,0
54988,-100,4,1,1,50,0,0
56285,-100,4,1,1,50,0,1
61474,-100,4,1,2,50,0,1
61798,-100,4,1,1,50,0,1
66988,-100,4,1,2,50,0,1
68771,-100,4,1,1,50,0,1
69582,-100,4,1,2,50,0,1
71042,-100,4,1,1,50,0,1
74447,-100,4,1,1,55,0,1
75744,-100,4,1,0,60,0,1
76555,-100,4,1,1,60,0,0
77042,-100,4,1,1,60,0,1
77204,-100,4,1,1,50,0,1
84825,-100,4,1,2,50,0,1
85150,-100,4,1,1,50,0,1
86123,-100,4,1,2,50,0,1
86447,-100,4,1,1,50,0,1
87582,-100,4,1,1,50,0,0
90177,-100,4,1,1,50,0,0
100555,-100,4,1,2,50,0,0
100879,-100,4,1,1,50,0,0
110285,-100,4,1,0,50,0,0
110933,-100,4,1,1,50,0,0
110933,-100,4,1,2,50,0,0
111258,-100,4,1,0,50,0,0
112231,-100,4,1,1,50,0,0
120015,-133.333333333333,4,1,1,50,0,0
121150,-100,4,1,1,50,0,1
126339,-100,4,1,2,50,0,1
126663,-100,4,1,1,50,0,1
127636,-100,4,1,2,50,0,1
127960,-100,4,1,1,50,0,1
131852,-100,4,1,2,50,0,1
133636,-100,4,1,1,50,0,1
134447,-100,4,1,2,50,0,1
136231,-100,4,1,1,50,0,1
139312,-100,4,1,1,55,0,1
140609,-100,4,1,0,60,0,1
141420,-100,4,1,1,60,0,0
141906,-100,4,1,1,60,0,1
142069,-100,4,1,1,50,0,1
152285,-133.333333333333,4,1,1,50,0,0
155042,-100,4,1,1,35,0,0
165420,-100,4,1,1,40,0,0
169636,-83.3333333333333,4,1,1,40,0,0
170609,-100,4,1,1,40,0,0
173366,-83.3333333333333,4,1,1,40,0,0
175474,-400,4,1,1,50,0,0
176933,-100,4,1,1,50,0,0
182123,-100,4,1,2,50,0,0
182609,-100,4,1,1,50,0,0
186015,-100,4,1,2,50,0,0
186339,-100,4,1,1,50,0,0
197852,-100,4,1,1,50,0,0
206285,-100,4,1,0,50,0,0
206609,-100,4,1,1,50,0,0
207420,-100,4,1,0,50,0,0
207501,-100,4,1,1,50,0,0
208231,-100,4,1,1,50,0,0
213420,-100,4,1,2,50,0,0
215366,-100,4,1,1,50,0,0
215690,-100,4,1,2,50,0,0
216501,-100,4,1,1,50,0,0
220123,-100,4,1,0,50,0,0
221204,-100,4,1,1,50,0,0
229150,-100,4,1,0,50,0,0
230285,-100,4,1,1,50,0,0
230933,-100,4,1,1,52,0,0
231096,-100,4,1,1,54,0,0
231258,-100,4,1,1,56,0,0
231420,-100,4,1,1,58,0,0
231582,324.324324324324,3,1,1,50,1,1
231582,-83.3333333333333,3,1,1,50,0,1
236446,-83.3333333333333,3,1,2,50,0,1
237419,-83.3333333333333,3,1,1,50,0,1
252014,-83.3333333333333,3,1,2,50,0,1
252338,-83.3333333333333,3,1,1,50,0,1
252987,-100,4,1,2,50,0,0
253960,-100,4,1,1,50,0,0
254771,-100,4,1,1,50,0,1
254933,324.324324324324,4,1,1,50,1,1
265473,-100,4,1,2,50,0,1
267257,-100,4,1,1,50,0,1
268068,-100,4,1,2,50,0,1
269527,-100,4,1,1,50,0,1
271635,-90.9090909090909,4,1,1,50,0,1
272933,-83.3333333333333,4,1,1,55,0,1
274230,-83.3333333333333,4,1,0,60,0,1
275203,-83.3333333333333,4,1,1,60,0,0
275527,-100,4,1,1,60,0,1
275689,-100,4,1,1,50,0,1
283311,-100,4,1,2,50,0,1
283797,-100,4,1,1,50,0,1
284770,-100,4,1,0,50,0,1
285905,-100,4,1,2,50,0,1
286392,-100,4,1,1,50,0,1
288500,-100,4,1,2,50,0,1
288662,-83.3333333333333,4,1,2,50,0,1
288987,-83.3333333333333,4,1,1,50,0,1
295149,-100,4,1,1,50,0,0
296446,-100,4,1,1,50,0,0
306662,-100,4,1,2,50,0,0
306987,-100,4,1,1,50,0,0
315905,-100,4,1,2,50,0,0
316230,-100,4,1,1,55,0,0
316554,-100,4,1,1,60,0,0

[Colours]
Combo1 : 0,0,255
Combo2 : 255,255,255
Combo3 : 155,4,255
Combo4 : 242,24,57

[HitObjects]
256,72,16,6,0,B|233:129|289:157|289:157|273:193|232:208|232:208|304:200|338:282|274:344|216:313,1,400,6|0,0:2|0:0,0:0:0:0:
216,313,1799,6,0,P|288:299|285:226,1,160,6|4,0:3|0:0,0:0:0:0:
186,158,2204,1,4,0:0:0:0:
186,158,2285,2,0,L|294:146,1,80,14|4,0:0|0:0,0:0:0:0:
388,264,2528,1,4,0:0:0:0:
388,264,2609,1,6,0:0:0:0:
338,106,2771,2,0,L|300:168,1,40,4|4,0:0|0:0,0:0:0:0:
262,234,2933,1,14,0:0:0:0:
428,180,3096,6,0,L|366:146,1,40,4|4,0:0|0:0,0:0:0:0:
242,78,3258,1,6,0:0:0:0:
314,314,3420,2,0,L|288:240,1,40,4|4,0:0|0:0,0:0:0:0:
252,92,3582,1,14,0:0:0:0:
186,230,3744,2,0,L|252:228,1,40,4|4,0:0|0:0,0:0:0:0:
334,184,3906,2,0,P|342:145|338:106,2,80,6|6|14,0:0|0:2|0:0,0:0:0:0:
350,195,4393,6,0,P|357:136|314:40,1,160,6|4,0:3|0:0,0:0:0:0:
208,32,4798,1,4,0:0:0:0:
208,32,4879,2,0,L|224:136,1,80,14|4,0:0|0:0,0:0:0:0:
272,244,5123,1,4,0:0:0:0:
272,244,5204,1,6,0:0:0:0:
104,172,5366,2,0,L|152:160,1,40,4|4,0:0|0:0,0:0:0:0:
256,132,5528,1,14,0:0:0:0:
88,176,5690,6,0,L|124:228,1,40,4|4,0:0|0:0,0:0:0:0:
204,296,5852,2,0,L|183:202,1,80,6|4,0:3|0:0,0:0:0:0:
164,108,6096,1,4,0:0:0:0:
164,108,6177,1,14,0:0:0:0:
72,216,6339,2,0,L|90:156,1,40,4|4,0:0|0:0,0:0:0:0:
129,37,6501,1,6,0:0:0:0:
232,252,6663,2,0,L|200:215,1,40,4|4,0:0|0:0,0:0:0:0:
106,107,6825,1,14,0:0:0:0:
77,296,6988,6,0,L|166:146,1,160,6|4,0:3|0:0,0:0:0:0:
198,89,7393,1,4,0:0:0:0:
198,89,7474,1,14,0:0:0:0:
312,224,7636,2,0,L|260:172,1,40,4|4,0:0|0:0,0:0:0:0:
200,112,7798,1,6,0:0:0:0:
228,308,7960,2,0,L|180:283,1,40,4|4,0:0|0:0,0:0:0:0:
40,208,8123,1,14,0:0:0:0:
243,274,8285,6,0,L|230:210,1,40,4|4,0:0|0:0,0:0:0:0:
196,68,8447,1,6,0:0:0:0:
402,133,8609,2,0,L|351:121,1,40,4|4,0:0|0:0,0:0:0:0:
198,89,8771,1,14,0:0:0:0:
226,285,8933,2,0,L|178:260,1,40,4|4,0:0|0:0,0:0:0:0:
38,185,9096,1,6,0:0:0:0:
224,262,9258,2,0,P|212:224|220:164,1,80,6|10,0:0|0:0,0:0:0:0:
444,56,9582,6,0,P|487:120|464:194,1,160,6|4,0:3|0:0,0:0:0:0:
392,256,9988,1,4,0:0:0:0:
392,256,10069,1,14,0:0:0:0:
402,133,10231,2,0,L|380:166,1,40,4|4,0:0|0:0,0:0:0:0:
327,319,10393,2,0,P|306:286|302:246,1,80,6|4,0:0|0:0,0:0:0:0:
300,168,10636,1,4,0:0:0:0:
300,168,10717,1,14,0:2:0:0:
220,352,10879,5,4,0:0:0:0:
220,352,10960,1,4,0:0:0:0:
220,352,11042,2,0,L|208:284,1,40,8|4,0:0|0:0,0:0:0:0:
68,320,11204,2,0,L|56:252,1,40,4|4,0:0|0:0,0:0:0:0:
128,168,11366,2,0,L|140:236,1,40,10|10,0:0|0:0,0:0:0:0:
280,200,11528,2,0,L|292:268,1,40,4|4,0:0|0:0,0:0:0:0:
438,271,11690,2,0,L|431:231,1,40,10|10,0:0|0:0,0:0:0:0:
346,87,11852,2,0,L|358:155,1,40,4|4,0:0|0:0,0:0:0:0:
500,208,12015,2,0,L|493:168,1,40,4|4,0:0|0:0,0:0:0:0:
407,23,12177,6,0,B|416:72|416:72|396:8|320:16,1,160,6|4,0:3|0:0,0:0:0:0:
297,29,12582,1,4,0:0:0:0:
276,60,12663,1,14,0:0:0:0:
412,148,12825,1,4,0:0:0:0:
416,168,12906,1,4,0:0:0:0:
420,188,12988,2,0,P|420:248|396:296,1,80,6|4,0:0|0:0,0:0:0:0:
389,297,13231,1,4,0:0:0:0:
355,318,13312,1,14,0:0:0:0:
152,236,13474,6,0,L|224:220,1,40,4|4,0:0|0:0,0:0:0:0:
308,220,13636,1,6,0:0:0:0:
34,210,13798,2,0,L|103:213,1,40,4|4,0:0|0:0,0:0:0:0:
296,220,13960,1,14,0:0:0:0:
116,144,14123,2,0,L|154:156,1,40,4|4,0:0|0:0,0:0:0:0:
286,221,14285,2,0,P|268:168|276:112,2,80,6|6|14,0:0|0:2|0:0,0:0:0:0:
272,268,14771,6,0,P|234:199|229:120,1,160,6|4,0:3|0:0,0:0:0:0:
240,80,15177,1,4,0:0:0:0:
264,48,15258,1,14,0:0:0:0:
392,32,15420,2,0,L|408:104,1,40,4|4,0:0|0:0,0:0:0:0:
416,188,15582,2,0,P|396:240|420:288,1,80,6|4,0:0|0:0,0:0:0:0:
416,283,15825,1,4,0:0:0:0:
438,296,15906,1,14,0:0:0:0:
504,124,16069,5,4,0:0:0:0:
504,124,16150,1,4,0:0:0:0:
504,124,16231,2,0,P|476:96|404:76,1,80,6|4,0:2|0:0,0:0:0:0:
272,160,16474,1,4,0:0:0:0:
272,160,16555,2,0,P|300:132|372:112,1,80,14|4,0:2|0:0,0:0:0:0:
416,188,16798,1,4,0:0:0:0:
416,188,16879,1,10,0:0:0:0:
128,132,17042,1,10,0:0:0:0:
336,27,17204,1,10,0:0:0:0:
206,291,17366,6,0,P|130:312|53:295,1,160,6|4,3:3|0:0,0:0:0:0:
24,268,17771,1,4,0:0:0:0:
8,232,17852,1,14,0:0:0:0:
128,132,18015,1,4,0:0:0:0:
130,151,18096,1,4,0:0:0:0:
133,171,18177,2,0,P|152:196|224:196,1,80,6|4,0:0|0:0,0:0:0:0:
236,200,18420,1,4,0:0:0:0:
268,176,18501,1,14,0:0:0:0:
404,124,18663,6,0,L|393:197,1,40,4|4,0:0|0:0,0:0:0:0:
387,242,18825,1,6,0:0:0:0:
415,45,18988,2,0,L|425:-28,1,40,4|4,0:0|0:0,0:0:0:0:
479,204,19150,1,14,0:0:0:0:
322,82,19312,2,0,L|263:36,1,40,4|4,0:0|0:0,0:0:0:0:
492,105,19474,1,6,0:0:0:0:
307,180,19636,2,0,P|269:169|242:140,1,80,6|10,0:0|0:0,0:0:0:0:
24,204,19960,6,0,P|90:165|158:201,1,160,6|4,0:2|0:0,0:0:0:0:
169,238,20366,1,4,0:0:0:0:
161,277,20447,1,14,0:0:0:0:
147,100,20609,1,4,0:0:0:0:
147,100,20690,1,4,0:0:0:0:
147,100,20771,1,6,0:0:0:0:
91,244,20933,2,0,L|137:207,1,40,4|4,0:0|0:0,0:0:0:0:
223,140,21096,1,14,0:2:0:0:
66,77,21258,5,8,0:3:0:0:
66,77,21339,1,8,0:3:0:0:
66,77,21420,2,0,L|71:148,1,40,8|4,0:3|0:3,0:3:0:0:
3,234,21582,2,0,L|8:305,1,40,4|4,0:3|0:3,0:3:0:0:
160,297,21744,2,0,L|155:226,1,40,4|4,0:3|0:3,0:3:0:0:
223,140,21906,2,0,L|218:69,1,40,8|8,0:3|0:3,0:3:0:0:
304,292,22069,6,0,L|334:349,2,40,4|4|4,0:3|0:3|0:3,0:3:0:0:
311,153,22312,2,0,L|345:98,2,40,4|4|4,0:3|0:3|0:3,0:3:0:0:
188,216,22555,2,0,L|123:213,2,40,4|4|4,0:3|0:3|0:3,0:3:0:0:
256,192,22879,12,0,23852,2:0:0:0:
140,132,24015,5,6,0:3:0:0:
284,300,24177,1,0,0:0:0:0:
357,91,24339,1,4,0:0:0:0:
239,300,24501,1,4,0:0:0:0:
161,93,24663,1,4,0:0:0:0:
379,129,24825,1,4,0:0:0:0:
195,64,24988,1,4,0:0:0:0:
197,285,25150,1,4,0:0:0:0:
388,172,25312,5,6,0:3:0:0:
394,211,25393,1,4,0:0:0:0:
412,246,25474,1,4,0:0:0:0:
440,274,25555,1,4,0:0:0:0:
475,292,25636,1,14,0:0:0:0:
451,111,25798,2,0,P|420:88|381:83,1,80,4|2,0:0|0:0,0:0:0:0:
244,96,26123,1,4,0:0:0:0:
204,89,26204,1,4,0:0:0:0:
169,70,26285,2,0,P|156:56|143:40,2,40,10|4|4,0:0|0:0|0:0,0:0:0:0:
192,192,26609,6,0,P|176:236|124:280,1,80,2|4,0:0|0:0,0:0:0:0:
129,290,26852,1,4,0:0:0:0:
132,329,26933,1,14,0:0:0:0:
161,355,27014,1,4,0:0:0:0:
200,355,27096,2,0,P|216:348|264:340,3,40,4|4|6|4,0:0|0:0|0:0|0:0,0:0:0:0:
336,340,27420,1,4,0:0:0:0:
375,343,27501,1,4,0:0:0:0:
411,360,27582,2,0,P|451:360|486:341,1,80,14|0,0:0|0:0,0:0:0:0:
503,139,27906,5,6,0:0:0:0:
468,122,27987,1,4,0:0:0:0:
428,115,28068,1,4,0:0:0:0:
389,120,28149,1,4,0:0:0:0:
352,136,28230,1,14,0:0:0:0:
384,248,28393,2,0,P|444:271|429:208,1,160,4|4,0:0|0:0,0:0:0:0:
390,202,28798,1,4,0:0:0:0:
352,215,28879,1,14,0:0:0:0:
314,227,28960,1,4,0:0:0:0:
275,222,29041,1,4,0:0:0:0:
196,120,29204,6,0,P|200:72|252:32,1,80,2|4,0:0|0:0,0:0:0:0:
255,31,29447,1,4,0:0:0:0:
294,35,29528,2,0,P|311:45|323:60,3,40,14|4|4|4,0:0|0:0|0:0|0:0,0:0:0:0:
327,137,29852,2,0,P|315:152|298:163,3,40,6|4|4|4,0:0|0:0|0:0|0:0,0:0:0:0:
228,192,30177,2,0,P|212:244|280:296,1,120,14|0,0:0|0:0,0:0:0:0:
344,352,30501,5,6,0:0:0:0:
315,324,30582,1,4,0:0:0:0:
277,316,30663,1,4,0:0:0:0:
239,329,30744,1,4,0:0:0:0:
201,342,30825,1,14,0:0:0:0:
163,334,30906,1,4,0:0:0:0:
134,306,30988,2,0,P|120:272|136:208,1,80,4|2,0:0|0:0,0:0:0:0:
111,127,31312,1,4,0:0:0:0:
115,87,31393,1,4,0:0:0:0:
101,51,31474,2,0,P|80:28|63:15,2,40,14|4|4,0:0|0:0|0:0,0:0:0:0:
192,116,31798,6,0,P|251:117|300:91,1,80,2|4,0:0|0:0,0:0:0:0:
303,88,32042,1,4,0:0:0:0:
336,65,32123,1,14,0:0:0:0:
375,56,32204,1,4,0:0:0:0:
414,60,32285,2,0,P|437:71|456:86,3,40,4|4|6|4,0:0|0:0|0:0|0:0,0:0:0:0:
496,176,32609,1,4,0:0:0:0:
491,215,32690,1,4,0:0:0:0:
472,251,32771,2,0,P|450:284|446:323,1,80,14|0,0:0|0:0,0:0:0:0:
411,187,33096,5,6,0:0:0:0:
380,163,33177,1,4,0:0:0:0:
341,159,33258,1,4,0:0:0:0:
305,177,33339,1,4,0:0:0:0:
285,211,33420,1,14,0:0:0:0:
263,244,33501,1,4,0:0:0:0:
228,261,33582,2,0,P|189:258|158:234,1,80,4|2,0:0|0:0,0:0:0:0:
132,116,33906,1,4,0:0:0:0:
139,77,33987,1,4,0:0:0:0:
165,47,34069,2,0,P|179:40|219:36,2,40,14|4|4,0:0|0:0|0:0,0:0:0:0:
157,233,34393,6,0,P|149:271|123:301,1,80,2|4,0:0|0:0,0:0:0:0:
85,315,34636,1,4,0:0:0:0:
45,309,34717,1,14,0:0:0:0:
63,273,34798,1,4,0:0:0:0:
95,251,34879,1,4,0:0:0:0:
135,248,34960,1,4,0:0:0:0:
171,264,35042,1,6,0:0:0:0:
207,280,35123,1,4,0:0:0:0:
246,276,35204,1,4,0:0:0:0:
279,254,35285,1,4,0:0:0:0:
297,219,35366,2,0,P|299:199|287:159,1,40,10|8,0:0|0:0,0:0:0:0:
222,122,35528,2,0,P|202:124|183:131,1,40,4|4,0:0|0:0,0:0:0:0:
141,214,35690,5,6,0:3:0:0:
102,209,35771,1,4,0:0:0:0:
68,189,35852,1,4,0:0:0:0:
44,157,35933,1,4,0:0:0:0:
33,119,36014,1,14,0:0:0:0:
65,28,36177,2,0,P|98:48|121:81,1,80,0|2,0:0|0:0,0:0:0:0:
164,224,36501,1,4,0:0:0:0:
186,256,36582,1,4,0:0:0:0:
220,277,36663,1,14,0:0:0:0:
259,282,36744,1,4,0:0:0:0:
297,270,36825,1,4,0:0:0:0:
392,192,36988,6,0,P|440:180|488:216,1,80,2|4,0:0|0:0,0:0:0:0:
489,222,37231,1,4,0:0:0:0:
489,262,37312,1,14,0:0:0:0:
465,293,37393,1,4,0:0:0:0:
428,304,37474,2,0,P|391:291|371:259,3,40,4|4|6|4,0:0|0:0|0:0|0:0,0:0:0:0:
319,219,37798,1,4,0:0:0:0:
315,180,37879,1,4,0:0:0:0:
331,144,37960,2,0,P|346:107|342:68,1,80,14|0,0:0|0:0,0:0:0:0:
139,40,38285,5,6,0:0:0:0:
124,76,38366,1,4,0:0:0:0:
128,115,38447,1,4,0:0:0:0:
152,147,38528,1,4,0:0:0:0:
188,162,38609,1,14,0:0:0:0:
228,157,38690,1,0,0:0:0:0:
259,131,38771,2,0,P|329:102|389:149,1,160,4|4,0:0|0:0,0:0:0:0:
391,169,39177,1,4,0:0:0:0:
393,189,39258,1,14,0:0:0:0:
395,209,39339,1,4,0:0:0:0:
397,229,39420,1,4,0:0:0:0:
494,343,39582,6,0,P|463:318|424:313,1,80,2|4,0:0|0:0,0:0:0:0:
384,317,39825,1,4,0:0:0:0:
348,301,39906,2,0,P|333:287|324:270,3,40,14|4|4|4,0:0|0:0|0:0|0:0,0:0:0:0:
332,193,40231,2,0,P|343:182|363:168,3,40,6|4|4|4,0:0|0:0|0:0|0:0,0:0:0:0:
440,175,40555,2,0,P|489:147|491:90,1,120,14|0,0:0|0:0,0:0:0:0:
399,27,40879,5,6,0:0:0:0:
359,30,40960,1,4,0:0:0:0:
323,46,41041,1,4,0:0:0:0:
294,73,41122,1,4,0:0:0:0:
264,99,41204,1,14,0:0:0:0:
228,115,41285,1,4,0:0:0:0:
188,118,41366,2,0,P|148:62|213:38,1,160,4|4,0:0|0:0,0:0:0:0:
246,58,41772,1,4,0:0:0:0:
267,92,41853,1,14,0:0:0:0:
270,131,41934,1,4,0:0:0:0:
255,168,42015,1,4,0:0:0:0:
115,199,42177,6,0,P|76:195|40:210,1,80,2|4,0:0|0:0,0:0:0:0:
13,240,42420,1,4,0:0:0:0:
4,278,42501,1,14,0:0:0:0:
14,317,42582,1,4,0:0:0:0:
41,346,42663,2,0,L|104:356,3,40,4|4|6|4,0:0|0:0|0:0|0:0,0:0:0:0:
182,318,42988,1,4,0:0:0:0:
221,323,43069,1,4,0:0:0:0:
254,346,43150,6,0,P|356:305|364:248,1,160,14|6,0:0|0:3,0:0:0:0:
375,228,43555,1,4,0:0:0:0:
407,206,43636,1,4,0:0:0:0:
446,210,43717,1,4,0:0:0:0:
472,239,43798,1,14,0:0:0:0:
472,278,43879,1,4,0:0:0:0:
447,308,43960,2,0,P|414:330|375:336,1,80,4|6,0:0|0:0,0:0:0:0:
270,251,44285,2,0,P|266:211|281:174,1,80,4|14,0:0|0:0,0:0:0:0:
408,126,44609,2,0,P|443:143|468:174,1,80,4|2,0:0|0:0,0:0:0:0:
375,228,44934,5,4,0:0:0:0:
375,228,45015,1,4,0:0:0:0:
375,228,45096,2,0,L|356:320,2,53.3333333333333,14|4|4,0:3|0:0|0:0,0:0:0:0:
304,104,45420,2,0,L|284:12,2,53.3333333333333,4|4|4,0:0|0:0|0:0,0:0:0:0:
220,280,45744,2,0,L|200:371,2,53.3333333333333,4|4|4,0:0|0:0|0:0,0:0:0:0:
136,104,46069,5,6,0:2:0:0:
136,104,46393,2,0,L|67:144,1,80,8|4,0:3|0:3,0:3:0:0:
160,228,46717,2,0,L|126:324,1,80,4|8,0:3|0:3,0:3:0:0:
258,307,47042,2,0,L|293:402,1,80,4|4,0:3|0:3,0:3:0:0:
383,304,47366,5,6,0:3:0:0:
452,343,47528,1,4,0:0:0:0:
451,263,47690,2,0,P|440:196|456:164,1,80,10|4,0:2|0:0,0:0:0:0:
451,167,47933,1,4,0:0:0:0:
464,151,48014,1,8,0:0:0:0:
348,204,48177,1,8,0:0:0:0:
244,128,48339,1,4,0:0:0:0:
263,106,48420,1,4,0:0:0:0:
288,89,48501,1,4,0:0:0:0:
316,79,48582,1,4,0:0:0:0:
346,75,48663,6,0,L|367:141,1,40,14|4,0:0|0:0,0:0:0:0:
387,212,48825,2,0,L|348:204,1,40,4|4,0:0|0:0,0:0:0:0:
246,178,48988,2,0,L|274:149,1,40,4|4,0:0|0:0,0:0:0:0:
348,204,49150,6,0,L|368:270,1,40,14|4,0:0|0:0,0:0:0:0:
388,341,49312,2,0,L|348:332,1,40,14|4,0:0|0:0,0:0:0:0:
248,307,49475,2,0,L|275:277,1,40,4|4,0:0|0:0,0:0:0:0:
359,242,49636,5,8,0:0:0:0:
388,238,49718,1,4,0:0:0:0:
416,227,49799,1,4,0:0:0:0:
441,210,49880,1,4,0:0:0:0:
461,188,49961,2,0,L|481:121,3,40,14|4|4|4,0:0|0:0|0:0|0:0,0:0:0:0:
449,65,50285,1,4,0:0:0:0:
419,38,50366,1,4,0:0:0:0:
382,24,50447,1,4,0:0:0:0:
342,25,50528,1,4,0:0:0:0:
305,41,50609,2,0,P|292:112|363:129,1,160,4|10,0:0|0:2,0:0:0:0:
363,129,51258,6,0,P|363:180|385:235,1,80,6|4,0:3|0:0,0:0:0:0:
436,308,51582,1,10,0:0:0:0:
316,316,51744,2,0,P|271:290|212:282,1,80,4|6,0:0|0:0,0:0:0:0:
124,290,52069,1,4,0:0:0:0:
177,182,52231,2,0,P|221:156|257:109,1,80,10|4,0:0|0:0,0:0:0:0:
295,28,52555,5,6,0:3:0:0:
148,72,52717,1,4,0:0:0:0:
259,177,52879,1,10,0:0:0:0:
234,92,53042,1,4,0:0:0:0:
197,241,53204,1,6,0:0:0:0:
345,197,53366,1,4,0:0:0:0:
172,156,53528,2,0,P|142:129|126:93,1,80,10|4,0:2|0:0,0:0:0:0:
267,154,53852,5,12,0:0:0:0:
168,259,54015,1,6,0:3:0:0:
127,121,54177,1,12,0:0:0:0:
271,257,54338,1,12,0:0:0:0:
77,210,54501,1,12,0:0:0:0:
215,66,54663,1,12,0:0:0:0:
150,334,54825,1,12,0:0:0:0:
72,68,54988,1,12,0:0:0:0:
342,133,55150,5,8,0:0:0:0:
362,167,55231,1,8,0:0:0:0:
370,206,55312,1,4,0:0:0:0:
366,246,55393,1,4,0:0:0:0:
350,283,55474,1,8,0:0:0:0:
324,312,55555,1,8,0:0:0:0:
290,333,55636,1,4,0:0:0:0:
251,342,55717,1,4,0:0:0:0:
211,338,55798,6,4,P|192:332|174:322,1,40
116,185,55960,1,4,0:0:0:0:
114,224,56041,1,4,0:0:0:0:
123,263,56123,2,0,P|131:282|142:298,1,40,4|4,0:0|0:0,0:0:0:0:
243,212,56285,6,0,P|236:134|185:74,1,160,6|4,0:3|0:0,0:0:0:0:
166,65,56690,1,4,0:0:0:0:
147,59,56771,1,14,0:0:0:0:
0,288,56933,2,0,L|54:239,1,40,4|4,0:0|0:0,0:0:0:0:
154,149,57096,1,6,0:0:0:0:
176,296,57258,2,0,L|141:257,1,40,4|4,0:0|0:0,0:0:0:0:
37,141,57421,1,14,0:0:0:0:
184,73,57582,5,4,0:0:0:0:
184,73,57663,1,4,0:0:0:0:
184,73,57744,2,0,P|196:120|180:164,1,80,6|4,0:0|0:0,0:0:0:0:
200,239,57988,1,4,0:0:0:0:
200,239,58069,2,0,P|226:210|264:197,1,80,14|4,0:0|0:0,0:0:0:0:
336,141,58312,1,4,0:0:0:0:
335,141,58393,2,0,P|297:132|267:106,1,80,6|6,0:0|0:0,0:0:0:0:
360,8,58717,1,8,0:0:0:0:
440,180,58879,6,0,B|432:208|408:224|408:224|420:248|420:248|396:300|436:344,1,160,6|4,0:2|0:0,0:0:0:0:
433,336,59285,1,4,0:0:0:0:
449,348,59366,1,14,0:0:0:0:
328,256,59528,2,0,L|260:252,1,40,4|4,0:0|0:0,0:0:0:0:
144,300,59690,1,6,0:0:0:0:
266,156,59852,2,0,L|241:219,1,40,4|4,0:0|0:0,0:0:0:0:
251,344,60015,1,14,0:0:0:0:
151,184,60177,6,0,L|203:227,1,40,4|4,0:0|0:0,0:0:0:0:
328,256,60339,2,0,P|301:284|265:301,1,80,6|4,0:0|0:0,0:0:0:0:
72,228,60582,1,0,0:0:0:0:
72,228,60663,2,0,P|100:257|136:274,1,80,14|4,0:0|0:0,0:0:0:0:
236,192,60906,1,4,0:0:0:0:
236,192,60988,1,6,0:0:0:0:
40,320,61150,1,6,0:0:0:0:
192,344,61312,1,8,0:0:0:0:
19,222,61474,6,0,P|35:148|108:127,1,160,6|4,0:2|0:0,0:0:0:0:
180,180,61879,1,4,0:0:0:0:
185,219,61960,1,14,0:0:0:0:
288,165,62123,2,0,L|293:204,1,40,4|4,0:0|0:0,0:0:0:0:
303,284,62285,1,6,0:0:0:0:
405,229,62447,2,0,L|410:268,1,40,4|4,0:0|0:0,0:0:0:0:
420,348,62609,1,14,0:0:0:0:
394,148,62771,6,0,P|378:80|317:112,1,160,6|4,0:3|0:0,0:0:0:0:
305,190,63177,1,4,0:0:0:0:
299,229,63258,1,14,0:0:0:0:
488,184,63420,1,4,0:0:0:0:
483,144,63501,1,4,0:0:0:0:
478,104,63582,1,6,0:0:0:0:
311,151,63744,1,6,0:0:0:0:
492,223,63906,1,8,0:0:0:0:
344,68,64069,6,0,P|241:91|222:166,1,160,6|4,0:3|0:0,0:0:0:0:
280,252,64474,1,4,0:0:0:0:
293,268,64555,2,0,P|253:265|216:280,1,80,14|4,0:0|0:0,0:0:0:0:
80,272,64798,1,4,0:0:0:0:
64,260,64879,2,0,P|103:262|140:247,1,80,6|4,0:0|0:0,0:0:0:0:
220,168,65123,1,4,0:0:0:0:
232,152,65204,1,14,0:2:0:0:
80,88,65366,5,8,0:0:0:0:
76,92,65447,1,8,0:0:0:0:
72,96,65528,1,8,0:0:0:0:
73,135,65609,1,8,0:0:0:0:
84,174,65690,1,8,0:0:0:0:
105,208,65771,1,8,0:0:0:0:
134,235,65852,1,12,0:0:0:0:
169,255,65933,1,8,0:0:0:0:
207,265,66014,1,8,0:0:0:0:
247,266,66095,1,8,0:0:0:0:
286,256,66177,2,0,L|332:228,1,40,12|4,0:0|0:0,0:0:0:0:
232,152,66339,2,0,L|186:180,1,40,4|4,0:0|0:0,0:0:0:0:
96,236,66501,5,4,0:0:0:0:
92,240,66582,1,4,0:0:0:0:
88,244,66663,2,0,P|41:240|16:144,1,160,6|6,0:3|0:3,0:0:0:0:
92,76,67069,1,4,0:3:0:0:
108,64,67150,1,12,0:3:0:0:
232,152,67312,1,6,0:3:0:0:
224,191,67393,1,4,0:3:0:0:
217,230,67474,1,4,0:3:0:0:
245,73,67636,2,0,P|267:39|299:15,1,80,6|12,0:3|0:3,0:3:0:0:
480,172,67960,5,6,0:3:0:0:
463,208,68041,1,4,0:3:0:0:
433,233,68122,1,4,0:3:0:0:
305,178,68284,1,6,0:3:0:0:
324,213,68365,1,4,0:3:0:0:
356,236,68446,1,12,0:3:0:0:
319,101,68609,1,6,0:3:0:0:
348,75,68690,1,4,0:3:0:0:
386,64,68771,1,6,0:0:0:0:
426,71,68852,1,4,0:0:0:0:
458,94,68933,2,0,L|476:160,1,40,4|4,0:0|0:0,0:0:0:0:
433,233,69096,1,12,0:0:0:0:
304,177,69258,6,0,P|253:119|176:122,1,160,6|6,0:3|0:3,0:0:0:0:
140,207,69663,1,4,0:3:0:0:
140,207,69744,2,0,P|179:213|217:204,1,80,12|6,0:3|0:3,0:3:0:0:
253,119,69988,1,4,0:3:0:0:
253,119,70069,1,4,0:3:0:0:
264,288,70231,2,0,P|278:325|305:353,1,80,6|12,0:3|0:3,0:3:0:0:
344,108,70555,5,6,0:3:0:0:
344,108,70636,1,4,0:3:0:0:
344,108,70717,1,4,0:3:0:0:
112,80,70879,1,6,0:3:0:0:
112,80,70960,1,4,0:3:0:0:
112,80,71041,1,14,0:2:0:0:
203,294,71204,1,4,0:0:0:0:
203,294,71285,1,4,0:0:0:0:
203,294,71366,1,14,0:2:0:0:
236,27,71528,1,14,0:2:0:0:
95,213,71690,1,6,0:0:0:0:
327,241,71852,6,0,B|345:279|345:279|381:255|425:255|461:283,1,160,6|4,0:3|0:0,0:0:0:0:
512,344,72258,1,4,0:0:0:0:
508,364,72339,2,0,P|486:330|482:290,1,80,14|4,0:0|0:0,0:0:0:0:
482,157,72582,1,4,0:0:0:0:
482,157,72663,1,6,0:0:0:0:
404,344,72825,1,6,0:0:0:0:
281,182,72988,1,8,0:0:0:0:
468,260,73150,6,0,B|472:300|472:300|416:332|328:280,1,160,6|4,0:3|0:0,0:0:0:0:
228,244,73555,1,4,0:0:0:0:
208,232,73636,2,0,P|168:226|129:236,1,80,14|4,0:0|0:0,0:0:0:0:
9,305,73879,1,4,0:0:0:0:
9,305,73960,1,6,0:0:0:0:
128,116,74123,1,6,0:0:0:0:
232,313,74285,1,8,0:0:0:0:
39,191,74447,6,0,P|11:118|36:44,1,160,6|4,0:3|0:0,0:0:0:0:
200,28,74852,1,4,0:0:0:0:
216,40,74933,2,0,P|237:73|244:112,1,80,14|4,0:0|0:0,0:0:0:0:
109,231,75177,1,4,0:0:0:0:
109,231,75258,1,6,0:0:0:0:
363,299,75420,1,4,0:0:0:0:
295,45,75582,1,14,0:2:0:0:
227,300,75744,6,0,P|228:319|232:339,1,40,8|8,0:3|0:3,0:0:0:0:
408,360,75906,1,8,0:3:0:0:
446,349,75987,1,8,0:3:0:0:
477,323,76068,1,8,0:3:0:0:
495,288,76149,1,8,0:3:0:0:
499,249,76230,1,4,0:3:0:0:
487,211,76311,1,4,0:3:0:0:
460,181,76392,1,8,0:3:0:0:
425,163,76473,1,8,0:3:0:0:
385,161,76555,6,0,P|366:166|348:175,1,40,4|4,0:0|0:0,0:0:0:0:
315,314,76717,1,4,0:0:0:0:
301,277,76798,1,4,0:0:0:0:
303,238,76879,2,0,P|319:201|345:176,1,40,4|4,0:0|0:0,0:0:0:0:
272,36,77042,6,0,P|284:63|224:180,1,160,6|4,0:3|0:0,0:0:0:0:
160,204,77447,1,4,0:0:0:0:
140,208,77528,2,0,P|168:235|183:272,1,80,6|4,0:0|0:0,0:0:0:0:
188,354,77771,1,4,0:0:0:0:
185,374,77852,2,0,P|220:355|259:352,1,80,14|4,0:0|0:0,0:0:0:0:
332,372,78096,1,4,0:0:0:0:
357,381,78177,2,0,P|350:341|359:303,1,80,6|4,0:0|0:0,0:0:0:0:
404,233,78420,1,4,0:0:0:0:
417,218,78501,6,0,P|377:212|343:191,1,80,6|4,0:0|0:0,0:0:0:0:
290,126,78744,1,4,0:0:0:0:
280,108,78825,2,0,P|262:144|232:170,1,80,6|4,0:0|0:0,0:0:0:0:
140,208,79069,1,4,0:0:0:0:
140,208,79150,1,14,0:0:0:0:
224,28,79312,1,6,0:2:0:0:
26,45,79474,1,6,0:2:0:0:
270,178,79636,6,0,P|256:276|184:336,1,160,6|4,0:3|0:0,0:0:0:0:
182,338,80041,1,4,0:0:0:0:
142,344,80123,1,6,0:0:0:0:
67,234,80285,1,4,0:0:0:0:
101,214,80366,1,4,0:0:0:0:
140,208,80447,1,14,0:0:0:0:
270,178,80609,1,4,0:0:0:0:
297,148,80690,1,4,0:0:0:0:
310,111,80771,1,6,0:0:0:0:
219,13,80933,5,4,0:0:0:0:
192,42,81014,1,4,0:0:0:0:
179,79,81096,2,0,B|180:112|208:136|208:136|192:152|192:152|224:184|212:240,1,160,6|6,0:0|0:0,0:0:0:0:
144,336,81582,1,4,0:0:0:0:
144,336,81663,1,4,0:0:0:0:
144,336,81744,1,12,0:0:0:0:
180,321,81825,1,12,0:0:0:0:
220,320,81906,1,12,0:0:0:0:
257,334,81988,1,12,0:0:0:0:
294,347,82069,1,12,0:0:0:0:
334,347,82150,1,12,0:0:0:0:
372,332,82231,6,0,B|408:308|420:271|420:271|456:261|456:261|464:200,1,160,6|4,0:3|0:0,0:0:0:0:
468,140,82636,2,0,L|474:78,1,40,4|14,0:0|0:3,0:0:0:0:
255,47,82879,1,4,0:0:0:0:
250,86,82960,1,4,0:0:0:0:
246,126,83041,1,6,0:3:0:0:
388,200,83204,1,4,0:0:0:0:
392,160,83285,1,4,0:0:0:0:
396,120,83366,1,14,0:3:0:0:
172,126,83528,1,4,0:0:0:0:
168,165,83609,1,4,0:0:0:0:
163,205,83690,1,6,0:3:0:0:
317,163,83853,1,4,0:0:0:0:
321,123,83934,1,4,0:0:0:0:
326,84,84015,1,14,0:3:0:0:
103,91,84177,6,0,L|99:131,1,40,4|4,0:0|0:0,0:0:0:0:
218,294,84339,2,0,L|244:264,1,40,6|0,0:3|0:0,0:0:0:0:
243,61,84501,2,0,L|203:69,1,40,6|4,0:3|0:0,0:0:0:0:
85,232,84663,2,0,L|121:248,1,40,12|0,0:0|0:0,0:0:0:0:
314,183,84825,6,0,P|257:135|192:173,1,160,6|4,0:2|0:0,0:0:0:0:
218,294,85231,1,4,0:0:0:0:
218,294,85312,1,14,0:2:0:0:
437,221,85474,1,4,0:0:0:0:
264,69,85636,1,6,0:0:0:0:
348,320,85798,1,14,0:0:0:0:
394,94,85960,1,4,0:0:0:0:
176,168,86123,6,0,P|112:213|86:288,1,160,6|4,0:2|0:0,0:0:0:0:
86,288,86528,1,4,0:0:0:0:
86,288,86609,1,14,0:2:0:0:
62,130,86771,1,4,0:0:0:0:
242,312,86933,1,12,0:0:0:0:
204,58,87095,1,4,0:0:0:0:
316,167,87258,1,4,0:0:0:0:
358,18,87420,1,6,0:3:0:0:
256,192,87582,12,0,88555,2:0:0:0:
256,32,88879,5,12,0:0:0:0:
233,64,88960,1,4,0:0:0:0:
225,103,89041,1,4,0:0:0:0:
234,142,89122,1,4,0:0:0:0:
257,174,89204,2,4,L|313:190,1,40
392,224,89366,1,4,0:0:0:0:
414,256,89447,1,4,0:0:0:0:
422,295,89528,1,4,0:0:0:0:
413,334,89609,1,4,0:0:0:0:
390,366,89691,2,4,L|333:382,1,40
240,336,89852,2,0,P|176:312|104:336,1,120,14|0,0:2|2:1,0:0:0:0:
15,371,90177,5,6,0:3:0:0:
6,333,90258,1,4,0:0:0:0:
10,293,90339,1,4,0:0:0:0:
25,256,90420,1,4,0:0:0:0:
50,226,90501,1,14,0:0:0:0:
168,252,90663,2,0,P|207:259|246:252,1,80,4|2,0:0|0:0,0:0:0:0:
208,139,90988,1,4,0:0:0:0:
194,102,91069,1,4,0:0:0:0:
169,70,91150,2,0,P|152:55|136:47,2,40,14|4|4,0:0|0:0|0:0,0:0:0:0:
304,136,91474,6,0,P|340:150|380:151,1,80,2|4,0:0|0:0,0:0:0:0:
417,135,91717,1,4,0:0:0:0:
445,106,91798,2,0,P|453:88|459:69,1,40,14|4,0:0|0:0,0:0:0:0:
372,13,91960,2,0,P|364:31|358:50,3,40,4|4|6|4,0:0|0:0|0:0|0:0,0:0:0:0:
394,132,92285,1,4,0:0:0:0:
409,168,92366,1,4,0:0:0:0:
408,208,92447,2,0,P|356:251|313:194,1,120,14|0,0:0|0:0,0:0:0:0:
299,144,92771,5,6,0:0:0:0:
264,161,92852,1,4,0:0:0:0:
240,193,92933,1,4,0:0:0:0:
234,232,93014,1,4,0:0:0:0:
245,270,93096,1,14,0:0:0:0:
396,340,93258,2,0,P|356:328|292:340,1,80,4|2,0:0|0:0,0:0:0:0:
184,344,93581,1,4,0:0:0:0:
144,346,93662,1,4,0:0:0:0:
106,334,93744,2,0,P|89:322|75:308,2,40,14|4|4,0:0|0:0|0:0,0:0:0:0:
250,302,94069,6,0,P|268:267|274:227,1,80,2|4,0:0|0:0,0:0:0:0:
266,188,94312,1,4,0:0:0:0:
246,154,94393,2,0,P|231:141|218:126,3,40,14|4|4|4,0:0|0:0|0:0|0:0,0:0:0:0:
296,80,94717,2,0,P|302:53|323:15,3,40,6|4|4|4,0:0|0:0|0:0|0:0,0:0:0:0:
385,85,95042,2,0,P|420:131|417:190,1,120,14|0,0:2|0:0,0:0:0:0:
372,257,95366,5,6,0:3:0:0:
333,266,95447,1,4,0:0:0:0:
294,257,95528,1,4,0:0:0:0:
264,231,95609,1,4,0:0:0:0:
234,205,95690,1,14,0:0:0:0:
196,196,95771,1,4,0:0:0:0:
157,205,95852,2,0,P|126:229|109:265,1,80,4|2,0:0|0:0,0:0:0:0:
294,257,96177,1,4,0:0:0:0:
325,232,96258,1,4,0:0:0:0:
342,196,96339,2,0,P|348:180|348:132,2,40,14|4|4,0:0|0:0|0:0,0:0:0:0:
360,328,96663,6,0,P|400:368|452:360,1,80,2|4,0:0|0:0,0:0:0:0:
456,353,96906,1,4,0:0:0:0:
473,318,96988,2,0,P|472:298|464:280,1,40,14|4,0:0|0:0,0:0:0:0:
406,222,97150,2,0,P|392:209|382:191,3,40,4|4|6|4,0:0|0:0|0:0|0:0,0:0:0:0:
385,114,97474,1,4,0:0:0:0:
413,86,97555,1,4,0:0:0:0:
451,74,97636,2,0,P|405:38|349:38,1,80,14|0,0:0|0:0,0:0:0:0:
292,108,97960,5,6,0:0:0:0:
273,143,98041,1,4,0:0:0:0:
242,168,98122,1,4,0:0:0:0:
204,178,98203,1,4,0:0:0:0:
165,171,98285,1,14,0:0:0:0:
131,150,98365,1,4,0:0:0:0:
110,116,98447,2,0,P|89:82|56:60,1,80,4|2,0:0|0:0,0:0:0:0:
8,224,98771,1,4,0:0:0:0:
8,263,98852,1,4,0:0:0:0:
26,299,98933,2,0,P|28:318|26:338,2,40,14|4|4,0:0|0:0|0:0,0:0:0:0:
116,236,99258,6,0,P|200:244|224:260,1,80,2|4,0:0|0:0,0:0:0:0:
226,263,99501,1,4,0:0:0:0:
249,296,99582,1,14,0:2:0:0:
271,328,99663,1,4,0:0:0:0:
303,351,99744,1,4,0:0:0:0:
342,361,99825,1,4,0:0:0:0:
382,355,99906,1,6,0:0:0:0:
417,337,99988,1,4,0:0:0:0:
442,306,100069,2,0,P|450:289|456:264,1,40,4|0,0:0|0:0,0:0:0:0:
456,160,100231,2,0,P|437:160|412:168,1,40,4|0,0:0|0:0,0:0:0:0:
323,221,100393,2,0,P|333:237|352:254,1,40,4|0,0:0|0:0,0:0:0:0:
417,337,100555,5,6,0:2:0:0:
386,363,100635,1,4,0:0:0:0:
349,374,100717,1,6,0:0:0:0:
308,373,100798,1,4,0:0:0:0:
272,357,100879,1,14,0:0:0:0:
263,227,101042,2,0,P|255:188|228:160,1,80,4|2,0:0|0:0,0:0:0:0:
97,125,101366,1,4,0:0:0:0:
76,90,101447,1,4,0:0:0:0:
70,51,101528,2,0,P|72:31|79:12,2,40,14|4|4,0:0|0:0|0:0,0:0:0:0:
206,159,101852,6,0,P|246:156|282:139,1,80,2|4,0:0|0:0,0:0:0:0:
308,108,102096,1,4,0:0:0:0:
335,79,102177,1,14,0:0:0:0:
371,61,102258,1,4,0:0:0:0:
410,58,102339,2,0,P|429:63|447:72,3,40,4|4|6|4,0:0|0:0|0:0|0:0,0:0:0:0:
493,133,102663,1,4,0:0:0:0:
495,173,102744,1,4,0:0:0:0:
481,210,102825,2,0,P|424:195|367:210,1,120,10|0,0:0|0:0,0:0:0:0:
384,328,103150,5,6,0:0:0:0:
413,353,103231,1,4,0:0:0:0:
451,345,103312,1,4,0:0:0:0:
467,310,103393,1,4,0:0:0:0:
450,276,103474,1,14,0:0:0:0:
412,269,103555,1,4,0:0:0:0:
383,295,103636,2,0,P|360:326|323:340,1,80,4|2,0:0|0:0,0:0:0:0:
184,280,103960,1,4,0:0:0:0:
168,243,104041,1,4,0:0:0:0:
175,205,104123,2,0,P|183:186|188:167,2,40,14|4|4,0:0|0:0|0:0,0:0:0:0:
95,324,104447,6,0,P|38:325|13:279,1,80,2|4,0:0|0:0,0:0:0:0:
11,275,104690,1,4,0:0:0:0:
27,239,104771,2,0,P|40:230|77:223,3,40,14|4|4|4,0:0|0:0|0:0|0:0,0:0:0:0:
132,176,105096,2,0,P|151:170|167:159,3,40,6|4|4|4,0:0|0:0|0:0|0:0,0:0:0:0:
118,96,105420,2,0,P|115:58|207:30,1,120,14|0,0:2|0:0,0:0:0:0:
251,46,105744,5,6,0:3:0:0:
282,71,105825,1,4,0:0:0:0:
321,81,105906,1,4,0:0:0:0:
359,75,105988,1,4,0:0:0:0:
399,68,106069,1,14,0:0:0:0:
437,78,106150,1,4,0:0:0:0:
468,103,106231,2,0,P|465:173|396:160,1,160,4|4,0:0|0:0,0:0:0:0:
379,124,106636,1,4,0:0:0:0:
379,85,106717,2,0,P|384:65|395:49,2,40,14|4|4,0:0|0:0|0:0,0:0:0:0:
319,183,107042,6,0,P|285:204|246:210,1,80,2|4,0:0|0:0,0:0:0:0:
209,196,107285,1,4,0:0:0:0:
181,169,107366,1,14,0:0:0:0:
124,43,107528,1,4,0:0:0:0:
160,61,107609,1,4,0:0:0:0:
183,91,107690,2,0,P|190:130|181:169,1,80,6|4,0:0|0:0,0:0:0:0:
142,179,107933,1,4,0:0:0:0:
112,205,108015,2,0,P|96:241|99:281,1,80,14|4,0:2|0:0,0:0:0:0:
220,376,108339,6,0,P|259:370|292:348,1,80,14|8,0:0|0:0,0:0:0:0:
304,324,108555,2,0,L|312:288,2,26.6666666666667,8|8|8,0:0|0:0|0:0,0:0:0:0:
180,256,108825,5,6,0:0:0:0:
453,270,109150,5,6,0:0:0:0:
328,27,109474,5,6,0:2:0:0:
320,184,109798,5,4,0:0:0:0:
325,80,109960,2,0,L|328:27,2,53.3333333333333,8|8|8,0:0|0:0|0:0,0:0:0:0:
407,240,110285,2,0,L|451:268,2,53.3333333333333,8|8|8,0:3|0:3|0:3,0:0:0:0:
227,231,110609,2,0,L|179:255,2,53.3333333333333,4|4|4,0:3|0:3|0:3,0:0:0:0:
412,136,110933,5,6,0:2:0:0:
195,75,111258,2,0,P|157:67|118:76,1,80,12|4,0:3|0:3,0:3:0:0:
49,207,111582,2,0,P|61:244|88:273,1,80,4|12,0:3|0:3,0:3:0:0:
236,270,111906,2,0,P|262:240|274:202,1,80,4|4,0:3|0:3,0:3:0:0:
160,184,112231,5,6,0:3:0:0:
300,63,112555,2,0,P|338:53|376:62,1,80,10|4,0:2|0:0,0:0:0:0:
393,73,112798,1,4,0:0:0:0:
405,88,112879,1,8,0:0:0:0:
340,140,113042,1,8,0:0:0:0:
418,172,113204,1,8,0:0:0:0:
351,223,113366,2,0,L|359:287,1,40,4|4,0:0|0:0,0:0:0:0:
396,332,113528,5,10,0:3:0:0:
361,312,113609,1,4,0:0:0:0:
323,303,113690,1,4,0:0:0:0:
284,310,113771,1,4,0:0:0:0:
248,329,113852,2,0,P|234:341|206:389,1,40,4|4,0:0|0:0,0:0:0:0:
108,348,114015,1,10,0:2:0:0:
74,328,114096,1,4,0:0:0:0:
47,299,114177,1,4,0:0:0:0:
33,262,114258,1,4,0:0:0:0:
32,222,114339,2,0,P|36:204|64:156,1,40,4|4,0:0|0:0,0:0:0:0:
144,128,114501,1,10,0:3:0:0:
179,146,114582,1,4,0:0:0:0:
218,146,114663,2,0,P|238:140|264:120,1,40,4|4,0:0|0:0,0:0:0:0:
339,66,114825,6,0,P|414:47|476:94,2,160,10|10|8,0:2|0:2|0:0,0:0:0:0:
345,105,115555,1,8,0:0:0:0:
354,144,115636,1,8,0:0:0:0:
367,182,115717,1,8,0:0:0:0:
383,219,115798,1,4,0:0:0:0:
401,254,115879,1,4,0:0:0:0:
423,288,115960,1,4,0:0:0:0:
447,320,116041,1,4,0:0:0:0:
474,350,116123,6,0,P|430:352|363:329,1,80,6|4,0:3|0:0,0:0:0:0:
263,259,116447,1,14,0:0:0:0:
293,89,116609,2,0,P|317:124|330:194,1,80,4|6,0:0|0:0,0:0:0:0:
320,316,116933,1,4,0:0:0:0:
158,377,117096,2,0,P|177:338|230:292,1,80,14|4,0:0|0:0,0:0:0:0:
341,224,117420,6,0,P|356:187|360:147,1,80,6|4,0:2|0:0,0:0:0:0:
151,147,117744,2,0,P|155:187|171:224,1,80,14|4,0:0|0:0,0:0:0:0:
332,264,118069,2,0,P|356:232|370:195,1,80,6|4,0:0|0:0,0:0:0:0:
141,195,118393,2,0,P|155:232|180:264,1,80,14|4,0:2|0:0,0:0:0:0:
325,292,118717,5,12,0:0:0:0:
356,268,118798,1,4,0:0:0:0:
380,231,118879,1,4,0:0:0:0:
392,189,118960,1,4,0:0:0:0:
389,140,119042,1,4,0:0:0:0:
369,96,119123,1,4,0:0:0:0:
332,59,119204,1,4,0:0:0:0:
283,39,119285,1,4,0:0:0:0:
230,38,119365,5,4,0:0:0:0:
181,58,119446,1,4,0:0:0:0:
144,95,119527,1,4,0:0:0:0:
124,139,119608,1,4,0:0:0:0:
120,188,119690,1,4,0:0:0:0:
133,231,119771,1,4,0:0:0:0:
157,267,119852,1,4,0:0:0:0:
188,292,119933,1,4,0:0:0:0:
256,312,120015,6,0,B|268:260|223:227|223:227|239:191|280:176|280:176|208:184|174:102|238:40|296:71,1,360,14|0,0:2|0:0,0:0:0:0:
290,172,121150,6,0,P|323:106|263:63,1,160,6|4,0:3|0:0,0:0:0:0:
188,100,121555,1,4,0:0:0:0:
188,100,121636,1,14,0:0:0:0:
132,273,121798,2,0,L|173:243,1,40,4|4,0:0|0:0,0:0:0:0:
281,166,121960,1,6,0:0:0:0:
96,167,122123,2,0,L|132:193,1,40,4|4,0:0|0:0,0:0:0:0:
246,273,122285,1,14,0:0:0:0:
188,100,122447,5,4,0:0:0:0:
188,100,122528,1,4,0:0:0:0:
188,99,122609,2,0,P|214:69|249:51,1,80,6|4,0:0|0:0,0:0:0:0:
453,150,122852,1,4,0:0:0:0:
453,150,122933,2,0,P|427:119|391:102,1,80,14|4,0:0|0:0,0:0:0:0:
264,229,123177,1,4,0:0:0:0:
264,229,123258,2,0,P|261:189|275:152,1,80,6|6,0:0|0:0,0:0:0:0:
437,274,123582,1,8,0:0:0:0:
512,88,123744,6,0,B|488:64|448:60|448:60|432:76|432:76|388:64|356:92,1,160,6|4,0:3|0:0,0:0:0:0:
304,148,124150,1,4,0:0:0:0:
304,148,124231,1,14,0:0:0:0:
447,313,124393,2,0,L|437:274,1,40,4|4,0:0|0:0,0:0:0:0:
408,152,124555,1,6,0:0:0:0:
345,306,124717,2,0,L|379:284,1,40,4|4,0:0|0:0,0:0:0:0:
486,219,124879,1,14,0:0:0:0:
321,206,125042,2,0,L|352:231,1,40,4|4,0:0|0:0,0:0:0:0:
447,312,125204,6,0,P|475:284|488:247,1,80,6|4,0:0|0:0,0:0:0:0:
321,206,125447,1,4,0:0:0:0:
321,206,125528,2,0,P|314:245|325:283,1,80,14|4,0:0|0:0,0:0:0:0:
486,219,125771,1,4,0:0:0:0:
486,219,125852,1,6,0:0:0:0:
275,212,126015,1,6,0:0:0:0:
384,110,126178,1,8,0:0:0:0:
377,321,126339,6,0,P|452:344|436:276,1,160,6|4,0:2|0:0,0:0:0:0:
389,199,126744,1,4,0:0:0:0:
385,238,126825,1,14,0:0:0:0:
213,100,126988,2,0,L|217:140,1,40,4|4,0:0|0:0,0:0:0:0:
227,260,127150,1,6,0:0:0:0:
388,70,127312,2,0,L|384:109,1,40,4|4,0:0|0:0,0:0:0:0:
375,230,127474,1,14,0:0:0:0:
292,91,127636,6,0,P|247:28|171:29,1,160,6|4,0:2|0:0,0:0:0:0:
137,51,128041,1,4,0:0:0:0:
104,74,128122,1,14,0:0:0:0:
294,170,128285,1,4,0:0:0:0:
292,130,128366,1,4,0:0:0:0:
291,90,128447,1,6,0:0:0:0:
121,133,128609,1,6,0:0:0:0:
239,261,128771,1,8,0:0:0:0:
268,36,128933,6,0,B|315:26|315:26|380:40|380:40|427:30,1,160,6|4,0:3|0:0,0:0:0:0:
312,104,129339,1,4,0:0:0:0:
312,104,129420,2,0,B|264:113|264:113|209:151|209:151,1,80,14|4,0:0|0:0,0:0:0:0:
412,110,129663,1,4,0:0:0:0:
412,110,129744,2,0,B|458:98|458:98|511:58|511:58,1,80,6|4,0:0|0:0,0:0:0:0:
372,23,129988,1,4,0:0:0:0:
372,23,130069,1,14,0:2:0:0:
337,169,130231,5,8,0:0:0:0:
333,173,130312,1,8,0:0:0:0:
329,177,130393,1,8,0:0:0:0:
326,216,130474,1,8,0:0:0:0:
338,254,130556,1,8,0:0:0:0:
349,291,130637,1,8,0:0:0:0:
341,330,130718,1,8,0:0:0:0:
314,359,130799,1,8,0:0:0:0:
276,370,130880,1,8,0:0:0:0:
237,361,130961,1,8,0:0:0:0:
208,334,131042,2,0,P|200:312|200:276,1,40,8|4,0:0|0:0,0:0:0:0:
252,148,131204,2,0,P|242:186|217:215,1,40,4|4,0:0|0:0,0:0:0:0:
111,188,131366,5,4,0:0:0:0:
103,170,131447,1,4,0:0:0:0:
101,151,131528,2,0,P|111:112|215:86,1,160,6|6,0:3|0:3,0:0:0:0:
246,166,131933,1,4,0:3:0:0:
242,186,132015,1,12,0:3:0:0:
457,225,132177,1,6,0:3:0:0:
447,186,132258,1,4,0:3:0:0:
419,158,132339,2,0,P|380:148|342:159,1,80,4|6,0:3|0:3,0:3:0:0:
312,240,132582,1,4,0:3:0:0:
316,260,132663,1,12,0:3:0:0:
268,84,132825,5,6,0:3:0:0:
300,62,132906,1,4,0:3:0:0:
339,54,132987,1,4,0:3:0:0:
434,209,133150,1,6,0:3:0:0:
447,171,133231,1,4,0:3:0:0:
444,132,133312,1,12,0:3:0:0:
316,261,133474,1,6,0:3:0:0:
279,244,133555,1,4,0:3:0:0:
253,214,133636,2,0,L|228:144,1,40,6|4,0:0|0:0,0:0:0:0:
328,121,133798,2,0,L|342:159,1,40,4|4,0:0|0:0,0:0:0:0:
345,263,133960,1,8,0:0:0:0:
131,80,134123,6,0,P|190:30|268:35,1,160,6|6,0:3|0:3,0:0:0:0:
325,101,134528,1,4,0:3:0:0:
328,121,134608,2,0,P|324:160|306:196,1,80,12|6,0:3|0:3,0:3:0:0:
222,130,134851,1,4,0:3:0:0:
222,130,134933,1,4,0:3:0:0:
240,272,135096,2,0,P|273:292|313:297,1,80,6|12,0:3|0:3,0:3:0:0:
228,97,135420,5,6,0:3:0:0:
228,97,135501,1,4,0:3:0:0:
228,97,135582,1,4,0:3:0:0:
60,263,135744,1,6,0:3:0:0:
60,263,135825,1,4,0:3:0:0:
60,263,135906,1,14,0:2:0:0:
289,324,136069,1,4,0:0:0:0:
289,324,136150,1,4,0:0:0:0:
289,324,136231,1,12,0:0:0:0:
95,131,136393,1,6,0:3:0:0:
157,359,136555,1,4,0:0:0:0:
325,193,136717,6,0,B|330:151|330:151|254:179|202:107,1,160,6|4,0:3|0:0,0:0:0:0:
94,115,137123,1,4,0:0:0:0:
112,105,137204,2,0,P|150:96|189:105,1,80,14|4,0:0|0:0,0:0:0:0:
352,21,137447,1,4,0:0:0:0:
352,21,137528,1,6,0:0:0:0:
240,229,137690,1,6,0:0:0:0:
115,28,137852,1,8,0:0:0:0:
323,140,138015,6,0,B|353:167|353:167|357:246|357:246|387:273,1,160,6|4,0:3|0:0,0:0:0:0:
508,352,138420,1,4,0:0:0:0:
508,332,138501,2,0,B|506:292|506:292|476:265,1,80,14|4,0:0|0:0,0:0:0:0:
280,292,138744,1,4,0:0:0:0:
280,292,138825,1,6,0:0:0:0:
456,143,138988,1,6,0:0:0:0:
238,65,139151,1,8,0:0:0:0:
388,242,139312,6,0,B|412:292|384:348|384:348|325:339,1,160,6|4,0:3|0:0,0:0:0:0:
212,248,139717,1,4,0:0:0:0:
228,235,139798,2,0,P|262:217|302:218,1,80,14|4,0:0|0:0,0:0:0:0:
436,272,140042,1,4,0:0:0:0:
436,272,140123,1,6,0:0:0:0:
180,228,140285,1,4,0:0:0:0:
346,28,140447,1,10,0:2:0:0:
302,284,140609,6,0,L|295:323,1,40,8|8,0:3|0:3,0:0:0:0:
124,344,140771,1,8,0:3:0:0:
91,324,140852,1,8,0:3:0:0:
65,293,140933,1,8,0:3:0:0:
50,256,141014,1,8,0:3:0:0:
48,216,141095,1,4,0:3:0:0:
58,178,141176,1,4,0:3:0:0:
80,144,141257,1,8,0:3:0:0:
111,120,141338,1,8,0:3:0:0:
149,106,141420,6,0,P|168:104|188:105,1,40,4|4,0:3|0:3,0:3:0:0:
294,208,141582,1,4,0:0:0:0:
282,170,141663,1,4,0:0:0:0:
258,138,141745,2,4,P|242:126|225:115,1,40
89,49,141906,6,0,P|165:29|261:49,1,160,6|4,0:3|0:0,0:0:0:0:
337,113,142312,1,4,0:0:0:0:
357,148,142393,1,6,0:0:0:0:
259,301,142555,1,4,0:0:0:0:
265,261,142636,1,4,0:0:0:0:
272,221,142717,1,14,0:0:0:0:
213,68,142879,1,4,0:0:0:0:
207,108,142960,1,4,0:0:0:0:
200,148,143041,1,6,0:0:0:0:
92,265,143204,5,4,0:0:0:0:
72,230,143285,1,4,0:0:0:0:
52,195,143366,2,0,P|61:119|131:86,1,160,6|6,0:0|0:0,0:0:0:0:
168,233,143853,1,4,0:0:0:0:
195,204,143934,1,4,0:0:0:0:
204,166,144015,2,0,P|202:146|194:128,1,40,14|0,0:0|0:0,0:0:0:0:
48,166,144177,2,0,P|50:185|58:204,1,40,6|0,0:0|0:0,0:0:0:0:
126,245,144339,2,0,P|145:242|164:234,1,40,6|0,0:0|0:0,0:0:0:0:
125,87,144501,6,0,P|142:23|192:67,1,160,6|4,0:3|0:0,0:0:0:0:
172,110,144906,1,4,0:0:0:0:
181,149,144988,1,6,0:0:0:0:
225,337,145150,1,4,0:0:0:0:
234,298,145231,1,4,0:0:0:0:
243,259,145312,1,14,0:0:0:0:
289,69,145474,1,4,0:0:0:0:
298,108,145555,1,4,0:0:0:0:
307,147,145636,1,6,0:0:0:0:
352,335,145798,5,4,0:0:0:0:
361,296,145880,1,4,0:0:0:0:
370,257,145960,2,0,P|395:227|434:220,1,80,6|4,0:3|0:0,0:0:0:0:
508,208,146204,1,4,0:0:0:0:
500,185,146285,2,0,P|488:168|435:144,1,80,6|4,0:0|0:0,0:0:0:0:
232,204,146609,1,8,0:0:0:0:
192,206,146690,1,8,0:0:0:0:
154,194,146771,1,8,0:0:0:0:
123,169,146852,1,8,0:0:0:0:
103,134,146933,1,8,0:0:0:0:
97,95,147014,1,8,0:0:0:0:
106,56,147096,6,0,P|147:162|114:224,1,160,6|4,0:3|0:0,0:0:0:0:
106,229,147501,1,4,0:0:0:0:
70,247,147582,1,14,0:2:0:0:
106,56,147744,1,4,0:0:0:0:
144,44,147825,1,4,0:0:0:0:
183,45,147906,1,6,0:2:0:0:
268,221,148069,1,4,0:0:0:0:
229,212,148150,1,4,0:0:0:0:
195,192,148231,1,14,0:2:0:0:
380,127,148393,5,4,0:0:0:0:
408,155,148474,1,4,0:0:0:0:
427,190,148555,1,6,0:2:0:0:
314,351,148717,1,4,0:0:0:0:
303,312,148798,1,4,0:0:0:0:
306,272,148879,1,14,0:2:0:0:
452,301,149042,1,4,0:0:0:0:
304,116,149204,1,6,0:2:0:0:
314,351,149366,1,6,0:2:0:0:
444,154,149528,1,8,0:0:0:0:
223,238,149690,6,0,P|145:225|87:171,1,160,6|4,0:3|0:0,0:0:0:0:
88,172,150096,1,4,0:0:0:0:
88,172,150177,1,14,0:2:0:0:
199,367,150339,1,4,0:0:0:0:
312,175,150501,1,6,0:0:0:0:
87,301,150663,1,6,0:0:0:0:
311,303,150826,1,8,0:0:0:0:
200,107,150988,6,0,P|238:41|314:44,1,160,6|4,0:3|0:0,0:0:0:0:
315,45,151393,1,4,0:0:0:0:
315,45,151474,1,14,0:2:0:0:
312,175,151636,1,4,0:0:0:0:
238,42,151798,1,8,0:0:0:0:
353,111,151960,1,8,0:0:0:0:
235,175,152123,1,8,0:0:0:0:
401,47,152285,6,0,B|468:93|453:181|396:238|288:224|245:148|261:77|312:25|361:45|361:45|361:177,1,540.000020599366,6|8,0:3|0:0,0:0:0:0:
361,245,153906,5,8,0:0:0:0:
281,290,154069,1,8,0:0:0:0:
121,198,154231,1,8,0:0:0:0:
201,153,154393,1,8,0:0:0:0:
281,199,154555,1,8,0:0:0:0:
281,381,154717,1,8,0:0:0:0:
201,335,154880,1,8,0:0:0:0:
201,244,155042,1,6,0:3:0:0:
160,239,165420,5,4,0:0:0:0:
160,239,165582,1,4,0:0:0:0:
160,239,165906,1,4,0:0:0:0:
240,100,166069,2,0,P|326:147|240:193,1,240,10|4,0:3|0:0,0:0:0:0:
240,194,166879,1,4,0:0:0:0:
400,195,167041,1,4,0:0:0:0:
240,194,167203,1,0,0:0:0:0:
400,195,167366,1,10,0:3:0:0:
319,331,167528,2,0,P|233:284|319:238,1,240,4|6,0:0|0:3,0:0:0:0:
320,239,168176,5,4,0:0:0:0:
320,240,168501,1,4,0:0:0:0:
399,376,168663,2,0,P|503:346|479:240,1,240,10|4,0:3|0:0,0:0:0:0:
479,240,169474,1,4,0:0:0:0:
318,146,169636,2,0,P|305:101|319:56,1,95.9999970703126,4|0,0:0|0:0,0:0:0:0:
400,194,169960,1,10,0:3:0:0:
479,147,170122,2,0,P|493:102|480:56,1,95.9999970703126,0|4,0:0|0:0,0:0:0:0:
400,12,170447,1,0,0:0:0:0:
400,103,170609,1,6,0:3:0:0:
400,103,170771,5,4,0:0:0:0:
400,103,171095,1,4,0:0:0:0:
239,11,171258,2,0,B|151:28|151:28|171:80|171:80|78:100,1,240,10|4,0:3|0:0,0:0:0:0:
79,100,172068,1,4,0:0:0:0:
240,102,172230,1,4,0:0:0:0:
79,100,172393,1,0,0:0:0:0:
240,102,172555,1,10,0:3:0:0:
160,238,172717,1,4,0:0:0:0:
241,376,172879,1,10,0:0:0:0:
80,374,173042,2,0,L|51:373,2,26.6666666666667,8|4|4,0:0|0:0|0:0,0:0:0:0:
161,331,173204,1,4,0:0:0:0:
158,145,173366,6,0,P|159:54|240:10,1,191.999994140625,10|4,0:3|0:0,0:0:0:0:
320,57,173852,2,0,P|392:94|399:11,1,191.999994140625,10|4,0:3|0:0,0:0:0:0:
240,102,174339,2,0,B|252:176|252:176|228:208|228:208|240:284,1,191.999994140625,10|4,0:2|0:0,0:0:0:0:
320,240,174825,2,0,P|240:192|160:240,1,191.999994140625,10|8,0:2|0:0,0:0:0:0:
319,331,175312,1,8,0:0:0:0:
441,195,175474,6,0,P|424:117|439:39,1,160,6|4,0:3|0:0,0:0:0:0:
438,39,176933,6,0,P|456:117|441:196,1,160,6|4,0:3|0:0,0:0:0:0:
306,277,177420,1,10,0:0:0:0:
371,79,177582,2,0,P|379:123|351:187,1,80,0|6,0:0|0:0,0:0:0:0:
222,223,177906,1,4,0:0:0:0:
185,206,177987,1,0,0:0:0:0:
158,178,178068,1,10,0:0:0:0:
143,141,178149,1,0,0:0:0:0:
144,101,178230,1,4,0:0:0:0:
159,64,178311,1,0,0:0:0:0:
188,36,178392,5,2,0:0:0:0:
192,40,178474,1,0,0:0:0:0:
196,44,178555,2,0,L|244:56,1,40,4|0,0:0|0:0,0:0:0:0:
384,92,178717,1,10,0:0:0:0:
380,96,178799,1,0,0:0:0:0:
376,100,178879,2,0,L|332:124,1,40,4|0,0:0|0:0,0:0:0:0:
208,192,179042,1,0,0:0:0:0:
212,196,179123,1,0,0:0:0:0:
216,200,179204,2,0,L|251:234,1,40,4|0,0:0|0:0,0:0:0:0:
352,330,179366,1,10,0:0:0:0:
348,334,179447,1,0,0:0:0:0:
344,338,179528,2,0,L|318:380,1,40,4|0,0:0|0:0,0:0:0:0:
164,352,179690,5,2,0:0:0:0:
125,357,179771,1,0,0:0:0:0:
92,335,179852,1,4,0:0:0:0:
81,297,179933,1,0,0:0:0:0:
97,262,180015,1,10,0:0:0:0:
122,231,180096,1,0,0:0:0:0:
128,192,180177,2,0,L|128:152,1,40
48,64,180339,6,0,P|46:44|51:24,1,40,4|0,0:0|0:0,0:0:0:0:
204,24,180501,2,0,P|208:43|207:63,1,40,4|0,0:0|0:0,0:0:0:0:
128,152,180663,2,0,L|128:216,1,40,10|0,0:0|0:0,0:0:0:0:
48,320,180825,6,0,P|43:339|44:359,1,40,4|0,0:0|0:0,0:0:0:0:
211,360,180988,2,0,P|212:340|207:320,1,40,6|0,0:0|0:0,0:0:0:0:
128,232,181150,2,0,L|128:192,1,40,4|0,0:0|0:0,0:0:0:0:
48,64,181312,6,0,P|46:44|51:24,1,40,10|0,0:0|0:0,0:0:0:0:
204,24,181474,2,0,P|208:43|207:63,1,40,4|0,0:0|0:0,0:0:0:0:
128,152,181636,2,0,L|128:216,1,40,6|0,0:0|0:0,0:0:0:0:
48,320,181798,6,0,P|43:339|44:359,1,40,4|0,0:0|0:0,0:0:0:0:
211,360,181961,2,0,P|212:340|207:320,1,40,10|0,0:0|0:0,0:0:0:0:
128,192,182123,2,0,P|181:119|177:209,1,240,6|10,0:2|0:0,0:0:0:0:
103,264,182771,6,0,P|109:327|153:280,1,160,4|4,0:0|0:0,0:0:0:0:
128,192,183258,6,0,P|170:144|177:208,1,160,14|6,0:0|0:0,0:0:0:0:
102,264,183744,6,0,P|110:327|153:280,1,160,4|4,0:0|0:0,0:0:0:0:
128,192,184231,6,0,B|175:182|175:182|268:292,1,160,6|14,0:0|0:0,0:0:0:0:
400,356,184717,6,0,B|432:344|432:344|432:312|432:312|472:280|464:224,1,160,4|4,0:0|0:0,0:0:0:0:
399,106,185204,1,10,0:0:0:0:
380,244,185366,1,4,0:0:0:0:
476,143,185528,1,6,0:0:0:0:
338,167,185690,2,0,P|315:135|312:96,1,80,6|8,0:0|0:0,0:0:0:0:
464,228,186015,6,0,P|442:302|370:329,1,160,6|6,0:2|0:3,0:0:0:0:
294,242,186501,1,10,0:0:0:0:
218,330,186663,2,0,P|146:302|124:229,1,160,6|4,0:3|0:0,0:0:0:0:
215,158,187150,1,10,0:0:0:0:
104,112,187312,6,0,P|60:60|124:32,1,160,6|0,0:3|0:0,0:0:0:0:
184,90,187717,2,0,P|177:148|134:188,1,120
0,276,188123,6,0,P|53:252|110:269,1,120,6|0,0:0|0:0,0:0:0:0:
268,277,188447,2,0,P|229:283|192:272,1,80,10|0,0:0|0:0,0:0:0:0:
256,120,188771,6,0,P|304:155|318:213,1,120,6|0,0:0|0:0,0:0:0:0:
408,340,189096,2,0,P|374:321|353:288,1,80,10|0,0:0|0:0,0:0:0:0:
408,176,189420,6,0,L|496:192,1,80,6|4,0:0|0:0,0:0:0:0:
486,1,189744,2,0,L|408:16,1,80,10|4,0:0|0:0,0:0:0:0:
280,92,189988,5,0,0:0:0:0:
270,97,190069,2,0,P|241:123|228:161,1,80,2|4,0:0|0:0,0:0:0:0:
237,200,190312,1,0,0:0:0:0:
247,239,190393,1,10,0:0:0:0:
374,370,190555,2,0,L|392:292,1,80,0|6,0:0|0:0,0:0:0:0:
120,292,190879,2,0,L|138:370,1,80,4|10,0:0|0:0,0:0:0:0:
352,192,191204,6,0,B|360:152|360:152|324:160|324:160|284:148|284:148|244:156,1,160,4|4,0:0|0:0,0:0:0:0:
200,252,191690,2,0,B|233:264|233:264|277:256,1,80,10|4,0:0|0:0,0:0:0:0:
284,100,192015,1,6,0:0:0:0:
145,171,192177,1,6,0:0:0:0:
277,256,192339,1,8,0:0:0:0:
256,32,192501,6,0,B|288:24|288:24|320:36|320:36|380:4|432:48,1,160,6|4,0:3|0:0,0:0:0:0:
500,256,192988,2,0,P|468:268|404:256,1,80,10|0,0:0|0:0,0:0:0:0:
368,112,193312,1,6,0:0:0:0:
452,180,193474,1,4,0:0:0:0:
351,218,193636,1,10,0:0:0:0:
468,73,193798,6,0,P|415:16|337:8,1,160,4|4,0:0|0:0,0:0:0:0:
220,246,194285,2,0,P|259:256|299:254,1,80,10|4,0:0|0:0,0:0:0:0:
368,112,194609,1,6,0:0:0:0:
267,150,194771,1,6,0:0:0:0:
351,218,194933,1,8,0:0:0:0:
284,44,195096,6,0,B|240:32|240:32|184:76|112:40,1,160,6|4,0:3|0:0,0:0:0:0:
12,152,195582,1,10,0:0:0:0:
46,132,195663,1,0,0:0:0:0:
86,127,195744,2,0,P|105:130|124:136,1,40,4|0,0:0|0:0,0:0:0:0:
212,194,195906,2,0,P|199:209|184:222,1,40,4|0,0:0|0:0,0:0:0:0:
91,270,196069,2,0,P|83:251|79:231,1,40,4|0,0:0|0:0,0:0:0:0:
157,143,196231,2,0,P|164:161|168:181,1,40,10|0,0:2|0:0,0:0:0:0:
206,320,196393,2,0,P|199:301|195:282,1,40,4|0,0:0|0:0,0:0:0:0:
272,193,196555,5,8,0:0:0:0:
303,219,196636,1,8,0:0:0:0:
340,232,196717,1,8,0:0:0:0:
380,232,196798,1,8,0:0:0:0:
417,218,196879,1,4,0:0:0:0:
447,192,196960,1,4,0:0:0:0:
466,157,197042,2,8,P|471:138|472:118,1,40
344,46,197204,5,8,0:0:0:0:
310,67,197285,1,8,0:0:0:0:
271,74,197366,1,4,0:0:0:0:
232,65,197447,1,4,0:0:0:0:
200,43,197528,1,8,0:3:0:0:
167,20,197609,1,8,0:3:0:0:
128,12,197690,1,4,0:3:0:0:
89,18,197771,1,4,0:3:0:0:
56,39,197852,5,6,0:3:0:0:
38,75,197933,1,0,0:0:0:0:
38,115,198015,2,0,P|43:132|55:150,1,40,4|0,0:0|0:0,0:0:0:0:
186,95,198177,1,10,0:0:0:0:
204,130,198258,1,0,0:0:0:0:
204,170,198340,2,0,P|198:187|186:205,1,40,4|0,0:0|0:0,0:0:0:0:
56,151,198501,1,2,0:0:0:0:
38,186,198582,1,0,0:0:0:0:
38,226,198663,2,0,P|43:243|55:261,1,40,4|0,0:0|0:0,0:0:0:0:
186,206,198825,1,10,0:0:0:0:
204,241,198906,1,0,0:0:0:0:
204,281,198988,2,0,P|198:298|186:316,1,40,4|0,0:0|0:0,0:0:0:0:
316,260,199150,5,6,0:0:0:0:
298,295,199231,1,0,0:0:0:0:
298,335,199313,2,0,P|303:352|315:370,1,40,4|0,0:0|0:0,0:0:0:0:
446,205,199474,1,10,0:0:0:0:
464,240,199555,1,0,0:0:0:0:
464,280,199637,2,0,P|458:297|446:315,1,40,4|0,0:0|0:0,0:0:0:0:
316,149,199798,1,2,0:0:0:0:
298,184,199879,1,0,0:0:0:0:
298,224,199961,2,0,P|303:241|315:259,1,40,4|0,0:0|0:0,0:0:0:0:
446,94,200123,1,10,0:0:0:0:
464,129,200204,1,0,0:0:0:0:
464,169,200286,2,0,P|458:186|446:204,1,40,4|0,0:0|0:0,0:0:0:0:
298,8,200447,5,6,0:2:0:0:
258,9,200528,1,0,0:0:0:0:
224,29,200609,2,0,P|211:44|203:62,1,40,4|0,0:0|0:0,0:0:0:0:
203,236,200771,1,10,0:0:0:0:
223,269,200852,1,0,0:0:0:0:
258,289,200933,2,0,P|277:292|297:290,1,40,4|0,0:0|0:0,0:0:0:0:
316,149,201096,1,2,0:0:0:0:
296,116,201177,1,0,0:0:0:0:
261,96,201258,2,0,P|241:92|221:94,1,40,4|0,0:0|0:0,0:0:0:0:
71,181,201420,1,10,0:0:0:0:
52,215,201501,1,0,0:0:0:0:
52,255,201582,2,0,P|59:273|70:289,1,40,4|0,0:0|0:0,0:0:0:0:
221,377,201744,5,6,0:0:0:0:
259,376,201825,1,0,0:0:0:0:
294,356,201906,2,0,P|306:340|314:322,1,40,4|0,0:0|0:0,0:0:0:0:
446,204,202069,1,10,0:0:0:0:
464,169,202150,1,0,0:0:0:0:
464,129,202231,2,0,P|456:110|445:94,1,40,4|0,0:0|0:0,0:0:0:0:
307,30,202393,5,2,0:0:0:0:
270,16,202474,1,0,0:0:0:0:
230,20,202555,1,4,0:0:0:0:
198,43,202636,1,0,0:0:0:0:
182,80,202717,1,10,0:0:0:0:
165,115,202798,1,0,0:0:0:0:
132,138,202879,1,4,0:0:0:0:
93,143,202960,1,0,0:0:0:0:
56,128,203042,6,0,L|52:56,1,40,6|0,0:3|0:0,0:0:0:0:
260,96,203204,2,0,L|255:168,1,40,4|0,0:0|0:0,0:0:0:0:
61,208,203366,2,0,L|56:135,1,40,10|0,0:0|0:0,0:0:0:0:
254,174,203528,2,0,L|249:246,1,40,4|0,0:0|0:0,0:0:0:0:
67,288,203690,2,0,L|62:215,1,40,2|0,0:0|0:0,0:0:0:0:
249,254,203852,2,0,L|244:326,1,40,4|0,0:0|0:0,0:0:0:0:
72,367,204015,2,0,L|67:294,1,40,10|0,0:0|0:0,0:0:0:0:
243,334,204177,2,0,L|238:406,1,40,4|0,0:0|0:0,0:0:0:0:
159,207,204339,6,0,B|140:148|220:112|254:174|254:174|272:152|272:152|292:172|292:172|308:156|308:156|332:168|332:168|360:160|392:172,1,320,6|2,0:3|0:0,0:0:0:0:
448,248,205150,2,0,P|448:272|423:321,1,80,4|10,0:0|0:2,0:0:0:0:
351,349,205474,1,0,0:0:0:0:
266,277,205636,5,6,0:3:0:0:
265,238,205717,1,4,0:0:0:0:
281,202,205798,1,4,0:0:0:0:
311,175,205879,1,4,0:0:0:0:
349,164,205960,1,8,0:0:0:0:
389,170,206042,1,8,0:0:0:0:
428,175,206123,1,8,0:0:0:0:
463,157,206204,1,8,0:0:0:0:
483,123,206285,1,8,0:3:0:0:
480,84,206366,1,8,0:3:0:0:
457,52,206447,1,8,0:3:0:0:
419,39,206528,1,8,0:3:0:0:
381,48,206609,2,0,P|366:61|354:77,3,40,4|4|4|4,0:0|0:0|0:0|0:0,0:0:0:0:
340,177,206933,5,8,0:0:0:0:
309,202,207014,1,4,0:0:0:0:
272,216,207095,1,4,0:0:0:0:
232,215,207176,1,4,0:0:0:0:
195,199,207258,2,0,P|179:187|167:172,1,40,4|4,0:0|0:0,0:0:0:0:
82,104,207420,1,8,0:3:0:0:
113,79,207501,1,4,0:0:0:0:
150,65,207582,1,4,0:0:0:0:
190,66,207663,1,4,0:0:0:0:
226,81,207745,2,0,P|241:93|254:108,1,40,4|4,0:0|0:0,0:0:0:0:
271,216,207906,1,8,0:0:0:0:
274,255,207988,1,8,0:0:0:0:
294,289,208068,1,8,0:0:0:0:
327,311,208149,1,8,0:0:0:0:
367,316,208231,6,0,P|404:301|432:273,1,80,6|4,0:3|0:0,0:0:0:0:
443,235,208473,1,4,0:0:0:0:
436,196,208554,1,14,0:0:0:0:
364,109,208717,2,0,L|361:149,1,40,4|4,0:0|0:0,0:0:0:0:
357,229,208879,1,6,0:0:0:0:
300,60,209042,2,0,L|287:97,1,40,4|4,0:0|0:0,0:0:0:0:
261,173,209204,1,14,0:0:0:0:
433,66,209366,2,0,L|441:105,1,40,4|4,0:0|0:0,0:0:0:0:
460,183,209528,6,0,P|468:221|464:261,1,80,6|4,0:3|0:0,0:0:0:0:
446,296,209771,1,4,0:0:0:0:
417,324,209852,1,14,0:0:0:0:
208,352,210015,2,0,L|179:323,1,40,4|4,0:0|0:0,0:0:0:0:
94,238,210177,1,6,0:0:0:0:
332,280,210339,2,0,L|321:240,1,40,4|4,0:0|0:0,0:0:0:0:
290,125,210501,1,14,0:0:0:0:
248,277,210664,2,0,L|227:241,1,40,4|4,0:0|0:0,0:0:0:0:
167,138,210825,6,0,P|168:98|182:61,1,80,6|4,0:3|0:0,0:0:0:0:
301,0,211069,1,4,0:0:0:0:
339,12,211150,2,0,P|372:32|397:64,1,80,14|4,0:0|0:0,0:0:0:0:
391,197,211393,1,4,0:0:0:0:
362,223,211474,2,0,P|326:241|287:247,1,80,6|4,0:0|0:0,0:0:0:0:
290,125,211717,1,4,0:0:0:0:
290,125,211798,1,14,0:0:0:0:
410,111,211960,2,0,L|420:188,1,40,4|4,0:0|0:0,0:0:0:0:
435,309,212123,6,0,P|367:317|307:281,1,120,6|0,0:2|0:0,0:0:0:0:
144,328,212447,2,0,P|212:320|272:356,1,120,14|0,0:2|0:0,0:0:0:0:
387,215,212771,1,6,0:0:0:0:
396,177,212852,1,8,0:0:0:0:
387,138,212933,1,8,0:0:0:0:
362,108,213014,1,8,0:0:0:0:
325,92,213095,1,8,0:0:0:0:
286,95,213176,1,8,0:0:0:0:
252,116,213258,1,8,0:0:0:0:
217,136,213339,1,8,0:0:0:0:
178,139,213420,6,0,P|141:123|117:92,1,80,6|6,0:2|0:3,0:0:0:0:
107,54,213663,1,4,0:3:0:0:
116,16,213744,1,8,0:3:0:0:
278,44,213907,1,6,0:3:0:0:
273,83,213988,1,4,0:3:0:0:
250,116,214069,2,0,P|229:149|225:188,1,80,4|6,0:3|0:3,0:3:0:0:
239,225,214312,1,4,0:3:0:0:
268,252,214393,1,8,0:3:0:0:
395,194,214555,2,0,P|396:174|393:155,1,40,6|4,0:3|0:3,0:3:0:0:
325,92,214717,6,0,P|273:84|237:108,1,80,6|6,0:2|0:3,0:0:0:0:
211,108,214960,1,4,0:3:0:0:
173,98,215041,1,8,0:3:0:0:
55,71,215204,1,6,0:3:0:0:
23,94,215285,1,4,0:3:0:0:
5,129,215366,2,0,P|3:149|7:169,3,40,6|8|8|8,0:3|0:0|0:0|0:0,0:0:0:0:
120,216,215690,2,0,P|123:235|121:255,3,40,4|4|4|4,0:0|0:0|0:0|0:0,0:0:0:0:
12,311,216015,5,10,0:2:0:0:
35,343,216096,1,4,0:0:0:0:
68,366,216177,1,4,0:0:0:0:
106,378,216258,1,4,0:0:0:0:
146,375,216339,2,0,P|165:369|183:360,1,40,4|4,0:0|0:0,0:0:0:0:
284,236,216501,1,10,0:3:0:0:
295,198,216582,1,4,0:0:0:0:
289,159,216663,1,4,0:0:0:0:
283,119,216744,1,4,0:0:0:0:
295,82,216825,2,4,P|307:66|323:54,1,40
475,159,216988,1,10,0:3:0:0:
447,131,217069,1,4,0:0:0:0:
409,118,217150,2,4,P|389:118|369:124,1,40
208,192,217312,5,10,0:3:0:0:
168,198,217393,1,4,0:0:0:0:
131,185,217474,1,4,0:0:0:0:
103,157,217555,1,4,0:0:0:0:
92,119,217636,2,4,P|94:96|99:80,1,40
275,40,217798,1,10,0:2:0:0:
279,79,217879,1,4,0:0:0:0:
284,119,217960,1,4,0:0:0:0:
289,159,218041,1,4,0:0:0:0:
294,199,218123,2,4,L|300:249,1,40
405,359,218285,1,10,0:2:0:0:
373,335,218366,1,4,0:0:0:0:
334,327,218447,2,4,P|315:328|296:334,1,40
147,249,218609,5,10,0:3:0:0:
159,287,218690,1,4,0:0:0:0:
183,319,218771,1,4,0:0:0:0:
218,338,218852,1,4,0:0:0:0:
257,344,218933,2,4,P|277:341|296:334,1,40
371,117,219096,1,10,0:3:0:0:
399,145,219177,1,4,0:0:0:0:
414,182,219258,1,4,0:0:0:0:
414,222,219339,1,4,0:0:0:0:
399,259,219420,2,4,P|387:274|372:287,1,40
293,74,219582,1,10,0:2:0:0:
255,64,219663,1,4,0:0:0:0:
216,70,219744,2,4,P|197:78|181:89,1,40
159,287,219906,5,10,0:0:0:0:
399,259,220123,1,8,0:3:0:0:
255,64,220339,1,8,0:3:0:0:
291,369,220555,5,4,0:3:0:0:
406,103,220771,1,4,0:3:0:0:
117,136,220988,2,0,L|141:145,1,26.6666666666667,4|8,0:3|0:3,0:0:0:0:
456,282,221204,5,4,0:3:0:0:
456,282,221528,5,6,0:3:0:0:
249,3,222015,5,6,0:2:0:0:
109,323,222501,6,0,L|91:363,2,40,6|4|4,0:3|0:0|0:0,0:0:0:0:
141,248,222744,1,0,0:0:0:0:
173,226,222825,2,0,P|211:214|251:215,1,80,10|4,0:2|0:0,0:0:0:0:
321,253,223068,1,4,0:0:0:0:
321,253,223150,1,4,0:0:0:0:
296,108,223312,1,10,0:2:0:0:
232,241,223474,2,0,L|182:280,1,40,4|4,0:0|0:0,0:0:0:0:
362,172,223636,2,0,L|425:168,1,40,4|4,0:0|0:0,0:0:0:0:
216,151,223798,6,0,L|162:116,1,40,10|4,0:3|0:0,0:0:0:0:
81,63,223960,2,0,L|79:102,1,40,4|4,0:0|0:0,0:0:0:0:
72,223,224123,2,0,L|107:204,1,40,4|4,0:0|0:0,0:0:0:0:
174,99,224285,6,0,L|117:128,1,40,10|4,0:2|0:0,0:0:0:0:
30,172,224447,2,0,L|64:194,1,40,4|4,0:0|0:0,0:0:0:0:
164,260,224609,2,0,L|166:220,1,40,4|4,0:0|0:0,0:0:0:0:
81,127,224771,6,0,L|77:190,1,40,10|4,0:3|0:0,0:0:0:0:
72,287,224933,2,0,L|107:268,1,40,4|4,0:0|0:0,0:0:0:0:
216,215,225096,2,0,L|182:193,3,40,10|4|4|4,0:2|0:0|0:0|0:0,0:0:0:0:
316,280,225420,2,0,L|349:301,3,40,10|4|4|4,0:2|0:0|0:0|0:0,0:0:0:0:
368,227,225744,5,8,0:0:0:0:
392,196,225825,1,8,0:0:0:0:
400,157,225906,1,8,0:0:0:0:
389,119,225987,1,8,0:0:0:0:
361,90,226068,1,4,0:0:0:0:
324,77,226149,1,4,0:0:0:0:
285,82,226230,1,4,0:0:0:0:
252,105,226311,1,4,0:0:0:0:
233,139,226393,6,0,B|245:177|245:177|240:216,1,80,6|4,0:3|0:0,0:0:0:0:
142,300,226717,1,10,0:0:0:0:
48,140,226879,2,0,B|75:110|75:110|111:94,1,80,4|6,0:0|0:0,0:0:0:0:
233,139,227204,1,4,0:0:0:0:
142,300,227366,2,0,B|102:291|102:291|71:267,1,80,10|4,0:0|0:0,0:0:0:0:
223,59,227690,6,0,L|233:139,1,80,6|4,0:3|0:0,0:0:0:0:
288,324,228015,2,0,L|279:245,1,80,10|4,0:0|0:0,0:0:0:0:
156,112,228339,2,0,L|144:191,1,80,6|4,0:0|0:0,0:0:0:0:
356,272,228663,2,0,L|367:192,1,80,10|4,0:2|0:0,0:0:0:0:
436,145,228988,5,6,0:3:0:0:
449,182,229069,1,4,0:0:0:0:
444,221,229150,1,8,0:3:0:0:
420,253,229231,1,8,0:3:0:0:
384,270,229312,1,4,0:3:0:0:
345,268,229393,1,8,0:3:0:0:
311,248,229474,1,4,0:3:0:0:
290,215,229555,1,4,0:3:0:0:
291,175,229636,1,4,0:3:0:0:
281,136,229717,1,4,0:3:0:0:
261,101,229798,1,4,0:3:0:0:
233,73,229879,1,4,0:3:0:0:
198,54,229960,1,4,0:3:0:0:
159,45,230041,1,4,0:3:0:0:
119,46,230122,1,4,0:3:0:0:
81,58,230203,1,4,0:3:0:0:
48,80,230285,6,0,L|40:144,1,40,14|4,0:0|0:0,0:0:0:0:
145,192,230447,2,0,L|153:255,1,40,14|4,0:0|0:0,0:0:0:0:
48,303,230609,2,0,L|45:334,4,26.6666666666667,4|4|4|4|4,0:0|0:0|0:0|0:0|0:0,0:0:0:0:
228,272,230933,1,10,0:0:0:0:
268,268,231014,1,10,0:0:0:0:
300,250,231096,1,10,0:0:0:0:
325,228,231177,1,10,0:0:0:0:
343,205,231258,1,10,0:0:0:0:
353,183,231339,1,10,0:0:0:0:
359,163,231420,1,10,0:0:0:0:
363,147,231501,1,10,0:0:0:0:
364,135,231582,6,0,P|396:198|461:224,1,143.999995605469,10|4,0:3|0:0,0:0:0:0:
478,34,231906,2,0,P|431:35|390:59,1,95.9999970703126,10|4,0:0|0:0,0:0:0:0:
300,180,232150,1,4,0:0:0:0:
260,184,232231,2,0,P|213:182|172:158,1,95.9999970703126,6|4,0:0|0:0,0:0:0:0:
112,64,232474,1,4,0:0:0:0:
105,41,232555,6,0,B|100:24|100:24|76:124,1,95.9999970703126,10|4,0:0|0:0,0:0:0:0:
148,344,232879,2,0,B|153:361|153:361|177:261,1,95.9999970703126,6|4,0:0|0:0,0:0:0:0:
284,56,233204,2,0,B|289:39|289:39|313:139,1,95.9999970703126,10|4,0:3|0:0,0:0:0:0:
327,359,233528,6,0,B|352:368|352:368|376:352|376:352|440:360|484:304|460:236,1,191.999994140625,6|10,0:2|0:0,0:0:0:0:
460,72,234015,1,4,0:0:0:0:
431,34,234096,1,4,0:0:0:0:
385,21,234177,1,6,0:0:0:0:
313,225,234339,1,4,0:0:0:0:
342,263,234420,1,4,0:0:0:0:
387,276,234501,6,0,P|424:247|435:201,1,95.9999970703126,10|4,0:0|0:0,0:0:0:0:
352,28,234825,2,0,P|308:9|263:23,1,95.9999970703126,6|4,0:0|0:0,0:0:0:0:
155,183,235150,2,0,P|160:229|194:261,1,95.9999970703126,10|4,0:3|0:0,0:0:0:0:
368,120,235474,6,0,B|344:116|316:124|316:124|280:108|280:108|252:120|220:116|220:116|196:92|156:88,1,191.999994140625,6|10,0:3|0:0,0:0:0:0:
32,204,235960,1,4,0:0:0:0:
23,250,236041,1,4,0:0:0:0:
35,296,236122,1,6,0:0:0:0:
216,368,236285,1,4,0:0:0:0:
224,321,236366,1,4,0:0:0:0:
212,275,236447,6,0,B|204:235|212:199|212:199|180:167|180:167|188:131|180:95,1,191.999994140625,10|6,0:2|0:0,0:0:0:0:
131,228,236933,2,4,P|131:251|135:275,1,47.9999985351563
176,344,237095,1,10,0:0:0:0:
259,135,237257,2,4,P|259:111|256:88,1,47.9999985351563
207,16,237419,6,0,P|177:52|170:99,1,95.9999970703126,6|4,0:3|0:0,0:0:0:0:
440,80,237744,2,0,P|423:35|386:6,1,95.9999970703126,10|4,0:2|0:0,0:0:0:0:
268,248,238068,2,0,P|314:256|358:238,1,95.9999970703126,10|4,0:2|0:0,0:0:0:0:
294,68,238392,5,8,0:0:0:0:
299,116,238473,1,8,0:0:0:0:
304,164,238554,2,8,L|311:238,1,47.9999985351563
396,276,238717,1,8,0:0:0:0:
391,228,238798,1,8,0:0:0:0:
386,180,238879,2,8,L|378:105,1,47.9999985351563
220,148,239041,1,8,0:0:0:0:
215,195,239122,1,8,0:0:0:0:
210,242,239203,1,8,0:0:0:0:
205,290,239284,1,8,0:0:0:0:
201,338,239365,6,0,P|229:375|275:387,1,95.9999970703126,6|4,0:3|0:0,0:0:0:0:
472,168,239690,1,10,0:3:0:0:
276,308,239852,1,4,0:0:0:0:
300,136,240014,1,6,0:3:0:0:
476,276,240176,1,4,0:0:0:0:
367,59,240338,6,0,P|325:38|277:37,1,95.9999970703126,10|4,0:3|0:0,0:0:0:0:
237,259,240663,2,0,P|212:299|172:326,1,95.9999970703126,10|4,0:2|0:0,0:0:0:0:
64,116,240987,2,0,P|41:74|38:26,1,95.9999970703126,10|4,0:2|0:0,0:0:0:0:
300,136,241311,6,0,B|344:156|344:156|368:196,1,95.9999970703126,6|4,0:3|0:0,0:0:0:0:
72,212,241636,1,10,0:3:0:0:
280,232,241798,1,4,0:0:0:0:
120,328,241960,1,6,0:3:0:0:
224,132,242122,1,4,0:0:0:0:
388,328,242284,6,0,B|328:352|328:352|272:344,1,95.9999970703126,10|4,0:3|0:0,0:0:0:0:
172,72,242609,2,0,B|152:96|152:96|143:160,1,95.9999970703126,6|4,0:3|0:0,0:0:0:0:
471,100,242933,2,0,B|459:70|459:70|408:30,1,95.9999970703126,10|4,0:2|0:0,0:0:0:0:
212,312,243257,5,6,0:3:0:0:
108,128,243419,1,4,0:0:0:0:
118,81,243500,1,4,0:0:0:0:
129,34,243581,1,10,0:3:0:0:
347,152,243744,1,4,0:0:0:0:
357,199,243825,1,4,0:0:0:0:
368,246,243906,1,6,0:3:0:0:
112,240,244068,1,4,0:0:0:0:
245,21,244230,5,10,0:3:0:0:
23,106,244392,1,4,0:0:0:0:
34,153,244473,1,4,0:0:0:0:
44,200,244554,1,6,0:3:0:0:
184,372,244717,1,4,0:0:0:0:
194,325,244798,1,4,0:0:0:0:
205,278,244879,1,10,0:3:0:0:
257,52,245041,1,4,0:0:0:0:
368,246,245203,5,10,0:2:0:0:
429,17,245365,1,10,0:2:0:0:
230,131,245527,1,4,0:0:0:0:
459,193,245690,1,10,0:2:0:0:
321,78,245852,1,10,0:2:0:0:
260,307,246014,1,4,0:0:0:0:
122,192,246176,5,8,0:0:0:0:
168,204,246257,1,8,0:0:0:0:
214,216,246338,2,8,L|260:228,1,47.9999985351563
478,192,246500,1,4,0:0:0:0:
432,204,246581,1,4,0:0:0:0:
386,216,246662,2,4,L|340:228,1,47.9999985351563
207,291,246825,1,4,0:0:0:0:
253,303,246906,1,4,0:0:0:0:
300,316,246987,1,4,0:0:0:0:
346,303,247068,1,4,0:0:0:0:
391,289,247149,6,0,B|428:256|428:256|434:209,1,95.9999970703126,6|4,0:3|0:0,0:0:0:0:
488,112,247392,1,4,0:0:0:0:
488,112,247473,2,0,P|442:101|395:106,1,95.9999970703126,10|4,0:2|0:0,0:0:0:0:
280,168,247717,1,4,0:0:0:0:
280,168,247798,2,0,B|296:64,1,95.9999970703126,10|4,0:2|0:0,0:0:0:0:
144,56,248041,1,4,0:0:0:0:
144,56,248122,6,0,B|136:80|136:80|160:120|160:120|152:144,1,95.9999970703126,10|4,0:2|0:0,0:0:0:0:
0,320,248446,2,0,B|24:314|24:314|47:274|47:274|72:269,1,95.9999970703126,10|4,0:2|0:0,0:0:0:0:
301,313,248771,2,0,B|284:294|284:294|237:294|237:294|220:275,1,95.9999970703126,10|4,0:3|0:0,0:0:0:0:
376,104,249095,6,0,P|392:144|376:232,1,95.9999970703126,10|4,0:3|0:0,0:0:0:0:
312,296,249338,1,4,0:0:0:0:
312,296,249419,2,0,L|408:288,1,95.9999970703126,10|4,0:2|0:0,0:0:0:0:
280,168,249663,1,4,0:0:0:0:
280,168,249744,2,0,B|232:160|232:160|200:120,1,95.9999970703126,10|4,0:2|0:0,0:0:0:0:
384,80,249987,1,4,0:0:0:0:
384,80,250068,6,0,B|376:104|376:104|410:144|387:206,1,95.9999970703126,10|4,0:2|0:0,0:0:0:0:
152,122,250392,2,0,B|176:116|176:116|194:67|259:56,1,95.9999970703126,10|4,0:2|0:0,0:0:0:0:
305,303,250717,2,0,B|288:284|288:284|236:293|194:242,1,95.9999970703126,10|4,0:3|0:0,0:0:0:0:
480,152,251041,5,10,0:3:0:0:
474,200,251122,1,4,0:0:0:0:
444,236,251203,1,4,0:0:0:0:
400,251,251284,1,4,0:0:0:0:
354,240,251365,1,10,0:2:0:0:
321,206,251446,1,4,0:0:0:0:
311,160,251527,1,4,0:0:0:0:
293,117,251608,1,4,0:0:0:0:
248,105,251689,1,10,0:2:0:0:
210,133,251771,1,4,0:0:0:0:
208,179,251852,2,4,P|224:200|244:210,1,47.9999985351563
395,169,252014,5,10,0:2:0:0:
441,180,252095,1,4,0:0:0:0:
475,213,252176,1,4,0:0:0:0:
484,260,252257,1,4,0:0:0:0:
466,304,252338,1,10,0:2:0:0:
428,331,252419,1,4,0:0:0:0:
380,333,252500,1,4,0:0:0:0:
340,308,252581,1,4,0:0:0:0:
297,287,252663,1,10,0:2:0:0:
250,285,252743,1,4,0:0:0:0:
205,304,252825,2,0,P|185:315|162:322,1,47.9999985351563
40,253,252987,5,10,0:2:0:0:
40,253,253960,5,6,0:2:0:0:
40,253,254771,6,0,B|12:240|12:240|12:216|12:216|-8:184|-8:144|36:108,1,160,6|4,0:3|0:0,0:0:0:0:
108,112,255176,1,4,0:0:0:0:
108,112,255257,1,14,0:0:0:0:
227,223,255419,2,4,L|188:205,1,40
66,203,255581,1,6,0:0:0:0:
208,124,255743,2,4,L|179:155,1,40
139,271,255905,1,14,0:0:0:0:
161,102,256068,5,4,0:0:0:0:
161,102,256149,1,4,0:0:0:0:
161,102,256230,2,0,P|196:85|236:85,1,80,6|4,0:0|0:0,0:0:0:0:
191,262,256473,1,4,0:0:0:0:
191,262,256554,2,0,P|155:279|116:279,1,80,14|4,0:0|0:0,0:0:0:0:
73,151,256797,1,4,0:0:0:0:
73,151,256878,2,0,P|59:113|64:74,1,80,6|4,0:0|0:0,0:0:0:0:
92,249,257203,1,8,0:0:0:0:
234,170,257365,6,0,B|269:148|312:157|312:157|338:203|394:203,1,160,6|4,0:3|0:0,0:0:0:0:
386,119,257770,1,4,0:0:0:0:
386,119,257851,1,14,0:0:0:0:
313,260,258014,2,4,L|368:206,1,40
454,188,258176,1,6,0:0:0:0:
297,162,258338,2,4,L|364:197,1,40
408,274,258500,1,14,0:0:0:0:
386,119,258662,2,4,L|375:187,1,40
192,244,258824,6,0,P|230:233|270:238,1,80,6|4,0:0|0:0,0:0:0:0:
420,292,259068,1,4,0:0:0:0:
404,304,259149,2,0,P|366:315|326:310,1,80,14|4,0:0|0:0,0:0:0:0:
238,325,259392,1,4,0:0:0:0:
238,325,259473,1,6,0:0:0:0:
357,222,259635,1,6,0:0:0:0:
388,376,259797,1,8,0:0:0:0:
270,238,259960,6,0,B|258:198|258:198|298:214|334:194|334:194|382:202,1,160,6|4,0:3|0:0,0:0:0:0:
470,214,260365,2,0,L|518:222,1,40,4|14,0:0|0:0,0:0:0:0:
297,121,260608,2,0,L|342:113,1,40,4|4,0:0|0:0,0:0:0:0:
454,94,260770,1,6,0:0:0:0:
241,193,260933,2,0,L|281:200,1,40,4|4,0:0|0:0,0:0:0:0:
398,220,261095,1,14,0:0:0:0:
185,119,261257,6,0,B|249:135|285:71|285:71|270:42|236:20,1,160,6|4,0:2|0:0,0:0:0:0:
226,21,261663,1,4,0:0:0:0:
186,22,261744,1,14,0:0:0:0:
98,186,261905,1,4,0:0:0:0:
127,212,261986,1,4,0:0:0:0:
164,227,262068,1,6,0:0:0:0:
290,83,262230,1,6,0:0:0:0:
102,47,262392,1,8,0:0:0:0:
204,228,262554,6,0,B|214:282|214:282|186:326|186:326|198:386,1,160,6|4,0:3|0:0,0:0:0:0:
125,281,262960,1,4,0:0:0:0:
121,261,263041,2,0,P|116:222|127:184,1,80,14|4,0:0|0:0,0:0:0:0:
294,230,263284,1,4,0:0:0:0:
298,250,263365,2,0,P|303:289|292:327,1,80,6|4,0:0|0:0,0:0:0:0:
196,377,263608,1,4,0:0:0:0:
196,377,263689,1,14,0:2:0:0:
318,268,263851,5,8,0:0:0:0:
333,281,263932,1,8,0:0:0:0:
349,294,264013,1,8,0:0:0:0:
388,296,264095,1,8,0:0:0:0:
421,276,264176,1,8,0:0:0:0:
437,239,264257,1,8,0:0:0:0:
428,201,264338,1,8,0:0:0:0:
399,174,264419,1,8,0:0:0:0:
370,148,264500,1,8,0:0:0:0:
361,110,264581,1,8,0:0:0:0:
375,73,264662,2,0,P|390:60|409:52,1,40,8|4,0:0|0:0,0:0:0:0:
490,94,264824,2,0,P|493:113|491:133,1,40,4|4,0:0|0:0,0:0:0:0:
416,252,264987,5,4,0:0:0:0:
400,264,265068,1,4,0:0:0:0:
384,276,265149,2,0,P|324:300|219:259,1,160,6|6,0:3|0:3,0:0:0:0:
116,192,265554,1,4,0:0:0:0:
128,176,265635,2,0,B|160:146|160:146|195:136,1,80,12|6,0:0|0:3,0:0:0:0:
288,160,265878,1,4,0:0:0:0:
288,160,265960,1,4,0:0:0:0:
132,292,266122,2,0,P|102:314|42:318,1,80,6|12,0:3|0:0,0:0:0:0:
40,92,266446,5,6,0:3:0:0:
62,59,266527,1,4,0:0:0:0:
98,42,266608,1,4,0:0:0:0:
184,142,266770,1,6,0:3:0:0:
187,103,266851,1,4,0:0:0:0:
170,67,266932,1,12,0:0:0:0:
126,192,267094,1,6,0:3:0:0:
87,190,267175,1,4,0:0:0:0:
54,167,267257,2,0,P|42:150|37:109,1,40,6|4,0:0|0:0,0:0:0:0:
137,44,267419,2,0,P|155:53|170:67,1,40,4|4,0:0|0:0,0:0:0:0:
162,175,267581,1,8,0:0:0:0:
296,48,267743,6,0,B|332:28|332:28|372:48|372:48|428:28|468:72,1,160,6|6,0:3|0:3,0:0:0:0:
477,82,268149,1,4,0:0:0:0:
491,119,268230,1,12,0:0:0:0:
420,248,268392,1,6,0:3:0:0:
380,253,268473,1,4,0:0:0:0:
342,241,268554,2,0,P|313:213|299:176,1,80,4|6,0:0|0:3,0:0:0:0:
488,200,268878,1,12,0:0:0:0:
303,95,269041,5,6,0:3:0:0:
303,95,269122,1,4,0:0:0:0:
303,95,269203,1,4,0:0:0:0:
131,241,269365,1,6,0:0:0:0:
131,241,269446,1,4,0:0:0:0:
131,241,269527,1,14,0:2:0:0:
343,316,269689,1,4,0:0:0:0:
343,316,269770,1,4,0:0:0:0:
343,316,269851,1,12,0:0:0:0:
175,118,270014,1,6,0:3:0:0:
216,340,270176,1,4,0:0:0:0:
387,193,270338,6,0,P|407:122|342:86,1,160,6|4,0:3|0:0,0:0:0:0:
211,41,270743,1,4,0:0:0:0:
232,76,270824,2,0,P|266:95|306:96,1,80,14|4,0:0|0:0,0:0:0:0:
379,15,271068,1,4,0:0:0:0:
379,15,271149,1,6,0:0:0:0:
249,187,271311,1,6,0:0:0:0:
463,214,271473,1,8,0:0:0:0:
231,76,271635,6,0,P|158:119|137:202,1,176.000005371094,6|4,0:3|0:0,0:0:0:0:
32,312,272041,1,4,0:0:0:0:
68,288,272122,2,0,P|97:251|104:212,1,88.000002685547,14|4,0:0|0:0,0:0:0:0:
108,124,272365,1,4,0:0:0:0:
108,112,272446,1,6,0:0:0:0:
108,344,272608,1,6,0:0:0:0:
308,228,272770,1,8,0:0:0:0:
77,229,272933,6,0,B|64:268|64:268|111:243|168:260|192:316,1,191.999994140625,6|4,0:3|0:0,0:0:0:0:
388,260,273338,1,4,0:0:0:0:
356,296,273419,2,0,P|304:312|266:300,1,95.9999970703126,14|4,0:0|0:0,0:0:0:0:
152,200,273662,1,4,0:0:0:0:
140,184,273743,1,6,0:0:0:0:
376,145,273905,1,4,0:0:0:0:
292,368,274068,1,8,0:2:0:0:
252,131,274230,6,0,P|255:112|276:72,1,47.9999985351563,8|8,0:3|0:3,0:0:0:0:
416,25,274392,1,8,0:3:0:0:
450,57,274473,1,8,0:3:0:0:
453,104,274554,1,8,0:3:0:0:
422,140,274635,1,8,0:3:0:0:
376,145,274716,1,4,0:3:0:0:
330,156,274797,1,4,0:3:0:0:
300,193,274878,1,8,0:3:0:0:
299,240,274959,1,8,0:3:0:0:
326,279,275041,2,0,P|344:294|367:301,1,47.9999985351563,4|4,0:3|0:3,0:3:0:0:
475,193,275203,1,4,0:3:0:0:
476,240,275284,1,4,0:3:0:0:
449,279,275365,2,0,P|431:294|408:301,1,47.9999985351563,4|4,0:3|0:3,0:3:0:0:
191,209,275527,6,0,P|146:268|189:330,1,160,6|4,0:3|0:3,0:3:0:0:
228,330,275933,1,4,0:0:0:0:
260,307,276014,1,6,0:0:0:0:
216,136,276176,1,4,0:0:0:0:
200,124,276257,1,4,0:0:0:0:
184,112,276338,1,14,0:0:0:0:
392,172,276500,1,4,0:0:0:0:
408,160,276581,1,4,0:0:0:0:
424,148,276662,1,6,0:0:0:0:
192,208,276824,5,4,0:0:0:0:
176,220,276905,1,4,0:0:0:0:
160,232,276987,2,0,P|228:240|256:264,1,80,6|4,0:0|0:0,0:0:0:0:
384,256,277230,1,4,0:0:0:0:
400,268,277311,2,0,P|332:260|304:236,1,80,6|4,0:0|0:0,0:0:0:0:
200,304,277554,1,4,0:0:0:0:
184,316,277635,1,14,0:0:0:0:
376,184,277797,1,6,0:0:0:0:
346,346,277960,1,6,0:0:0:0:
214,154,278122,6,0,B|228:132|228:100|228:100|292:128|344:64,1,160,6|4,0:3|0:0,0:0:0:0:
464,48,278527,1,4,0:0:0:0:
480,60,278608,2,4,P|440:61|406:81,1,80,6|4,0:0|0:0,0:0:0:0:
280,36,278851,1,4,0:0:0:0:
264,24,278933,2,4,P|298:4|337:2,1,80,14|4,0:0|0:0,0:0:0:0:
480,132,279176,1,4,0:0:0:0:
464,144,279257,2,4,P|429:163|390:165,1,80,6|4,0:0|0:0,0:0:0:0:
228,100,279581,6,4,B|192:80|181:38|181:38|143:56|131:104,1,160,6|6,0:3|0:0,0:0:0:0:
125,245,280068,1,4,0:0:0:0:
129,265,280149,1,4,0:0:0:0:
133,285,280230,1,8,0:0:0:0:
150,320,280311,1,8,0:0:0:0:
181,345,280392,1,8,0:0:0:0:
219,354,280473,1,8,0:0:0:0:
258,345,280554,1,8,0:0:0:0:
289,319,280635,1,8,0:0:0:0:
319,293,280716,6,4,P|396:292|445:353,1,160,6|4,0:3|0:0,0:0:0:0:
445,353,281122,1,4,0:0:0:0:
445,353,281203,2,4,P|468:321|474:282,1,80,14|4,0:2|0:0,0:0:0:0:
343,208,281446,1,4,0:0:0:0:
343,208,281527,2,4,P|348:247|372:280,1,80,6|4,0:2|0:0,0:0:0:0:
472,134,281770,1,4,0:0:0:0:
472,134,281851,1,14,0:2:0:0:
344,60,282014,6,0,B|304:64|304:64|264:48,1,80,4|6,0:0|0:2,0:0:0:0:
136,192,282338,1,4,0:0:0:0:
175,188,282419,1,4,0:0:0:0:
212,202,282500,1,14,0:2:0:0:
388,288,282662,1,4,0:0:0:0:
388,288,282743,1,4,0:0:0:0:
388,288,282824,1,6,0:2:0:0:
166,304,282987,1,6,0:3:0:0:
265,104,283149,1,8,0:0:0:0:
281,326,283311,6,0,B|284:368|284:368|240:304|144:328,1,160,6|4,0:2|0:0,0:0:0:0:
16,320,283716,1,4,0:0:0:0:
0,332,283797,2,0,P|35:348|75:350,1,80,14|4,0:2|0:0,0:0:0:0:
240,248,284041,1,4,0:0:0:0:
256,235,284122,2,0,P|295:235|332:250,1,80,14|4,0:2|0:0,0:0:0:0:
496,316,284366,1,4,0:0:0:0:
512,328,284446,1,6,0:3:0:0:
481,142,284608,5,4,0:0:0:0:
485,138,284689,1,4,0:0:0:0:
489,134,284770,1,8,0:3:0:0:
500,96,284851,1,4,0:3:0:0:
481,63,284932,1,4,0:3:0:0:
443,54,285013,1,4,0:3:0:0:
411,76,285094,1,8,0:3:0:0:
406,114,285176,1,8,0:3:0:0:
401,153,285257,1,8,0:3:0:0:
376,184,285338,1,8,0:3:0:0:
338,197,285419,1,4,0:3:0:0:
300,188,285500,1,4,0:3:0:0:
272,160,285580,1,4,0:3:0:0:
241,135,285661,1,4,0:3:0:0:
203,124,285742,1,4,0:3:0:0:
163,130,285823,1,4,0:3:0:0:
130,151,285905,6,0,P|99:223|132:293,1,160,6|4,0:2|0:0,0:0:0:0:
273,279,286310,1,4,0:0:0:0:
291,242,286392,2,4,P|293:223|292:203,1,40,14|4,0:3|0:0,0:0:0:0:
130,151,286554,1,4,0:0:0:0:
99,125,286634,1,4,0:0:0:0:
81,88,286716,2,4,P|79:69|80:49,1,40,14|4,0:3|0:0,0:0:0:0:
287,23,286878,1,4,0:0:0:0:
250,38,286959,1,4,0:0:0:0:
213,52,287041,2,4,L|157:73,1,40,14|4,0:3|0:0,0:0:0:0:
196,221,287203,5,4,0:0:0:0:
158,235,287284,1,4,0:0:0:0:
121,249,287366,2,4,L|65:270,1,40,14|4,0:3|0:0,0:0:0:0:
272,136,287527,1,4,0:0:0:0:
309,150,287608,1,4,0:0:0:0:
346,164,287690,2,4,L|401:185,1,40,14|4,0:3|0:0,0:0:0:0:
363,333,287852,1,4,0:0:0:0:
401,347,287932,1,4,0:0:0:0:
438,361,288015,6,4,L|493:382,1,40,14|4,0:3|0:0,0:0:0:0:
367,206,288176,2,4,L|329:191,1,40,6|4,0:0|0:0,0:0:0:0:
325,319,288338,2,4,L|310:356,1,40,14|4,0:3|0:0,0:0:0:0:
480,248,288500,2,4,L|494:210,1,40,6|4,0:2|0:0,0:0:0:0:
450,16,288662,6,4,L|428:62,1,47.9999985351563,14|4,0:0|0:0,0:0:0:0:
239,50,288824,1,4,0:0:0:0:
256,90,288905,1,4,0:0:0:0:
273,130,288987,2,4,L|296:184,1,47.9999985351563,14|4,0:3|0:0,0:0:0:0:
503,182,289149,1,4,0:0:0:0:
485,222,289230,1,4,0:0:0:0:
468,262,289312,2,4,L|446:311,1,47.9999985351563,14|4,0:3|0:0,0:0:0:0:
272,332,289472,1,4,0:0:0:0:
254,292,289553,1,4,0:0:0:0:
237,253,289635,2,4,L|200:170,1,47.9999985351563,14|4,0:3|0:0,0:0:0:0:
4,165,289797,5,4,0:0:0:0:
22,125,289878,1,4,0:0:0:0:
38,86,289960,2,4,L|59:37,1,47.9999985351563,14|4,0:3|0:0,0:0:0:0:
137,235,290122,1,4,0:0:0:0:
155,275,290203,1,4,0:0:0:0:
171,314,290285,2,4,L|192:363,1,47.9999985351563,14|4,0:2|0:0,0:0:0:0:
372,244,290446,1,4,0:0:0:0:
389,204,290527,1,4,0:0:0:0:
406,165,290608,6,4,L|428:111,1,47.9999985351563,14|0,0:0|0:0,0:0:0:0:
192,149,290770,2,4,L|165:215,1,47.9999985351563,14|0,0:0|0:0,0:0:0:0:
306,50,290932,2,4,L|257:29,1,47.9999985351563,14|0,0:0|0:0,0:0:0:0:
290,262,291095,1,6,0:3:0:0:
256,192,291257,12,6,292392,0:2:0:0:
256,192,292554,12,6,293689,0:3:0:0:
256,192,293851,12,6,294986,0:0:0:0:
300,104,296284,6,0,P|317:180|286:253,1,160,6|4,0:3|0:0,0:0:0:0:
117,184,296689,1,4,0:0:0:0:
117,184,296770,2,0,L|195:167,1,80,14|4,0:0|0:0,0:0:0:0:
359,215,297014,1,4,0:0:0:0:
359,215,297095,1,6,0:0:0:0:
280,56,297257,2,0,L|265:102,1,40,4|4,0:0|0:0,0:0:0:0:
220,248,297419,1,14,0:0:0:0:
152,84,297581,6,0,L|195:103,1,40,4|4,0:0|0:0,0:0:0:0:
308,164,297743,1,6,0:0:0:0:
84,184,297905,2,0,L|140:178,1,40,4|4,0:0|0:0,0:0:0:0:
297,159,298067,1,14,0:0:0:0:
124,296,298230,2,0,L|180:308,1,40,4|4,0:0|0:0,0:0:0:0:
292,268,298392,2,0,P|336:264|388:228,2,80,6|6|12,0:0|0:0|0:0,0:0:0:0:
284,292,298878,6,0,P|361:279|419:226,1,160,6|4,0:3|0:0,0:0:0:0:
424,56,299284,1,4,0:0:0:0:
424,56,299365,2,0,L|440:160,1,80,14|4,0:0|0:0,0:0:0:0:
468,308,299608,1,4,0:0:0:0:
468,308,299689,1,6,0:0:0:0:
328,144,299851,2,0,L|312:196,1,40,4|4,0:0|0:0,0:0:0:0:
264,324,300014,1,14,0:0:0:0:
332,132,300176,2,0,L|348:184,1,40,4|4,0:0|0:0,0:0:0:0:
388,292,300338,6,0,L|292:240,1,80,6|4,0:3|0:0,0:0:0:0:
208,192,300581,1,4,0:0:0:0:
208,192,300662,1,14,0:0:0:0:
384,208,300824,2,0,L|340:224,1,40,4|4,0:0|0:0,0:0:0:0:
196,276,300986,1,6,0:0:0:0:
280,136,301149,2,0,L|284:200,1,40,4|4,0:0|0:0,0:0:0:0:
296,336,301311,1,14,0:0:0:0:
132,224,301473,6,0,P|60:236|56:320,1,160,6|4,0:3|0:0,0:0:0:0:
116,344,301878,1,4,0:0:0:0:
116,344,301960,1,14,0:0:0:0:
316,264,302122,2,0,L|260:292,1,40,4|4,0:0|0:0,0:0:0:0:
132,344,302284,1,6,0:0:0:0:
256,152,302446,2,0,L|180:160,1,40,4|4,0:0|0:0,0:0:0:0:
52,168,302608,1,14,0:0:0:0:
240,164,302770,6,0,L|200:216,1,40,4|4,0:0|0:0,0:0:0:0:
100,344,302932,1,6,0:0:0:0:
340,368,303095,2,0,L|272:360,1,40,4|4,0:0|0:0,0:0:0:0:
116,344,303257,1,14,0:0:0:0:
260,188,303419,2,0,L|192:188,1,40,4|4,0:0|0:0,0:0:0:0:
60,184,303581,1,6,0:0:0:0:
276,180,303743,2,0,P|276:224|224:268,1,80,4|8,0:0|0:0,0:0:0:0:
120,124,304068,6,0,B|132:88|132:88|168:72|168:72|208:92|208:92|244:80,1,160,6|4,0:3|0:0,0:0:0:0:
316,52,304473,1,4,0:0:0:0:
316,52,304554,1,14,0:0:0:0:
184,164,304716,2,0,L|184:236,1,40,4|4,0:0|0:0,0:0:0:0:
132,376,304878,2,0,B|99:352|99:352|83:316,1,80,6|4,0:0|0:0,0:0:0:0:
80,236,305122,1,4,0:0:0:0:
80,236,305203,1,14,0:2:0:0:
0,328,305365,5,4,0:0:0:0:
0,328,305446,1,4,0:0:0:0:
0,328,305527,2,0,L|16:264,1,40,8|4,0:0|0:0,0:0:0:0:
160,304,305689,2,0,L|176:240,1,40,4|4,0:0|0:0,0:0:0:0:
32,128,305851,2,0,L|16:192,1,40,6|6,0:0|0:0,0:0:0:0:
192,104,306014,2,4,L|176:168,1,40
320,280,306176,2,0,L|336:216,1,40,10|10,0:0|0:0,0:0:0:0:
352,80,306338,2,0,L|336:144,1,40,4|4,0:0|0:0,0:0:0:0:
480,256,306500,2,0,L|496:192,1,40,4|4,0:0|0:0,0:0:0:0:
512,56,306662,6,0,B|502:94|502:94|452:32|360:76,1,160,6|4,0:2|0:0,0:0:0:0:
361,83,307068,1,4,0:0:0:0:
339,116,307149,1,14,0:3:0:0:
424,310,307311,1,4,0:0:0:0:
458,289,307392,1,4,0:0:0:0:
480,255,307473,2,4,P|484:216|474:178,1,80,6|4,0:3|0:0,0:0:0:0:
434,180,307716,1,4,0:0:0:0:
396,170,307797,1,14,0:3:0:0:
248,96,307960,6,0,L|239:146,1,40,4|4,0:0|0:0,0:0:0:0:
214,296,308122,1,6,0:3:0:0:
153,130,308284,2,0,L|192:162,1,40,4|4,0:0|0:0,0:0:0:0:
308,260,308446,1,14,0:3:0:0:
135,230,308608,2,0,L|182:212,1,40,4|4,0:0|0:0,0:0:0:0:
326,160,308770,2,0,L|373:89,2,80,6|8|6,0:3|0:0|0:3,0:0:0:0:
381,109,309257,6,4,B|403:75|403:75|327:95|267:39,1,160,6|4,0:3|0:0,0:0:0:0:
95,36,309662,1,4,0:0:0:0:
135,30,309743,2,4,P|174:36|209:55,1,80,14|4,0:3|0:0,0:0:0:0:
253,170,309987,1,4,0:0:0:0:
238,207,310068,2,4,P|212:237|178:258,1,80,6|4,0:3|0:0,0:0:0:0:
58,239,310311,1,4,0:0:0:0:
34,208,310392,2,4,P|20:170|18:130,1,80,14|4,0:3|0:0,0:0:0:0:
136,148,310635,5,4,0:0:0:0:
136,148,310716,1,6,0:3:0:0:
44,349,310878,1,4,0:0:0:0:
40,353,310960,1,4,0:0:0:0:
36,357,311041,1,14,0:3:0:0:
259,348,311203,1,4,0:0:0:0:
263,344,311284,1,4,0:0:0:0:
267,340,311365,1,8,0:0:0:0:
305,331,311446,1,8,0:0:0:0:
343,342,311527,1,8,0:0:0:0:
381,352,311608,1,8,0:0:0:0:
419,344,311689,1,8,0:0:0:0:
449,317,311770,1,8,0:0:0:0:
462,280,311851,6,0,P|446:224|356:198,1,160,6|4,0:3|0:0,0:0:0:0:
323,220,312257,1,4,0:0:0:0:
305,255,312338,1,14,0:3:0:0:
456,176,312500,1,4,0:0:0:0:
472,140,312581,1,4,0:0:0:0:
471,100,312662,2,0,P|434:83|395:85,1,80,6|4,0:3|0:0,0:0:0:0:
355,86,312905,1,4,0:0:0:0:
319,70,312986,1,14,0:3:0:0:
120,132,313149,6,0,L|131:205,1,40,4|4,0:0|0:0,0:0:0:0:
137,250,313311,1,6,0:3:0:0:
109,53,313474,2,0,L|99:-20,1,40,4|4,0:0|0:0,0:0:0:0:
45,212,313636,1,14,0:3:0:0:
202,90,313798,2,0,L|261:44,1,40,4|4,0:0|0:0,0:0:0:0:
32,113,313960,1,6,0:3:0:0:
217,188,314122,2,0,P|255:177|282:148,1,80,6|8,0:3|0:3,0:0:0:0:
124,152,314446,6,4,B|100:212|128:228|156:244|129:304,1,160,6|4,0:3|0:0,0:0:0:0:
100,331,314851,1,4,0:0:0:0:
61,340,314932,1,14,0:0:0:0:
30,167,315095,2,4,L|79:159,1,40
187,230,315257,1,6,0:3:0:0:
162,63,315419,2,4,L|144:107,1,40
91,244,315581,1,6,0:3:0:0:
223,140,315743,2,0,L|173:146,1,40,4|4,0:2|0:2,0:0:0:0:
66,77,315905,6,0,L|71:148,1,40,8|4,0:2|0:3,0:3:0:0:
3,234,316067,2,0,L|8:305,1,40,4|4,0:3|0:3,0:3:0:0:
160,297,316229,2,0,L|155:226,1,40,4|4,0:3|0:3,0:3:0:0:
223,140,316391,2,0,L|218:69,1,40,8|8,0:3|0:3,0:3:0:0:
303,292,316554,6,0,L|305:331,1,40,4|4,0:3|0:3,0:3:0:0:
361,79,316716,2,0,L|356:39,1,40,4|4,0:3|0:3,0:3:0:0:
448,326,316878,2,0,L|451:366,1,40,4|4,0:3|0:3,0:3:0:0:
498,19,317041,1,6,0:3:0:0:
