osu file format v14

[General]
AudioFilename: Hiroari Shoots a Strange Bird ~ Till When.mp3
AudioLeadIn: 0
PreviewTime: 69183
Countdown: 0
SampleSet: Soft
StackLeniency: 0.5
Mode: 0
LetterboxInBreaks: 0
WidescreenStoryboard: 1

[Editor]
Bookmarks: 158957
DistanceSpacing: 0.5
BeatDivisor: 4
GridSize: 4
TimelineZoom: 1.8

[Metadata]
Title:Kouyuushakaichouji ~ Till When?
TitleUnicode:広有射怪鳥事 ~ Till When?
Artist:Demetori
ArtistUnicode:Demetori
Creator:GoldenWolf
Version:Hard
Source:東方Project
Tags:Konpaku Youmu 愧人贖悪 ~ Evil People as the True Object of Salvation ~ C88 Liiraye ZUN woof
BeatmapID:787271
BeatmapSetID:349704

[Difficulty]
HPDrainRate:5
CircleSize:4
OverallDifficulty:7
ApproachRate:8
SliderMultiplier:1.6
SliderTickRate:1

[Events]
//Background and Video events
0,0,"orz121.jpg",0,0
//Break Periods
//Storyboard Layer 0 (Background)
//Storyboard Layer 1 (Fail)
//Storyboard Layer 2 (Pass)
//Storyboard Layer 3 (Foreground)
//Storyboard Sound Samples

[TimingPoints]
175,363.636363636364,4,2,4,60,1,0
175,-142.857142857143,4,2,4,60,0,0
2175,348.837209302326,4,2,4,60,1,0
2175,-142.857142857143,4,2,4,60,0,0
3047,363.636363636364,4,2,4,60,1,0
3047,-117.647058823529,4,2,4,60,0,0
5956,-100,4,3,3,85,0,0
6137,-100,4,3,1,60,0,0
6501,-100,4,3,11,85,0,0
6683,-100,4,3,1,60,0,0
7047,-100,4,3,11,85,0,0
7228,-100,4,3,1,60,0,0
7410,-100,4,3,11,85,0,0
7592,-100,4,3,10,85,0,0
7774,-100,4,3,1,60,0,0
8137,-100,4,3,10,85,0,0
8319,-100,4,3,1,60,0,0
8501,-100,4,3,11,85,0,0
8683,-100,4,3,10,85,0,0
8865,-100,4,3,1,60,0,0
9047,-100,4,3,10,85,0,0
9228,-100,4,3,1,60,0,0
9410,-100,4,3,11,85,0,0
9774,-100,4,3,1,60,0,0
9956,-100,4,3,11,85,0,0
10047,-100,4,3,1,60,0,0
10137,-100,4,3,10,85,0,0
10228,-100,4,3,3,60,0,0
10501,-100,4,3,10,85,0,0
10683,-100,4,3,1,60,0,0
10865,-100,4,3,11,85,0,0
11047,-100,4,3,12,85,0,0
11410,-100,4,3,4,85,0,0
11774,-100,4,3,9,100,0,0
13228,-100,4,3,2,85,0,0
13956,-100,4,3,2,70,0,0
14683,-100,4,3,1,100,0,0
14865,-100,4,3,4,70,0,0
17592,-100,4,3,2,70,0,0
17774,-100,4,3,4,70,0,0
19047,-100,4,3,2,70,0,0
19228,-100,4,3,4,70,0,0
20137,-100,4,3,3,85,0,0
20319,-100,4,3,4,70,0,0
20501,-100,4,3,3,100,0,0
20683,-100,4,3,4,70,0,0
21956,-100,4,3,2,85,0,0
22137,-100,4,3,4,70,0,0
23410,-100,4,3,2,70,0,0
23592,-100,4,3,4,70,0,0
24865,-100,4,3,3,70,0,0
25047,-100,4,3,4,70,0,0
25956,-100,4,3,3,70,0,0
26319,-100,4,3,2,100,0,0
26865,-100,4,3,1,100,0,0
27228,-100,4,3,2,70,0,0
28683,-100,4,3,2,85,0,0
28865,-100,4,3,10,85,0,0
29228,-100,4,3,3,100,0,0
29501,-100,4,3,1,100,0,0
29774,-200,4,3,2,100,0,0
29956,-200,4,3,2,5,0,0
30319,-200,4,3,2,70,0,0
30501,-100,4,3,2,40,0,0
30562,-100,4,3,2,55,0,0
30622,-100,4,3,2,70,0,0
30683,-100,4,3,12,85,0,0
30804,-100,4,3,1,85,0,0
30925,-100,4,3,11,85,0,0
31047,-100,4,3,1,85,0,0
31168,-100,4,3,10,85,0,0
31289,-100,4,3,1,85,0,0
31410,-500,4,3,3,100,0,0
31501,-500,4,3,3,5,0,0
32011,-500,4,3,3,5,0,0
32137,-83.3333333333333,4,3,1,100,0,0
32228,-83.3333333333333,4,3,4,70,0,0
37956,-83.3333333333333,4,3,2,70,0,0
38047,-83.3333333333333,4,3,4,70,0,0
43047,-83.3333333333333,4,3,4,85,0,0
43137,-83.3333333333333,4,3,4,65,0,0
43410,-83.3333333333333,4,3,4,85,0,0
43501,-83.3333333333333,4,3,4,65,0,0
43774,-76.9230769230769,4,3,1,100,0,0
43865,-76.9230769230769,4,3,4,70,0,0
46683,-76.9230769230769,4,3,3,70,0,0
46774,-76.9230769230769,4,3,4,70,0,0
48137,-76.9230769230769,4,3,2,70,0,0
48228,-76.9230769230769,4,3,4,70,0,0
49047,-76.9230769230769,4,3,3,85,0,0
49137,-76.9230769230769,4,3,4,70,0,0
49410,-76.9230769230769,4,3,3,85,0,0
49501,-76.9230769230769,4,3,4,70,0,0
49592,-76.9230769230769,4,3,1,100,0,0
49683,-76.9230769230769,4,3,4,70,0,0
52501,-76.9230769230769,4,3,3,70,0,0
52592,-76.9230769230769,4,3,4,70,0,0
53956,-76.9230769230769,4,3,7,85,0,0
54047,-76.9230769230769,4,3,7,45,0,0
54137,-76.9230769230769,4,3,7,55,0,0
54228,-76.9230769230769,4,3,7,65,0,0
54319,-76.9230769230769,4,3,7,75,0,0
54410,-76.9230769230769,4,3,7,85,0,0
54501,-76.9230769230769,4,3,12,85,0,0
54683,-76.9230769230769,4,3,11,85,0,0
55047,-76.9230769230769,4,3,10,85,0,0
55410,-86.9565217391304,4,3,1,100,0,0
55592,-86.9565217391304,4,3,3,85,0,0
56865,-86.9565217391304,4,3,2,85,0,0
57047,-86.9565217391304,4,3,3,85,0,0
58319,-86.9565217391304,4,3,3,100,0,0
58501,-86.9565217391304,4,3,3,85,0,0
59774,-86.9565217391304,4,3,1,85,0,0
59956,-86.9565217391304,4,3,3,85,0,0
61228,-86.9565217391304,4,3,8,100,0,0
62683,-500,4,3,3,100,0,0
62865,-500,4,3,3,5,0,0
63410,-100,4,3,3,85,0,0
63774,-80,4,3,3,85,0,0
63865,-80,4,3,3,5,0,0
64137,-86.9565217391304,4,3,1,100,0,0
64319,-86.9565217391304,4,3,2,70,0,0
65592,-86.9565217391304,4,3,3,85,0,0
65774,-86.9565217391304,4,3,2,70,0,0
67047,-83.3333333333333,4,3,1,85,0,0
67137,-83.3333333333333,4,3,2,70,0,0
69228,-83.3333333333333,4,3,3,70,0,0
69328,-83.3333333333333,4,3,3,60,0,0
69592,-83.3333333333333,4,3,1,85,0,0
69683,-83.3333333333333,4,3,1,60,0,0
69956,-76.9230769230769,4,3,3,100,0,1
70137,-76.9230769230769,4,3,13,70,0,1
71774,-76.9230769230769,4,3,3,70,0,1
72865,-76.9230769230769,4,3,1,85,0,1
73047,-76.9230769230769,4,3,13,70,0,1
74319,-76.9230769230769,4,3,3,70,0,1
75774,-76.9230769230769,4,3,1,85,0,1
75956,-76.9230769230769,4,3,4,70,0,1
77228,-76.9230769230769,4,3,2,85,0,1
77410,-76.9230769230769,4,3,4,70,0,1
78137,-76.9230769230769,4,3,4,85,0,1
78319,-76.9230769230769,4,3,10,85,0,1
78683,-76.9230769230769,4,3,3,70,0,1
80137,-76.9230769230769,4,3,11,85,0,1
80259,-76.9230769230769,4,3,10,85,0,1
80380,-76.9230769230769,4,3,3,85,0,1
81592,-76.9230769230769,4,3,2,100,0,1
81774,-76.9230769230769,4,3,4,70,0,1
83047,-76.9230769230769,4,3,2,85,0,1
83228,-76.9230769230769,4,3,4,70,0,1
83410,-76.9230769230769,4,3,3,85,0,1
83501,-76.9230769230769,4,3,4,70,0,1
84501,-76.9230769230769,4,3,7,70,0,1
84683,-76.9230769230769,4,3,4,70,0,1
85956,-76.9230769230769,4,3,2,85,0,1
86137,-76.9230769230769,4,3,4,70,0,1
87410,-76.9230769230769,4,3,3,85,0,1
87592,-76.9230769230769,4,3,4,70,0,1
88865,-76.9230769230769,4,3,2,85,0,1
89047,-76.9230769230769,4,3,4,70,0,1
89774,-76.9230769230769,4,3,3,85,0,1
90047,-76.9230769230769,4,3,3,70,0,1
90683,-76.9230769230769,4,3,13,70,0,1
91410,-76.9230769230769,4,3,2,70,0,1
91774,-100,4,3,2,85,0,0
92259,-100,4,3,12,85,0,0
92501,-100,4,3,11,85,0,0
92865,-100,4,3,10,85,0,0
93228,-100,4,3,1,100,0,0
93319,-100,4,3,4,70,0,0
96137,-100,4,3,2,85,0,0
96228,-100,4,3,4,70,0,0
99047,-100,4,3,3,85,0,0
99137,-100,4,3,4,70,0,0
101956,-100,4,3,2,85,0,0
102047,-100,4,3,4,70,0,0
104501,-100,4,3,4,70,0,0
104865,-100,4,3,1,100,0,0
104956,-100,4,3,4,70,0,0
107774,-100,4,3,3,85,0,0
107865,-100,4,3,4,70,0,0
110683,-100,4,3,2,85,0,0
110774,-100,4,3,4,70,0,0
113592,-100,4,3,3,85,0,0
113683,-100,4,3,4,70,0,0
116501,-100,4,3,1,100,0,0
116774,-100,4,3,2,100,0,0
117047,-100,4,3,3,100,0,0
117592,-100,4,3,2,85,0,0
119410,-100,4,3,1,85,0,0
119683,-100,4,3,2,100,0,0
119956,-100,4,3,3,100,0,0
120501,-100,4,3,2,85,0,0
121592,-100,4,3,11,100,0,0
121956,-100,4,3,10,100,0,0
122319,-100,4,3,1,100,0,0
122592,-100,4,3,2,100,0,0
122865,-100,4,3,3,100,0,0
123410,-100,4,3,2,85,0,0
124865,-100,4,3,10,100,0,0
125228,-100,4,3,1,100,0,0
125501,-100,4,3,2,100,0,0
125774,-100,4,3,3,100,0,0
126047,-100,4,3,2,100,0,0
126319,-100,4,3,3,100,0,0
126683,-100,4,3,1,100,0,0
127774,-100,4,3,1,55,0,0
127956,-100,4,3,1,65,0,0
128016,-100,4,3,1,75,0,0
128077,-100,4,3,1,85,0,0
128137,-100,4,3,8,100,0,0
128865,-100,4,3,1,60,0,0
129592,-86.9565217391304,4,3,1,100,0,0
129774,-86.9565217391304,4,3,2,70,0,0
131047,-86.9565217391304,4,3,3,85,0,0
131228,-86.9565217391304,4,3,2,70,0,0
132137,-86.9565217391304,4,3,2,85,0,0
132319,-86.9565217391304,4,3,2,70,0,0
132501,-86.9565217391304,4,3,3,85,0,0
132592,-86.9565217391304,4,3,2,70,0,0
133592,-86.9565217391304,4,3,3,85,0,0
133683,-86.9565217391304,4,3,2,70,0,0
133774,-86.9565217391304,4,3,3,85,0,0
133865,-86.9565217391304,4,3,2,70,0,0
133956,-86.9565217391304,4,3,4,85,0,0
134016,-86.9565217391304,4,3,10,85,0,0
134137,-86.9565217391304,4,3,4,85,0,0
134319,-86.9565217391304,4,3,12,85,0,0
134380,-86.9565217391304,4,3,11,85,0,0
134440,-86.9565217391304,4,3,10,85,0,0
134501,-86.9565217391304,4,3,4,85,0,0
134683,-86.9565217391304,4,3,3,100,0,0
135410,-76.9230769230769,4,3,1,100,0,1
135592,-76.9230769230769,4,3,13,70,0,1
137228,-76.9230769230769,4,3,3,70,0,1
138319,-76.9230769230769,4,3,1,100,0,1
138501,-76.9230769230769,4,3,13,70,0,1
139774,-76.9230769230769,4,3,3,70,0,1
141228,-76.9230769230769,4,3,3,100,0,1
141410,-76.9230769230769,4,3,4,70,0,1
142683,-76.9230769230769,4,3,2,85,0,1
142865,-76.9230769230769,4,3,4,70,0,1
143592,-76.9230769230769,4,3,4,85,0,1
143774,-76.9230769230769,4,3,11,85,0,1
144137,-76.9230769230769,4,3,1,85,0,1
144319,-76.9230769230769,4,3,3,70,0,1
145592,-76.9230769230769,4,3,12,85,0,1
145713,-76.9230769230769,4,3,11,85,0,1
145834,-76.9230769230769,4,3,3,85,0,1
147047,-76.9230769230769,4,3,2,100,0,1
147228,-76.9230769230769,4,3,4,70,0,1
148501,-76.9230769230769,4,3,2,85,0,1
148683,-76.9230769230769,4,3,4,70,0,1
148865,-76.9230769230769,4,3,3,85,0,1
148956,-76.9230769230769,4,3,4,70,0,1
149956,-76.9230769230769,4,3,7,85,0,1
150137,-76.9230769230769,4,3,4,70,0,1
151410,-76.9230769230769,4,3,2,85,0,1
151592,-76.9230769230769,4,3,4,70,0,1
152865,-76.9230769230769,4,3,3,85,0,1
153047,-76.9230769230769,4,3,4,70,0,1
154319,-76.9230769230769,4,3,2,85,0,1
154501,-76.9230769230769,4,3,4,70,0,1
155228,-76.9230769230769,4,3,3,85,0,1
155501,-76.9230769230769,4,3,4,70,0,1
155774,-76.9230769230769,4,3,1,85,0,1
155865,-76.9230769230769,4,3,2,70,0,1
157228,-100,4,3,3,100,0,0
158683,365.853658536585,4,3,1,100,1,0
159231,-100,4,3,4,100,0,0
160054,-100,4,3,3,100,0,0
160329,-100,4,3,10,100,0,0
160878,-100,4,3,8,100,0,0

[Colours]
Combo1 : 240,80,80
Combo2 : 160,40,80
Combo3 : 160,80,160
Combo4 : 160,80,80
Combo5 : 80,80,160

[HitObjects]
88,320,175,6,0,L|84:236,1,83.9999974365235
248,216,720,2,0,P|268:268|256:324,1,111.999996582031
184,276,1265,2,0,L|180:240,3,27.9999991455078
152,216,1629,6,0,L|156:132,1,83.9999974365235
296,84,2175,2,0,B|336:88|336:88|360:104|360:104|404:108,1,111.999996582031
444,224,2698,2,0,L|440:256,3,27.9999991455078
400,280,3047,6,0,B|388:312|388:312|396:380,1,102.000001945496
312,204,3592,2,0,P|244:192|180:212,1,136.000002593994
84,276,4137,2,0,L|48:272,3,34.0000006484985
24,228,4501,5,2,0:3:0:0:
28,216,4865,1,2,0:3:0:0:
32,204,5228,1,2,0:3:0:0:
36,192,5592,1,2,0:3:0:0:
40,180,5956,22,0,P|80:172|120:168,1,80,6|4,0:0|0:0,0:0:0:0:
224,224,6319,1,4,0:0:0:0:
224,224,6410,1,4,0:0:0:0:
224,224,6501,2,0,P|264:232|304:236,1,80,8|4,0:0|0:0,0:0:0:0:
412,180,6865,1,4,0:0:0:0:
364,72,7047,2,0,L|368:32,2,40,8|4|4,0:0|0:0|0:0,0:0:0:0:
256,124,7410,6,0,B|232:132|232:132|176:124,1,80,8|4,0:0|0:0,0:0:0:0:
68,76,7774,1,4,0:0:0:0:
68,76,7865,1,4,0:0:0:0:
68,76,7956,2,0,L|72:156,1,80,4|8,0:0|0:0,0:0:0:0:
108,272,8319,1,4,0:0:0:0:
204,348,8501,2,0,L|248:352,2,40,8|4|8,0:0|0:0|0:0,0:0:0:0:
336,288,8865,6,0,P|376:280|416:276,1,80,6|8,0:0|0:0,0:0:0:0:
256,220,9228,1,4,0:0:0:0:
256,220,9319,1,4,0:0:0:0:
256,220,9410,2,0,P|216:212|176:208,1,80,8|4,0:0|0:0,0:0:0:0:
352,148,9774,1,4,0:0:0:0:
240,80,9956,2,0,L|236:40,2,40,8|4|8,0:0|0:0|0:0,0:0:0:0:
372,24,10319,6,0,L|452:32,1,80,6|8,0:0|0:0,0:0:0:0:
352,148,10683,1,4,0:0:0:0:
352,148,10774,1,4,0:0:0:0:
352,148,10865,1,8,0:0:0:0:
240,80,11047,1,8,0:0:0:0:
220,76,11137,1,8,0:0:0:0:
200,72,11228,1,4,0:0:0:0:
180,68,11319,1,4,0:0:0:0:
160,64,11410,2,0,L|120:56,3,40,4|4|4|4,0:0|0:0|0:0|0:0,0:0:0:0:
148,148,11774,21,2,0:0:0:0:
148,148,13228,5,2,0:0:0:0:
228,160,13592,1,2,0:0:0:0:
308,172,13956,38,0,L|336:176,5,26.6666666666667,2|0|0|0|0|0,0:0|0:0|0:0|0:0|0:0|0:0,0:0:0:0:
320,248,14319,2,0,L|348:252,5,26.6666666666667,2|0|0|0|0|0,0:0|0:0|0:0|0:0|0:0|0:0,0:0:0:0:
332,324,14683,6,0,B|296:344|296:344|216:328,1,120,10|0,0:0|0:0,0:0:0:0:
200,324,15047,1,10,0:0:0:0:
104,208,15228,2,0,B|96:160|96:160|108:128|108:128|96:52,1,160,4|4,0:0|0:0,0:0:0:0:
240,104,15774,1,10,0:0:0:0:
240,104,15956,1,4,0:0:0:0:
179,207,16137,6,0,B|183:251|183:251|195:275|195:275|200:324,1,120,10|0,0:0|0:0,0:0:0:0:
201,343,16501,1,10,0:0:0:0:
380,336,16683,2,0,B|392:256|392:256|364:180,1,160,4|4,0:0|0:0,0:0:0:0:
