osu file format v14

[General]
AudioFilename: Hiroari Shoots a Strange Bird ~ Till When.mp3
AudioLeadIn: 0
PreviewTime: 69183
Countdown: 0
SampleSet: Soft
StackLeniency: 0.4
Mode: 0
LetterboxInBreaks: 0
WidescreenStoryboard: 0

[Editor]
DistanceSpacing: 1.7
BeatDivisor: 4
GridSize: 4
TimelineZoom: 1.7

[Metadata]
Title:Kouyuushakaichouji ~ Till When?
TitleUnicode:広有射怪鳥事 ~ Till When?
Artist:Demetori
ArtistUnicode:Demetori
Creator:GoldenWolf
Version:Extra Stage
Source:東方Project
Tags:Konpaku Youmu 愧人贖悪 ~ Evil People as the True Object of Salvation ~ C88 Liiraye Nube ZUN woof
BeatmapID:771122
BeatmapSetID:349704

[Difficulty]
HPDrainRate:6
CircleSize:4.5
OverallDifficulty:9
ApproachRate:9.5
SliderMultiplier:1.8
SliderTickRate:1

[Events]
//Background and Video events
0,0,"orz121.jpg",0,0
//Break Periods
//Storyboard Layer 0 (Background)
//Storyboard Layer 1 (Fail)
//Storyboard Layer 2 (Pass)
//Storyboard Layer 3 (Foreground)
//Storyboard Sound Samples

[TimingPoints]
175,363.636363636364,4,2,4,60,1,0
175,-142.857142857143,4,2,4,60,0,0
2175,348.837209302326,4,2,4,60,1,0
2175,-142.857142857143,4,2,4,60,0,0
3047,363.636363636364,4,2,4,60,1,0
3047,-117.647058823529,4,2,4,60,0,0
5956,-100,4,3,12,85,0,0
6137,-100,4,3,1,60,0,0
6501,-100,4,3,11,85,0,0
6683,-100,4,3,1,60,0,0
7047,-100,4,3,11,85,0,0
7228,-100,4,3,1,60,0,0
7410,-100,4,3,11,85,0,0
7592,-100,4,3,10,85,0,0
7774,-100,4,3,1,60,0,0
8137,-100,4,3,10,85,0,0
8319,-100,4,3,1,60,0,0
8501,-100,4,3,11,85,0,0
8683,-100,4,3,10,85,0,0
8865,-100,4,3,1,60,0,0
9047,-100,4,3,10,85,0,0
9228,-100,4,3,1,60,0,0
9410,-100,4,3,11,85,0,0
9501,-100,4,3,1,60,0,0
9592,-100,4,3,11,85,0,0
9683,-100,4,3,10,85,0,0
9774,-100,4,3,1,60,0,0
9956,-100,4,3,11,85,0,0
10047,-100,4,3,1,60,0,0
10137,-100,4,3,10,85,0,0
10228,-100,4,3,3,60,0,0
10501,-100,4,3,10,85,0,0
10683,-100,4,3,1,60,0,0
10865,-100,4,3,11,85,0,0
10956,-100,4,3,10,85,0,0
11047,-100,4,3,12,85,0,0
11410,-100,4,3,4,85,0,0
11774,-100,4,3,4,100,0,0
13228,-100,4,3,2,85,0,0
13956,-100,4,3,2,70,0,0
14683,-100,4,3,1,100,0,0
14865,-100,4,3,4,70,0,0
17592,-100,4,3,2,70,0,0
17774,-100,4,3,4,70,0,0
19047,-100,4,3,2,70,0,0
19228,-100,4,3,4,70,0,0
20137,-100,4,3,3,85,0,0
20319,-100,4,3,4,70,0,0
20501,-100,4,3,3,100,0,0
20683,-100,4,3,4,70,0,0
21956,-100,4,3,2,85,0,0
22137,-100,4,3,4,70,0,0
23410,-100,4,3,2,70,0,0
23592,-100,4,3,4,70,0,0
24865,-100,4,3,3,70,0,0
25047,-100,4,3,4,70,0,0
25956,-100,4,3,3,70,0,0
26319,-100,4,3,2,100,0,0
26865,-100,4,3,1,100,0,0
27228,-100,4,3,2,70,0,0
28683,-100,4,3,2,85,0,0
28865,-100,4,3,10,85,0,0
29228,-100,4,3,3,100,0,0
29501,-100,4,3,1,100,0,0
29774,-200,4,3,2,100,0,0
29956,-200,4,3,2,5,0,0
30319,-200,4,3,2,70,0,0
30501,-200,4,3,2,40,0,0
30562,-200,4,3,2,55,0,0
30622,-200,4,3,2,70,0,0
30683,-200,4,3,12,85,0,0
30804,-200,4,3,1,85,0,0
30925,-200,4,3,11,85,0,0
31047,-200,4,3,1,85,0,0
31168,-200,4,3,10,85,0,0
31289,-200,4,3,1,85,0,0
31410,-500,4,3,3,100,0,0
31501,-500,4,3,3,5,0,0
32137,-83.3333333333333,4,3,1,100,0,0
32228,-83.3333333333333,4,3,4,70,0,0
37956,-83.3333333333333,4,3,2,70,0,0
38047,-83.3333333333333,4,3,4,70,0,0
43047,-83.3333333333333,4,3,4,85,0,0
43137,-83.3333333333333,4,3,4,65,0,0
43410,-83.3333333333333,4,3,4,85,0,0
43501,-83.3333333333333,4,3,4,65,0,0
43774,-76.9230769230769,4,3,1,100,0,0
43865,-76.9230769230769,4,3,4,70,0,0
46683,-76.9230769230769,4,3,3,70,0,0
46774,-76.9230769230769,4,3,4,70,0,0
48137,-76.9230769230769,4,3,2,70,0,0
48228,-76.9230769230769,4,3,4,70,0,0
49047,-76.9230769230769,4,3,3,85,0,0
49137,-76.9230769230769,4,3,4,70,0,0
49410,-76.9230769230769,4,3,3,85,0,0
49501,-76.9230769230769,4,3,4,70,0,0
49592,-76.9230769230769,4,3,1,100,0,0
49683,-76.9230769230769,4,3,4,70,0,0
52501,-76.9230769230769,4,3,3,70,0,0
52592,-76.9230769230769,4,3,4,70,0,0
53956,-76.9230769230769,4,3,7,85,0,0
54047,-76.9230769230769,4,3,7,45,0,0
54137,-76.9230769230769,4,3,7,55,0,0
54228,-76.9230769230769,4,3,7,65,0,0
54319,-76.9230769230769,4,3,7,75,0,0
54410,-76.9230769230769,4,3,7,85,0,0
54501,-76.9230769230769,4,3,12,85,0,0
54683,-76.9230769230769,4,3,11,85,0,0
55047,-76.9230769230769,4,3,10,85,0,0
55410,-86.9565217391304,4,3,1,100,0,0
55592,-86.9565217391304,4,3,3,85,0,0
56865,-86.9565217391304,4,3,2,85,0,0
57047,-86.9565217391304,4,3,3,85,0,0
58319,-86.9565217391304,4,3,3,100,0,0
58501,-86.9565217391304,4,3,3,85,0,0
59774,-86.9565217391304,4,3,1,85,0,0
59956,-86.9565217391304,4,3,3,85,0,0
61228,-86.9565217391304,4,3,8,100,0,0
62683,-500,4,3,3,100,0,0
62865,-500,4,3,3,5,0,0
63410,-100,4,3,3,85,0,0
63774,-80,4,3,3,85,0,0
63865,-80,4,3,3,5,0,0
64137,-86.9565217391304,4,3,1,100,0,0
64319,-86.9565217391304,4,3,2,70,0,0
65592,-86.9565217391304,4,3,3,85,0,0
65774,-86.9565217391304,4,3,2,70,0,0
67047,-83.3333333333333,4,3,1,85,0,0
67137,-83.3333333333333,4,3,2,70,0,0
69228,-83.3333333333333,4,3,3,70,0,0
69328,-83.3333333333333,4,3,3,60,0,0
69592,-83.3333333333333,4,3,1,85,0,0
69683,-83.3333333333333,4,3,1,60,0,0
69956,-76.9230769230769,4,3,3,100,0,1
70137,-76.9230769230769,4,3,13,70,0,1
71774,-76.9230769230769,4,3,3,70,0,1
72865,-76.9230769230769,4,3,1,85,0,1
73047,-76.9230769230769,4,3,13,70,0,1
74319,-76.9230769230769,4,3,3,70,0,1
75774,-76.9230769230769,4,3,1,85,0,1
75956,-76.9230769230769,4,3,4,70,0,1
77228,-76.9230769230769,4,3,2,85,0,1
77410,-76.9230769230769,4,3,4,70,0,1
78137,-76.9230769230769,4,3,4,85,0,1
78319,-76.9230769230769,4,3,10,85,0,1
78683,-76.9230769230769,4,3,3,70,0,1
80137,-76.9230769230769,4,3,11,85,0,1
80259,-76.9230769230769,4,3,10,85,0,1
80380,-76.9230769230769,4,3,3,85,0,1
81592,-76.9230769230769,4,3,2,100,0,1
81774,-76.9230769230769,4,3,4,70,0,1
83047,-76.9230769230769,4,3,2,85,0,1
83228,-76.9230769230769,4,3,4,70,0,1
83410,-76.9230769230769,4,3,3,85,0,1
83501,-76.9230769230769,4,3,4,70,0,1
84501,-76.9230769230769,4,3,7,70,0,1
84683,-76.9230769230769,4,3,4,70,0,1
85956,-76.9230769230769,4,3,2,85,0,1
86137,-76.9230769230769,4,3,4,70,0,1
87410,-76.9230769230769,4,3,3,85,0,1
87592,-76.9230769230769,4,3,4,70,0,1
88865,-76.9230769230769,4,3,2,85,0,1
89047,-76.9230769230769,4,3,4,70,0,1
89774,-76.9230769230769,4,3,3,85,0,1
90047,-76.9230769230769,4,3,3,70,0,1
90683,-76.9230769230769,4,3,13,70,0,1
91410,-76.9230769230769,4,3,2,70,0,1
91774,-100,4,3,2,85,0,0
92259,-100,4,3,12,85,0,0
92501,-100,4,3,11,85,0,0
92865,-100,4,3,10,85,0,0
93228,-100,4,3,1,100,0,0
93319,-100,4,3,4,70,0,0
96137,-100,4,3,2,85,0,0
96228,-100,4,3,4,70,0,0
99047,-100,4,3,3,85,0,0
99137,-100,4,3,4,70,0,0
101956,-100,4,3,2,85,0,0
102047,-100,4,3,4,70,0,0
104501,-100,4,3,4,70,0,0
104865,-100,4,3,1,100,0,0
104956,-100,4,3,4,70,0,0
107774,-100,4,3,3,85,0,0
107865,-100,4,3,4,70,0,0
110683,-100,4,3,2,85,0,0
110774,-100,4,3,4,70,0,0
113592,-100,4,3,3,85,0,0
113683,-100,4,3,4,70,0,0
116501,-100,4,3,1,100,0,0
116774,-100,4,3,2,100,0,0
117047,-100,4,3,3,100,0,0
117592,-100,4,3,2,85,0,0
119410,-100,4,3,1,85,0,0
119683,-100,4,3,2,100,0,0
119956,-100,4,3,3,100,0,0
120501,-100,4,3,2,85,0,0
121592,-100,4,3,11,100,0,0
121956,-100,4,3,10,100,0,0
122319,-100,4,3,1,100,0,0
122592,-100,4,3,2,100,0,0
122865,-100,4,3,3,100,0,0
123410,-100,4,3,2,85,0,0
124865,-100,4,3,10,100,0,0
125228,-100,4,3,1,100,0,0
125501,-100,4,3,2,100,0,0
125774,-100,4,3,3,100,0,0
126047,-100,4,3,2,100,0,0
126319,-100,4,3,3,100,0,0
126683,-100,4,3,1,100,0,0
127774,-142.857142857143,4,3,1,55,0,0
127956,-100,4,3,1,65,0,0
128016,-100,4,3,1,75,0,0
128077,-100,4,3,1,85,0,0
128137,-100,4,3,8,100,0,0
128865,-100,4,3,1,60,0,0
129592,-86.9565217391304,4,3,1,100,0,0
129774,-86.9565217391304,4,3,2,70,0,0
131047,-86.9565217391304,4,3,3,85,0,0
131228,-86.9565217391304,4,3,2,70,0,0
132137,-86.9565217391304,4,3,2,85,0,0
132319,-86.9565217391304,4,3,2,70,0,0
132501,-86.9565217391304,4,3,3,85,0,0
132592,-86.9565217391304,4,3,2,70,0,0
133592,-86.9565217391304,4,3,3,85,0,0
133683,-86.9565217391304,4,3,2,70,0,0
133774,-86.9565217391304,4,3,3,85,0,0
133865,-86.9565217391304,4,3,2,70,0,0
133956,-86.9565217391304,4,3,4,85,0,0
134016,-86.9565217391304,4,3,10,85,0,0
134137,-86.9565217391304,4,3,4,85,0,0
134319,-86.9565217391304,4,3,12,85,0,0
134380,-86.9565217391304,4,3,11,85,0,0
134440,-86.9565217391304,4,3,10,85,0,0
134501,-86.9565217391304,4,3,4,85,0,0
134683,-86.9565217391304,4,3,3,100,0,0
135410,-76.9230769230769,4,3,1,100,0,1
135592,-76.9230769230769,4,3,13,70,0,1
137228,-76.9230769230769,4,3,3,70,0,1
138319,-76.9230769230769,4,3,1,100,0,1
138501,-76.9230769230769,4,3,13,70,0,1
139774,-76.9230769230769,4,3,3,70,0,1
141228,-76.9230769230769,4,3,3,100,0,1
141410,-76.9230769230769,4,3,4,70,0,1
142683,-76.9230769230769,4,3,2,85,0,1
142865,-76.9230769230769,4,3,4,70,0,1
143592,-76.9230769230769,4,3,4,85,0,1
143774,-76.9230769230769,4,3,11,85,0,1
144137,-76.9230769230769,4,3,1,85,0,1
144319,-76.9230769230769,4,3,3,70,0,1
145592,-76.9230769230769,4,3,12,85,0,1
145713,-76.9230769230769,4,3,11,85,0,1
145834,-76.9230769230769,4,3,3,85,0,1
147047,-76.9230769230769,4,3,2,100,0,1
147228,-76.9230769230769,4,3,4,70,0,1
148501,-76.9230769230769,4,3,2,85,0,1
148683,-76.9230769230769,4,3,4,70,0,1
148865,-76.9230769230769,4,3,3,85,0,1
148956,-76.9230769230769,4,3,4,70,0,1
149956,-76.9230769230769,4,3,7,85,0,1
150137,-76.9230769230769,4,3,4,70,0,1
151410,-76.9230769230769,4,3,2,85,0,1
151592,-76.9230769230769,4,3,4,70,0,1
152865,-76.9230769230769,4,3,3,85,0,1
153047,-76.9230769230769,4,3,4,70,0,1
154319,-76.9230769230769,4,3,2,85,0,1
154501,-76.9230769230769,4,3,4,70,0,1
155228,-76.9230769230769,4,3,3,85,0,1
155501,-76.9230769230769,4,3,4,70,0,1
155774,-76.9230769230769,4,3,1,85,0,1
155865,-76.9230769230769,4,3,2,70,0,1
157228,-100,4,3,3,100,0,0
158683,365.853658536585,4,3,1,100,1,0
159231,-100,4,3,4,100,0,0
160054,-100,4,3,3,100,0,0
160329,-100,4,3,10,100,0,0
160878,-100,4,3,8,100,0,0

[Colours]
Combo1 : 240,80,80
Combo2 : 160,40,80
Combo3 : 160,80,160
Combo4 : 160,80,80
Combo5 : 80,80,160

[HitObjects]
52,324,175,6,0,B|48:288|48:288|56:268|56:268|52:232,1,94.499997116089
152,72,720,2,0,B|148:108|148:108|156:132|156:132|148:196,1,125.999996154785
224,316,1265,1,0,0:0:0:0:
236,312,1356,1,0,0:0:0:0:
248,308,1447,1,0,0:0:0:0:
260,304,1538,1,0,0:0:0:0:
272,300,1629,6,0,B|276:264|276:264|268:244|268:244|272:208,1,94.499997116089
396,56,2175,2,0,B|400:92|400:92|392:116|392:116|400:180,1,125.999996154785
448,328,2698,1,0,0:0:0:0:
448,328,2785,1,0,0:0:0:0:
448,328,2872,1,0,0:0:0:0:
448,328,2959,1,0,0:0:0:0:
448,328,3047,6,0,B|400:324|400:324|380:308|380:308|336:304,1,114.750002188683
72,236,3592,2,0,B|124:256|124:256|220:228,1,153.000002918243
198,57,4137,1,0,0:0:0:0:
202,73,4228,1,0,0:0:0:0:
206,89,4319,1,0,0:0:0:0:
210,105,4410,1,0,0:0:0:0:
214,121,4501,6,0,B|202:161|202:161|220:240,1,114.750002188683,2|0,0:3|0:0,0:0:0:0:
222,249,4865,1,2,0:3:0:0:
72,236,5047,2,0,L|56:160,2,76.5000014591217,0|2|0,0:0|0:3|0:0,0:0:0:0:
168,340,5592,1,2,0:3:0:0:
188,344,5683,1,0,0:0:0:0:
208,348,5774,1,0,0:0:0:0:
228,352,5865,1,0,0:0:0:0:
248,356,5956,22,0,L|292:352,1,45,10|4,0:0|0:0,0:0:0:0:
424,240,6137,1,4,0:0:0:0:
424,240,6228,1,4,0:0:0:0:
424,240,6319,1,4,0:0:0:0:
424,240,6410,1,4,0:0:0:0:
424,240,6501,2,0,L|380:232,1,45,8|4,0:0|0:0,0:0:0:0:
164,168,6683,1,4,0:0:0:0:
164,168,6774,1,4,0:0:0:0:
164,168,6865,1,4,0:0:0:0:
164,168,6956,1,4,0:0:0:0:
164,168,7047,2,0,L|208:160,1,45,8|4,0:0|0:0,0:0:0:0:
380,60,7228,1,4,0:0:0:0:
380,60,7319,1,4,0:0:0:0:
380,60,7410,5,8,0:0:0:0:
345,87,7500,1,4,0:0:0:0:
302,100,7591,1,8,0:0:0:0:
257,94,7682,1,4,0:0:0:0:
219,71,7774,2,0,L|176:64,1,45,4|4,0:0|0:0,0:0:0:0:
56,120,7956,2,0,L|99:112,1,45,8|4,0:0|0:0,0:0:0:0:
284,172,8137,5,8,0:0:0:0:
284,172,8228,1,4,0:0:0:0:
284,172,8319,1,4,0:0:0:0:
296,216,8410,1,4,0:0:0:0:
308,260,8501,2,0,L|352:264,1,45,8|4,0:0|0:0,0:0:0:0:
396,356,8683,2,0,L|352:360,1,45,8|4,0:0|0:0,0:0:0:0:
160,288,8865,5,6,0:0:0:0:
160,288,8956,1,4,0:0:0:0:
160,288,9047,2,0,L|148:244,1,45,8|4,0:0|0:0,0:0:0:0:
260,340,9228,1,4,0:0:0:0:
260,340,9319,1,4,0:0:0:0:
260,340,9410,2,0,L|248:384,1,45,4|4,0:0|0:0,0:0:0:0:
396,356,9592,2,0,L|408:312,1,45,8|8,0:0|0:0,0:0:0:0:
284,172,9774,1,4,0:0:0:0:
284,172,9865,1,4,0:0:0:0:
284,172,9956,22,0,L|240:168,1,45,8|4,0:0|0:0,0:0:0:0:
263,264,10137,2,0,L|307:260,1,45,4|4,0:0|0:0,0:0:0:0:
144,184,10319,1,6,0:0:0:0:
144,184,10410,1,4,0:0:0:0:
144,184,10501,1,8,0:0:0:0:
136,140,10592,1,4,0:0:0:0:
128,96,10683,2,0,L|172:100,1,45,4|4,0:0|0:0,0:0:0:0:
340,112,10865,5,8,0:0:0:0:
384,100,10956,1,8,0:0:0:0:
416,68,11047,1,8,0:0:0:0:
411,112,11137,1,8,0:0:0:0:
406,157,11228,1,4,0:0:0:0:
401,202,11319,1,4,0:0:0:0:
396,246,11410,6,0,L|384:332,1,45,4|4,0:0|0:0,0:0:0:0:
288,280,11592,2,0,L|275:365,1,45,4|4,0:0|0:0,0:0:0:0:
179,313,11774,1,2,0:0:0:0:
60,160,13228,5,2,2:3:0:0:
392,80,13592,1,2,2:3:0:0:
60,160,13956,5,2,0:0:0:0:
58,171,14016,1,0,0:0:0:0:
57,182,14077,1,0,0:0:0:0:
56,193,14137,1,0,0:0:0:0:
54,204,14198,1,0,0:0:0:0:
53,215,14259,1,0,0:0:0:0:
52,227,14319,1,2,0:0:0:0:
50,238,14380,1,0,0:0:0:0:
49,249,14440,1,0,0:0:0:0:
48,260,14501,1,0,0:0:0:0:
46,271,14562,1,0,0:0:0:0:
45,282,14622,1,0,0:0:0:0:
44,294,14683,6,0,P|108:316|168:348,1,135,10|4,0:0|0:0,0:0:0:0:
204,376,15047,1,10,0:0:0:0:
360,280,15228,2,0,L|368:188,1,90,4|10,0:0|0:0,0:0:0:0:
212,84,15592,1,4,0:0:0:0:
52,227,15774,1,10,0:0:0:0:
204,376,15956,1,4,0:0:0:0:
436,244,16137,6,0,P|448:204|440:156,1,90,10|4,0:0|0:0,0:0:0:0:
428,140,16410,1,4,0:0:0:0:
428,140,16501,1,10,0:0:0:0:
270,287,16683,2,0,L|362:279,1,90,4|10,0:0|0:0,0:0:0:0:
160,156,17047,1,4,0:0:0:0:
204,376,17228,1,10,0:0:0:0:
368,208,17410,1,4,0:0:0:0:
160,156,17592,6,0,L|68:168,1,90,10|4,0:0|0:0,0:0:0:0:
52,184,17865,1,4,0:0:0:0:
52,184,17956,1,10,0:0:0:0:
270,287,18137,2,0,L|278:195,1,90,4|10,0:0|0:0,0:0:0:0:
220,36,18501,1,4,0:0:0:0:
348,136,18683,1,10,0:0:0:0:
156,236,18865,1,4,0:0:0:0:
380,352,19047,6,0,L|472:340,1,90,10|4,0:0|0:0,0:0:0:0:
488,324,19319,1,4,0:0:0:0:
488,324,19410,1,10,0:0:0:0:
348,136,19592,2,0,P|304:132|260:144,1,90,4|10,0:0|0:0,0:0:0:0:
196,304,19956,1,4,0:0:0:0:
380,352,20137,1,10,0:0:0:0:
348,136,20319,1,4,0:0:0:0:
196,304,20501,22,0,B|168:312|168:312|104:296,1,90,10|4,0:0|0:0,0:0:0:0:
84,292,20774,1,4,0:0:0:0:
84,292,20865,1,10,0:0:0:0:
312,224,21047,2,0,L|400:244,1,90,4|10,0:0|0:0,0:0:0:0:
252,360,21410,1,4,0:0:0:0:
100,208,21592,1,10,0:0:0:0:
216,24,21774,1,4,0:0:0:0:
368,180,21956,6,0,L|460:192,1,90,10|4,0:0|0:0,0:0:0:0:
484,184,22228,1,4,0:0:0:0:
484,184,22319,1,10,0:0:0:0:
184,120,22501,2,0,P|176:164|184:208,1,90,4|10,0:0|0:0,0:0:0:0:
340,332,22865,1,4,0:0:0:0:
484,184,23047,1,10,0:0:0:0:
376,8,23228,1,4,0:0:0:0:
92,118,23410,6,0,L|100:210,1,90,10|4,0:0|0:0,0:0:0:0:
112,232,23683,1,4,0:0:0:0:
112,232,23774,1,10,0:0:0:0:
340,332,23956,2,0,L|348:240,1,90,4|10,0:0|0:0,0:0:0:0:
368,84,24319,1,4,0:0:0:0:
484,184,24501,1,10,0:0:0:0:
347,242,24683,1,4,0:0:0:0:
231,142,24865,6,0,P|224:96|232:52,1,90,10|4,0:0|0:0,0:0:0:0:
244,28,25137,1,4,0:0:0:0:
244,28,25228,1,10,0:0:0:0:
347,242,25410,2,0,L|256:256,1,90,4|10,0:0|0:0,0:0:0:0:
124,108,25774,1,4,0:0:0:0:
368,84,25956,1,10,0:0:0:0:
392,328,26137,1,4,0:0:0:0:
148,352,26319,21,10,0:0:0:0:
244,28,26592,1,4,0:0:0:0:
392,328,26865,1,6,0:0:0:0:
392,328,27410,1,2,0:0:0:0:
392,328,28137,1,2,0:0:0:0:
232,188,28683,53,4,0:0:0:0:
246,190,28743,1,4,0:0:0:0:
261,193,28804,1,4,0:0:0:0:
276,196,28865,1,8,0:0:0:0:
392,328,29228,21,6,0:0:0:0:
444,40,29501,1,6,0:0:0:0:
56,156,29774,2,0,B|48:204|48:204|56:240|56:240|48:288,1,135,6|2,0:0|0:0,0:0:0:0:
120,348,30501,37,4,0:0:0:0:
133,353,30561,1,4,0:0:0:0:
148,356,30622,1,4,0:0:0:0:
163,356,30682,1,8,0:0:0:0:
177,353,30743,1,4,0:0:0:0:
191,346,30804,1,4,0:0:0:0:
203,337,30864,1,4,0:0:0:0:
212,324,30925,1,8,0:0:0:0:
220,311,30985,1,4,0:0:0:0:
230,300,31046,1,4,0:0:0:0:
243,293,31106,1,4,0:0:0:0:
257,288,31167,1,8,0:0:0:0:
272,286,31228,1,4,0:0:0:0:
287,287,31288,1,4,0:0:0:0:
301,291,31349,1,4,0:0:0:0:
316,301,31410,54,0,L|380:309,1,63,10|0,0:0|2:0,0:0:0:0:
448,256,32137,22,0,L|456:200,2,53.9999983520508,6|0|0,0:0|0:0|0:0,0:0:0:0:
348,80,32410,2,0,L|340:136,2,53.9999983520508,0|10|0,0:0|0:0|0:0,0:0:0:0:
208,256,32683,2,0,L|216:200,2,53.9999983520508,0|0|2,0:0|0:0|0:0,0:0:0:0:
108,80,32956,2,0,L|100:136,2,53.9999983520508,8|0|0,0:0|0:0|0:0,0:0:0:0:
28,264,33228,1,2,0:0:0:0:
32,292,33319,1,0,0:0:0:0:
36,320,33410,1,8,0:0:0:0:
40,348,33501,1,0,0:0:0:0:
44,376,33592,6,0,L|100:384,2,53.9999983520508,2|0|0,0:0|0:0|0:0,0:0:0:0:
208,256,33865,2,0,L|152:248,2,53.9999983520508,8|2|0,0:0|0:0|0:0,0:0:0:0:
292,372,34137,2,0,L|348:380,2,53.9999983520508,0|0|10,0:0|0:0|0:0,0:0:0:0:
456,252,34410,2,0,L|400:244,2,53.9999983520508
400,92,34683,1,2,0:0:0:0:
376,79,34773,1,8,0:0:0:0:
350,71,34864,1,0,0:0:0:0:
323,70,34955,1,0,0:0:0:0:
297,75,35047,5,2,0:0:0:0:
244,61,35137,1,0,0:0:0:0:
192,48,35228,1,8,0:0:0:0:
128,76,35319,1,0,0:0:0:0:
132,112,35410,1,2,0:0:0:0:
136,148,35501,1,0,0:0:0:0:
196,184,35592,1,0,0:0:0:0:
192,220,35683,1,8,0:0:0:0:
188,256,35774,1,2,0:0:0:0:
128,292,35865,1,0,0:0:0:0:
132,328,35956,1,0,0:0:0:0:
136,364,36047,1,0,0:0:0:0:
204,384,36137,1,10,0:0:0:0:
242,371,36227,1,0,0:0:0:0:
267,341,36318,1,0,0:0:0:0:
273,301,36409,1,0,0:0:0:0:
256,264,36500,5,2,0:0:0:0:
260,228,36592,1,8,0:0:0:0:
264,192,36683,1,0,0:0:0:0:
332,176,36774,1,0,0:0:0:0:
336,136,36866,1,2,0:0:0:0:
340,100,36957,1,0,0:0:0:0:
284,60,37047,1,8,0:0:0:0:
248,64,37137,1,0,0:0:0:0:
212,68,37228,1,2,0:0:0:0:
164,120,37319,1,0,0:0:0:0:
128,116,37409,1,0,0:0:0:0:
92,112,37500,1,8,0:0:0:0:
32,48,37592,1,2,0:0:0:0:
36,52,37683,1,0,0:0:0:0:
40,56,37774,1,0,0:0:0:0:
44,60,37865,1,0,0:0:0:0:
92,112,37956,21,10,0:0:0:0:
84,148,38047,1,0,0:0:0:0:
76,184,38137,1,0,0:0:0:0:
136,220,38228,1,0,0:0:0:0:
128,256,38319,1,10,0:0:0:0:
120,292,38409,1,0,0:0:0:0:
168,344,38501,1,0,0:0:0:0:
204,352,38592,1,0,0:0:0:0:
240,360,38682,1,2,0:0:0:0:
276,300,38773,1,8,0:0:0:0:
312,308,38864,1,0,0:0:0:0:
348,316,38954,1,0,0:0:0:0:
404,360,39047,1,2,0:0:0:0:
416,324,39137,1,0,0:0:0:0:
428,288,39228,1,8,0:0:0:0:
440,252,39319,1,0,0:0:0:0:
452,216,39410,5,2,0:0:0:0:
416,224,39501,1,0,0:0:0:0:
380,216,39592,1,0,0:0:0:0:
328,168,39683,1,8,0:0:0:0:
292,160,39774,1,2,0:0:0:0:
256,168,39865,1,0,0:0:0:0:
208,220,39956,1,0,0:0:0:0:
172,228,40047,1,0,0:0:0:0:
136,220,40138,1,10,0:0:0:0:
84,172,40229,1,0,0:0:0:0:
48,164,40320,1,0,0:0:0:0:
12,172,40411,1,0,0:0:0:0:
0,240,40501,1,2,0:0:0:0:
8,276,40592,1,8,0:0:0:0:
16,312,40683,1,0,0:0:0:0:
24,348,40774,1,0,0:0:0:0:
32,384,40865,6,0,L|88:380,2,53.9999983520508,2|0|8,0:0|0:0|0:0,0:0:0:0:
200,300,41137,2,0,L|144:304,2,53.9999983520508,0|2|0,0:0|0:0|0:0,0:0:0:0:
280,368,41410,2,0,L|336:364,2,53.9999983520508,0|8|2,0:0|0:0|0:0,0:0:0:0:
448,284,41682,2,0,L|392:288,2,53.9999983520508
352,204,41956,1,10,0:0:0:0:
316,208,42047,1,0,0:0:0:0:
280,212,42137,1,0,0:0:0:0:
244,216,42228,1,0,0:0:0:0:
208,220,42319,6,0,L|152:212,2,53.9999983520508,2|8|4,0:0|0:0|0:0,0:0:0:0:
100,96,42592,2,0,L|156:104,2,53.9999983520508,4|10|0,0:0|0:0|0:0,0:0:0:0:
240,40,42865,1,4,0:0:0:0:
240,40,42956,1,4,0:0:0:0:
240,40,43047,1,8,0:0:0:0:
248,76,43137,1,8,0:0:0:0:
256,112,43228,1,8,0:0:0:0:
264,148,43319,1,8,0:0:0:0:
280,212,43410,1,8,0:0:0:0:
272,248,43500,1,8,0:0:0:0:
264,284,43591,1,8,0:0:0:0:
256,320,43682,1,8,0:0:0:0:
200,364,43774,21,6,0:0:0:0:
143,371,43864,1,0,0:0:0:0:
95,339,43955,1,10,0:0:0:0:
78,285,44046,1,0,0:0:0:0:
100,232,44137,1,0,0:0:0:0:
151,206,44228,1,0,0:0:0:0:
207,219,44319,1,10,0:0:0:0:
262,232,44409,1,0,0:0:0:0:
313,206,44500,1,0,0:0:0:0:
336,153,44591,1,0,0:0:0:0:
319,98,44682,1,10,0:0:0:0:
271,67,44773,1,0,0:0:0:0:
214,74,44865,2,0,P|184:80|156:80,1,58.4999973220826
60,0,45047,2,0,P|79:24|93:48,1,58.4999973220826,10|0,0:0|0:0,0:0:0:0:
72,171,45228,5,0,0:0:0:0:
43,220,45318,1,0,0:0:0:0:
52,276,45409,1,10,0:0:0:0:
96,313,45500,1,0,0:0:0:0:
154,313,45591,1,0,0:0:0:0:
197,276,45682,1,0,0:0:0:0:
207,219,45774,1,10,0:0:0:0:
216,162,45864,1,0,0:0:0:0:
259,125,45955,1,0,0:0:0:0:
317,125,46046,1,0,0:0:0:0:
361,161,46137,1,10,0:0:0:0:
371,218,46228,1,0,0:0:0:0:
342,267,46319,2,0,P|336:292|332:328,1,58.4999973220826
432,368,46501,2,0,P|427:343|415:309,1,58.4999973220826,10|0,0:0|0:0,0:0:0:0:
288,204,46683,5,6,0:0:0:0:
231,191,46773,1,0,0:0:0:0:
174,201,46864,1,10,0:0:0:0:
125,234,46956,1,0,0:0:0:0:
70,249,47046,1,0,0:0:0:0:
20,223,47137,1,0,0:0:0:0:
1,169,47228,1,10,0:0:0:0:
24,117,47319,1,0,0:0:0:0:
77,94,47410,1,0,0:0:0:0:
130,114,47501,1,0,0:0:0:0:
186,126,47591,1,10,0:0:0:0:
243,116,47682,1,0,0:0:0:0:
292,83,47774,2,0,P|320:68|348:60,1,58.4999973220826
480,200,47956,2,0,P|452:215|424:223,1,58.4999973220826,10|0,0:0|0:0,0:0:0:0:
288,204,48137,5,6,0:0:0:0:
233,220,48227,1,0,0:0:0:0:
207,270,48318,1,10,0:0:0:0:
227,324,48409,1,0,0:0:0:0:
279,346,48500,1,0,0:0:0:0:
331,324,48592,1,0,0:0:0:0:
363,275,48683,1,10,0:0:0:0:
368,218,48773,1,0,0:0:0:0:
345,164,48864,1,0,0:0:0:0:
301,127,48955,1,0,0:0:0:0:
243,116,49047,2,0,L|184:128,1,58.4999973220826,10|0,0:0|0:0,0:0:0:0:
20,223,49228,1,0,0:0:0:0:
20,223,49319,1,0,0:0:0:0:
20,223,49410,2,0,L|79:234,1,58.4999973220826,10|0,0:0|0:0,0:0:0:0:
280,276,49592,21,6,0:0:0:0:
337,287,49682,1,0,0:0:0:0:
394,299,49774,1,10,0:0:0:0:
451,290,49864,1,0,0:0:0:0:
488,247,49955,1,0,0:0:0:0:
489,190,50046,1,0,0:0:0:0:
452,145,50137,1,10,0:0:0:0:
396,136,50228,1,0,0:0:0:0:
345,164,50319,1,0,0:0:0:0:
295,192,50409,1,0,0:0:0:0:
240,179,50500,1,10,0:0:0:0:
208,131,50591,1,0,0:0:0:0:
216,75,50683,2,0,P|224:44|236:16,1,58.4999973220826
295,192,50865,2,0,P|287:223|275:251,1,58.4999973220826,10|0,0:0|0:0,0:0:0:0:
127,314,51047,5,0,0:0:0:0:
70,309,51137,1,0,0:0:0:0:
31,267,51228,1,10,0:0:0:0:
30,210,51319,1,0,0:0:0:0:
68,167,51410,1,0,0:0:0:0:
125,161,51501,1,0,0:0:0:0:
171,194,51592,1,10,0:0:0:0:
217,227,51682,1,0,0:0:0:0:
274,221,51773,1,0,0:0:0:0:
311,178,51864,1,0,0:0:0:0:
311,121,51955,1,10,0:0:0:0:
272,79,52046,1,0,0:0:0:0:
216,75,52137,2,0,P|180:80|156:88,1,58.4999973220826
104,236,52319,2,0,P|139:230|163:222,1,58.4999973220826,10|0,0:0|0:0,0:0:0:0:
311,121,52501,5,6,0:0:0:0:
368,119,52591,1,0,0:0:0:0:
410,158,52682,1,10,0:0:0:0:
412,215,52773,1,0,0:0:0:0:
373,257,52864,1,0,0:0:0:0:
316,260,52955,1,0,0:0:0:0:
274,222,53047,1,10,0:0:0:0:
231,183,53137,1,0,0:0:0:0:
174,186,53228,1,0,0:0:0:0:
136,228,53319,1,0,0:0:0:0:
138,285,53410,1,10,0:0:0:0:
180,324,53501,1,0,0:0:0:0:
237,322,53592,2,0,P|264:316|292:304,1,58.4999973220826
136,228,53774,2,0,P|109:221|81:209,1,58.4999973220826,10|0,0:0|0:0,0:0:0:0:
236,132,53956,5,6,0:0:0:0:
240,128,54047,1,8,0:0:0:0:
244,124,54137,1,8,0:0:0:0:
204,116,54228,1,8,0:0:0:0:
164,108,54319,1,8,0:0:0:0:
124,100,54410,1,8,0:0:0:0:
84,92,54501,1,8,0:0:0:0:
88,132,54592,1,4,0:0:0:0:
92,172,54683,1,8,0:0:0:0:
135,172,54773,1,8,0:0:0:0:
176,186,54864,1,4,0:0:0:0:
210,214,54955,1,4,0:0:0:0:
232,252,55047,1,8,0:0:0:0:
254,289,55137,1,8,0:0:0:0:
287,317,55228,1,4,0:0:0:0:
328,332,55319,1,4,0:0:0:0:
372,332,55410,22,0,P|412:320|448:272,1,103.500001974106,6|0,0:0|0:0,0:0:0:0:
352,152,55683,2,0,L|372:256,1,103.500001974106,2|0,0:0|0:0,0:0:0:0:
440,192,55956,2,0,L|420:88,1,103.500001974106,10|0,0:0|0:0,0:0:0:0:
284,108,56228,2,0,P|272:156|292:208,1,103.500001974106,2|0,0:0|0:0,0:0:0:0:
352,152,56501,1,2,0:0:0:0:
216,64,56683,1,8,0:0:0:0:
104,180,56865,6,0,B|96:220|96:220|100:240|100:240|92:288,1,103.500001974106,2|0,0:0|0:0,0:0:0:0:
184,240,57137,2,0,B|176:200|176:200|180:180|180:180|172:132,1,103.500001974106,2|0,0:0|0:0,0:0:0:0:
252,204,57410,2,0,P|260:256|236:300,1,103.500001974106,10|0,0:0|0:0,0:0:0:0:
173,138,57683,2,0,B|201:125|201:125|288:140,1,103.500001974106,2|0,0:0|0:0,0:0:0:0:
352,152,57956,1,2,0:0:0:0:
184,240,58137,1,8,0:0:0:0:
192,48,58319,6,0,P|240:40|292:56,1,103.500001974106,2|0,0:0|0:0,0:0:0:0:
236,136,58592,2,0,L|132:120,1,103.500001974106,2|0,0:0|0:0,0:0:0:0:
184,240,58865,2,0,L|288:224,1,103.500001974106,10|0,0:0|0:0,0:0:0:0:
341,304,59137,2,0,P|292:319|242:312,1,103.500001974106,2|0,0:0|0:0,0:0:0:0:
184,240,59410,1,2,0:0:0:0:
352,152,59592,1,8,0:0:0:0:
192,48,59774,6,0,B|156:40|156:40|88:56,1,103.500001974106,2|0,0:0|0:0,0:0:0:0:
236,136,60047,2,0,B|272:128|272:128|340:144,1,103.500001974106,2|0,0:0|0:0,0:0:0:0:
184,240,60319,2,0,B|148:232|148:232|80:248,1,103.500001974106,2|0,0:0|0:0,0:0:0:0:
228,328,60592,2,0,B|264:320|264:320|332:336,1,103.500001974106,2|0,0:0|0:0,0:0:0:0:
420,360,60865,1,2,0:0:0:0:
452,192,61047,1,8,0:0:0:0:
420,24,61228,21,2,0:0:0:0:
248,119,62683,54,0,L|256:191,1,72,6|4,0:0|0:0,0:0:0:0:
257,196,63471,1,4,0:0:0:0:
257,202,63531,1,4,0:0:0:0:
258,208,63592,1,4,0:0:0:0:
258,214,63652,1,4,0:0:0:0:
259,220,63713,1,4,0:0:0:0:
260,226,63774,22,0,B|263:243|272:260|272:260|256:276|256:276|288:324|268:384,1,168.75,0|0,0:0|2:0,0:0:0:0:
200,336,64137,5,10,0:0:0:0:
120,168,64319,1,4,0:0:0:0:
256,40,64501,1,10,0:0:0:0:
336,208,64683,1,4,0:0:0:0:
200,336,64865,1,10,0:0:0:0:
32,232,65047,1,4,0:0:0:0:
296,124,65228,1,10,0:0:0:0:
464,228,65410,1,4,0:0:0:0:
200,336,65592,6,0,P|148:328|96:324,1,103.500001974106,10|4,0:0|0:0,0:0:0:0:
296,124,65956,2,0,P|348:116|400:112,1,103.500001974106,10|4,0:0|0:0,0:0:0:0:
118,108,66319,1,10,0:0:0:0:
200,336,66501,1,4,0:0:0:0:
431,254,66683,1,10,0:0:0:0:
346,21,66865,1,4,0:0:0:0:
118,108,67047,22,0,L|110:164,1,53.9999983520508,10|4,0:0|0:0,0:0:0:0:
34,132,67228,2,0,L|26:188,1,53.9999983520508,8|4,0:0|0:0,0:0:0:0:
116,360,67410,2,0,L|124:304,1,53.9999983520508,10|4,0:0|0:0,0:0:0:0:
200,336,67591,2,0,L|208:280,1,53.9999983520508,8|4,0:0|0:0,0:0:0:0:
296,124,67774,6,0,L|304:180,1,53.9999983520508,10|4,0:0|0:0,0:0:0:0:
380,148,67955,2,0,L|388:204,1,53.9999983520508,8|4,0:0|0:0,0:0:0:0:
142,192,68137,2,0,L|86:184,1,53.9999983520508,10|4,0:0|0:0,0:0:0:0:
118,108,68318,2,0,L|62:100,1,53.9999983520508,8|4,0:0|0:0,0:0:0:0:
220,28,68501,6,0,L|276:24,1,53.9999983520508,10|4,0:0|0:0,0:0:0:0:
420,156,68683,2,0,L|424:212,1,53.9999983520508,8|4,0:0|0:0,0:0:0:0:
292,356,68865,2,0,L|236:360,1,53.9999983520508,10|4,0:0|0:0,0:0:0:0:
92,228,69047,2,0,L|88:172,1,53.9999983520508,8|4,0:0|0:0,0:0:0:0:
220,28,69228,5,10,0:0:0:0:
267,51,69318,1,0,0:0:0:0:
293,97,69409,1,0,0:0:0:0:
289,150,69500,1,0,0:0:0:0:
255,192,69592,1,6,0:0:0:0:
222,233,69682,1,0,0:0:0:0:
218,286,69773,1,0,0:0:0:0:
244,332,69864,1,0,0:0:0:0:
292,356,69956,22,0,B|313:360|336:368|336:368|368:348|368:348|420:360|460:348,1,175.499991966248,6|4,0:0|0:0,0:0:0:0:
480,328,70319,2,0,P|497:276|477:220,1,116.999994644165,10|4,0:0|0:0,0:0:0:0:
152,232,70683,2,0,P|135:284|155:340,1,116.999994644165,6|4,0:0|0:0,0:0:0:0:
420,276,71047,1,10,0:0:0:0:
152,232,71228,1,4,0:0:0:0:
380,140,71410,1,6,0:0:0:0:
109,166,71591,1,4,0:0:0:0:
340,4,71774,5,10,0:0:0:0:
356,8,71865,1,4,0:0:0:0:
372,12,71956,1,4,0:0:0:0:
320,220,72137,1,10,0:0:0:0:
304,224,72228,1,4,0:0:0:0:
288,228,72319,1,4,0:0:0:0:
104,64,72501,1,10,0:0:0:0:
104,64,72592,1,4,0:0:0:0:
104,64,72683,1,4,0:0:0:0:
104,64,72774,1,4,0:0:0:0:
104,64,72865,6,0,P|160:48|224:40,1,116.999994644165,10|4,0:0|0:0,0:0:0:0:
352,152,73228,1,10,0:0:0:0:
136,240,73410,1,4,0:0:0:0:
368,144,73592,1,6,0:0:0:0:
120,248,73774,1,4,0:0:0:0:
384,136,73956,1,10,0:0:0:0:
320,372,74137,1,4,0:0:0:0:
104,256,74319,5,6,0:0:0:0:
100,240,74410,1,4,0:0:0:0:
96,224,74501,1,4,0:0:0:0:
272,128,74683,1,10,0:0:0:0:
268,144,74774,1,4,0:0:0:0:
264,160,74865,1,4,0:0:0:0:
440,256,75047,1,10,0:0:0:0:
460,24,75228,1,10,0:0:0:0:
144,44,75410,1,8,0:0:0:0:
156,100,75501,1,8,0:0:0:0:
168,156,75592,1,8,0:0:0:0:
180,212,75683,1,8,0:0:0:0:
192,268,75774,22,0,B|248:280|248:280|308:264,1,116.999994644165,6|10,0:0|0:0,0:0:0:0:
352,156,76047,2,0,P|296:148|240:168,1,116.999994644165,4|4,0:0|0:0,0:0:0:0:
384,280,76319,2,0,L|392:220,1,58.4999973220826,10|4,0:0|0:0,0:0:0:0:
360,64,76501,1,4,0:0:0:0:
323,40,76591,1,4,0:0:0:0:
280,34,76682,1,10,0:0:0:0:
239,48,76773,1,4,0:0:0:0:
208,79,76865,1,4,0:0:0:0:
177,109,76955,1,4,0:0:0:0:
135,123,77046,1,10,0:0:0:0:
92,118,77137,1,4,0:0:0:0:
56,94,77228,6,0,L|72:212,1,116.999994644165,6|10,0:0|0:0,0:0:0:0:
144,248,77501,2,0,B|160:288|160:288|148:368,1,116.999994644165,4|4,0:0|0:0,0:0:0:0:
72,356,77774,2,0,L|84:288,1,58.4999973220826,10|4,0:0|0:0,0:0:0:0:
232,184,77956,1,6,0:0:0:0:
232,184,78047,1,8,0:0:0:0:
232,184,78137,1,8,0:0:0:0:
240,216,78228,1,8,0:0:0:0:
248,248,78319,1,8,0:0:0:0:
290,287,78409,1,8,0:0:0:0:
346,298,78500,1,4,0:0:0:0:
400,278,78591,1,4,0:0:0:0:
435,232,78683,6,0,B|444:172|444:172|432:124|432:124|440:60,1,175.499991966248,10|4,0:0|0:0,0:0:0:0:
496,124,79047,2,0,B|436:132|436:132|380:116,1,116.999994644165,10|4,0:0|0:0,0:0:0:0:
219,16,79410,2,0,B|247:68|247:68|231:184,1,175.499991966248,10|4,0:0|0:0,0:0:0:0:
168,88,79774,2,0,L|284:104,1,116.999994644165,10|4,0:0|0:0,0:0:0:0:
364,232,80137,21,8,0:0:0:0:
361,251,80197,1,4,0:0:0:0:
358,270,80258,1,8,0:0:0:0:
356,289,80318,1,4,0:0:0:0:
353,309,80379,1,4,0:0:0:0:
350,328,80440,1,4,0:0:0:0:
348,347,80500,1,10,0:0:0:0:
44,292,80865,54,0,L|104:280,1,58.4999973220826,8|8,0:0|0:0,0:0:0:0:
248,344,81047,2,0,L|188:332,1,58.4999973220826,8|8,0:0|0:0,0:0:0:0:
28,208,81228,2,0,L|88:196,1,58.4999973220826,8|8,0:0|0:0,0:0:0:0:
264,260,81410,2,0,L|204:248,1,58.4999973220826,8|8,0:0|0:0,0:0:0:0:
44,108,81592,22,0,P|132:60|256:96,1,233.999989288331,6|4,0:0|0:0,0:0:0:0:
28,208,82137,1,10,0:0:0:0:
300,168,82319,1,4,0:0:0:0:
32,224,82501,1,10,0:0:0:0:
348,244,82683,1,4,0:0:0:0:
36,240,82865,1,10,0:0:0:0:
396,320,83047,1,6,0:0:0:0:
254,94,83228,1,10,0:0:0:0:
40,256,83410,5,6,0:0:0:0:
44,268,83501,1,4,0:0:0:0:
48,280,83592,1,10,0:0:0:0:
220,192,83774,1,4,0:0:0:0:
224,180,83865,1,4,0:0:0:0:
228,168,83956,1,10,0:0:0:0:
396,320,84137,1,4,0:0:0:0:
400,332,84228,1,4,0:0:0:0:
404,344,84319,1,10,0:0:0:0:
408,356,84410,1,4,0:0:0:0:
412,368,84501,6,0,P|432:316|416:256,1,116.999994644165,6|10,0:0|0:0,0:0:0:0:
228,168,84865,1,4,0:0:0:0:
48,280,85047,1,10,0:0:0:0:
236,372,85228,1,4,0:0:0:0:
417,258,85410,1,10,0:0:0:0:
220,84,85592,1,4,0:0:0:0:
48,280,85774,1,10,0:0:0:0:
236,372,85956,6,0,B|316:376|316:376|384:348|384:348|464:352,1,233.999989288331,6|4,0:0|0:0,0:0:0:0:
379,141,86501,1,10,0:0:0:0:
379,141,86592,1,4,0:0:0:0:
379,141,86683,1,4,0:0:0:0:
340,120,86773,1,4,0:0:0:0:
297,118,86864,1,10,0:0:0:0:
256,135,86955,1,4,0:0:0:0:
227,167,87047,1,4,0:0:0:0:
197,199,87137,1,4,0:0:0:0:
157,216,87228,1,10,0:0:0:0:
114,213,87319,1,4,0:0:0:0:
75,193,87410,22,0,B|56:160|56:160|64:80,1,116.999994644165,6|10,0:0|0:0,0:0:0:0:
148,128,87683,2,0,L|136:244,1,116.999994644165,4|4,0:0|0:0,0:0:0:0:
227,167,87956,2,0,L|232:108,1,58.4999973220826,10|4,0:0|0:0,0:0:0:0:
379,141,88137,1,4,0:0:0:0:
393,166,88227,1,4,0:0:0:0:
399,194,88318,1,10,0:0:0:0:
396,223,88409,1,4,0:0:0:0:
385,250,88501,1,4,0:0:0:0:
373,276,88591,1,4,0:0:0:0:
370,305,88682,1,10,0:0:0:0:
376,334,88773,1,4,0:0:0:0:
391,359,88865,6,0,B|452:368|452:368|504:344,1,116.999994644165,6|10,0:0|0:0,0:0:0:0:
440,288,89137,2,0,L|324:268,1,116.999994644165,4|4,0:0|0:0,0:0:0:0:
272,344,89410,2,0,L|212:352,1,58.4999973220826,10|4,0:0|0:0,0:0:0:0:
120,304,89592,1,4,0:0:0:0:
112,268,89683,1,4,0:0:0:0:
104,232,89774,1,10,0:0:0:0:
256,88,89956,1,10,0:0:0:0:
256,88,90047,1,4,0:0:0:0:
256,88,90137,1,4,0:0:0:0:
256,88,90228,1,4,0:0:0:0:
256,88,90319,5,10,0:0:0:0:
235,108,90409,1,4,0:0:0:0:
208,119,90500,1,4,0:0:0:0:
179,121,90591,1,4,0:0:0:0:
151,111,90683,1,10,0:0:0:0:
123,101,90773,1,4,0:0:0:0:
94,103,90864,1,4,0:0:0:0:
67,114,90955,1,4,0:0:0:0:
46,134,91047,1,10,0:0:0:0:
39,162,91137,1,4,0:0:0:0:
44,191,91228,1,4,0:0:0:0:
62,214,91319,1,4,0:0:0:0:
87,228,91410,1,10,0:0:0:0:
116,230,91501,1,4,0:0:0:0:
143,219,91592,1,4,0:0:0:0:
169,206,91682,1,4,0:0:0:0:
197,199,91773,5,8,0:0:0:0:
328,236,91956,1,8,0:0:0:0:
458,272,92137,1,6,0:0:0:0:
408,184,92259,5,4,0:0:0:0:
412,168,92319,1,4,0:0:0:0:
416,152,92380,1,4,0:0:0:0:
420,136,92440,1,4,0:0:0:0:
424,120,92501,1,8,0:0:0:0:
268,120,92743,2,0,L|272:180,2,60,4|8|4,0:0|0:0|0:0,0:0:0:0:
68,280,93228,5,6,0:0:0:0:
81,322,93318,1,0,0:0:0:0:
113,352,93409,1,0,0:0:0:0:
156,363,93500,1,8,0:0:0:0:
199,351,93591,1,2,0:0:0:0:
231,320,93683,1,0,0:0:0:0:
244,277,93773,1,0,0:0:0:0:
237,233,93864,1,0,0:0:0:0:
213,196,93956,1,2,0:0:0:0:
187,159,94046,1,8,0:0:0:0:
181,114,94137,1,0,0:0:0:0:
194,72,94228,1,0,0:0:0:0:
225,40,94318,1,2,0:0:0:0:
268,28,94409,1,0,0:0:0:0:
311,39,94500,1,0,0:0:0:0:
344,70,94592,1,0,0:0:0:0:
357,112,94683,5,2,0:0:0:0:
358,146,94773,1,0,0:0:0:0:
347,177,94864,1,0,0:0:0:0:
325,202,94955,1,8,0:0:0:0:
295,217,95046,1,2,0:0:0:0:
261,220,95137,1,0,0:0:0:0:
229,210,95228,1,0,0:0:0:0:
203,188,95319,1,0,0:0:0:0:
187,159,95410,1,2,0:0:0:0:
170,129,95500,1,8,0:0:0:0:
145,108,95591,1,0,0:0:0:0:
113,98,95682,1,0,0:0:0:0:
79,100,95773,1,2,0:0:0:0:
49,115,95864,1,0,0:0:0:0:
27,140,95955,1,0,0:0:0:0:
15,172,96046,1,0,0:0:0:0:
17,205,96137,5,10,0:0:0:0:
56,220,96228,1,0,0:0:0:0:
96,232,96319,1,0,0:0:0:0:
136,244,96410,1,8,0:0:0:0:
176,256,96501,1,2,0:0:0:0:
216,268,96592,1,0,0:0:0:0:
256,280,96683,1,0,0:0:0:0:
296,292,96774,1,0,0:0:0:0:
336,304,96865,1,2,0:0:0:0:
376,304,96955,1,8,0:0:0:0:
412,287,97046,1,0,0:0:0:0:
437,256,97137,1,0,0:0:0:0:
447,217,97228,1,2,0:0:0:0:
438,178,97319,1,0,0:0:0:0:
413,146,97410,1,0,0:0:0:0:
377,128,97501,1,0,0:0:0:0:
337,132,97592,5,2,0:0:0:0:
328,164,97683,1,0,0:0:0:0:
320,196,97774,1,0,0:0:0:0:
312,228,97865,1,8,0:0:0:0:
304,260,97956,1,2,0:0:0:0:
296,292,98047,1,0,0:0:0:0:
277,317,98137,1,0,0:0:0:0:
251,334,98228,1,0,0:0:0:0:
220,340,98319,1,2,0:0:0:0:
190,334,98410,1,8,0:0:0:0:
163,317,98501,1,0,0:0:0:0:
145,292,98592,1,0,0:0:0:0:
138,261,98683,1,2,0:0:0:0:
143,230,98774,1,0,0:0:0:0:
158,203,98865,1,0,0:0:0:0:
183,184,98956,1,0,0:0:0:0:
213,176,99047,21,6,0:0:0:0:
239,158,99137,1,0,0:0:0:0:
257,132,99228,1,0,0:0:0:0:
266,102,99319,1,8,0:0:0:0:
263,71,99410,1,2,0:0:0:0:
251,42,99501,1,0,0:0:0:0:
229,20,99592,1,0,0:0:0:0:
201,6,99683,1,0,0:0:0:0:
170,2,99774,1,2,0:0:0:0:
139,9,99865,1,8,0:0:0:0:
113,26,99956,1,0,0:0:0:0:
94,51,100046,1,0,0:0:0:0:
85,81,100137,1,2,0:0:0:0:
86,113,100228,1,0,0:0:0:0:
98,141,100319,1,0,0:0:0:0:
119,165,100410,5,0,0:0:0:0:
116,200,100501,1,2,0:0:0:0:
112,236,100592,1,0,0:0:0:0:
108,272,100683,1,0,0:0:0:0:
104,308,100774,1,8,0:0:0:0:
107,343,100864,1,2,0:0:0:0:
130,370,100955,1,0,0:0:0:0:
164,378,101046,1,0,0:0:0:0:
197,365,101137,1,0,0:0:0:0:
217,335,101228,1,2,0:0:0:0:
215,300,101319,1,8,0:0:0:0:
208,265,101409,1,0,0:0:0:0:
222,232,101500,1,0,0:0:0:0:
253,215,101592,1,2,0:0:0:0:
288,217,101682,1,0,0:0:0:0:
315,240,101773,1,0,0:0:0:0:
324,275,101864,5,0,0:0:0:0:
364,284,101956,1,10,0:0:0:0:
404,296,102047,1,0,0:0:0:0:
444,304,102137,1,0,0:0:0:0:
483,297,102227,1,0,0:0:0:0:
508,267,102318,1,2,0:0:0:0:
508,227,102409,1,0,0:0:0:0:
481,198,102500,1,0,0:0:0:0:
442,193,102591,1,0,0:0:0:0:
400,200,102683,1,2,0:0:0:0:
360,212,102774,1,8,0:0:0:0:
320,224,102865,1,0,0:0:0:0:
280,236,102956,1,0,0:0:0:0:
240,248,103047,1,2,0:0:0:0:
200,260,103137,5,0,0:0:0:0:
168,263,103227,1,0,0:0:0:0:
139,253,103318,1,0,0:0:0:0:
116,232,103409,1,2,0:0:0:0:
104,203,103500,1,0,0:0:0:0:
104,172,103591,1,0,0:0:0:0:
118,143,103682,1,8,0:0:0:0:
142,123,103773,1,2,0:0:0:0:
172,115,103864,1,0,0:0:0:0:
203,120,103956,21,0,0:0:0:0:
244,132,104047,1,0,0:0:0:0:
284,140,104137,1,2,0:0:0:0:
324,152,104228,1,0,0:0:0:0:
364,160,104319,1,2,0:0:0:0:
404,172,104410,1,0,0:0:0:0:
444,184,104501,2,0,L|492:196,1,45,8|8,0:0|0:0,0:0:0:0:
432,276,104683,2,0,L|480:288,1,45,8|8,0:0|0:0,0:0:0:0:
420,368,104865,5,10,0:0:0:0:
394,359,104955,1,0,0:0:0:0:
372,344,105046,1,0,0:0:0:0:
355,323,105137,1,8,0:0:0:0:
345,298,105228,1,2,0:0:0:0:
342,271,105319,1,0,0:0:0:0:
347,245,105410,1,0,0:0:0:0:
360,221,105501,1,0,0:0:0:0:
386,196,105592,1,2,0:0:0:0:
406,178,105682,1,8,0:0:0:0:
421,156,105773,1,0,0:0:0:0:
428,130,105864,1,0,0:0:0:0:
428,103,105955,1,2,0:0:0:0:
421,77,106047,5,0,0:0:0:0:
392,80,106137,1,0,0:0:0:0:
360,84,106228,1,0,0:0:0:0:
328,88,106319,1,2,0:0:0:0:
296,92,106410,1,0,0:0:0:0:
264,96,106501,1,0,0:0:0:0:
232,100,106592,1,8,0:0:0:0:
200,104,106683,1,2,0:0:0:0:
168,108,106774,1,0,0:0:0:0:
136,112,106865,1,0,0:0:0:0:
104,116,106956,1,0,0:0:0:0:
72,120,107047,1,2,0:0:0:0:
40,124,107137,5,8,0:0:0:0:
56,156,107228,1,0,0:0:0:0:
72,188,107319,1,0,0:0:0:0:
88,220,107410,1,2,0:0:0:0:
104,252,107501,1,0,0:0:0:0:
120,284,107592,1,0,0:0:0:0:
136,316,107683,1,0,0:0:0:0:
152,348,107774,1,10,0:0:0:0:
179,371,107864,1,0,0:0:0:0:
212,380,107955,1,0,0:0:0:0:
248,372,108046,1,8,0:0:0:0:
276,349,108137,1,2,0:0:0:0:
291,317,108228,1,0,0:0:0:0:
290,281,108319,1,0,0:0:0:0:
273,250,108410,21,0,0:0:0:0:
261,211,108500,1,2,0:0:0:0:
264,171,108591,1,8,0:0:0:0:
281,135,108682,1,0,0:0:0:0:
310,106,108773,1,0,0:0:0:0:
347,90,108864,1,2,0:0:0:0:
387,88,108955,1,0,0:0:0:0:
425,100,109046,1,0,0:0:0:0:
457,125,109137,1,0,0:0:0:0:
478,159,109228,1,2,0:0:0:0:
485,199,109319,1,0,0:0:0:0:
478,239,109409,1,0,0:0:0:0:
457,273,109500,1,8,0:0:0:0:
426,298,109591,1,2,0:0:0:0:
388,311,109682,1,0,0:0:0:0:
348,312,109774,5,0,0:0:0:0:
304,300,109865,1,0,0:0:0:0:
260,288,109956,1,2,0:0:0:0:
216,276,110047,1,8,0:0:0:0:
172,264,110137,1,0,0:0:0:0:
128,252,110228,1,0,0:0:0:0:
85,262,110318,1,2,0:0:0:0:
60,298,110409,1,0,0:0:0:0:
67,342,110500,1,0,0:0:0:0:
101,370,110591,1,0,0:0:0:0:
145,367,110682,1,2,0:0:0:0:
175,336,110773,1,0,0:0:0:0:
188,292,110865,1,0,0:0:0:0:
200,248,110956,1,8,0:0:0:0:
208,204,111047,5,2,0:0:0:0:
227,158,111137,1,0,0:0:0:0:
265,128,111228,1,0,0:0:0:0:
313,119,111319,1,0,0:0:0:0:
360,134,111410,1,2,0:0:0:0:
394,169,111501,1,8,0:0:0:0:
407,217,111592,1,0,0:0:0:0:
397,264,111683,1,0,0:0:0:0:
365,302,111774,1,2,0:0:0:0:
320,320,111865,1,0,0:0:0:0:
272,308,111956,1,0,0:0:0:0:
224,296,112047,1,0,0:0:0:0:
176,284,112137,1,2,0:0:0:0:
128,272,112228,1,0,0:0:0:0:
80,260,112319,1,0,0:0:0:0:
32,248,112410,5,8,0:0:0:0:
68,208,112501,1,2,0:0:0:0:
104,168,112592,1,0,0:0:0:0:
140,128,112683,1,0,0:0:0:0:
176,88,112774,1,0,0:0:0:0:
212,48,112865,1,2,0:0:0:0:
261,28,112955,1,8,0:0:0:0:
312,43,113046,1,0,0:0:0:0:
343,85,113137,1,0,0:0:0:0:
342,138,113228,1,2,0:0:0:0:
309,179,113319,1,0,0:0:0:0:
275,220,113410,1,0,0:0:0:0:
274,273,113501,1,0,0:0:0:0:
305,315,113592,1,10,0:0:0:0:
350,342,113682,1,0,0:0:0:0:
402,335,113773,1,0,0:0:0:0:
438,296,113865,21,0,0:0:0:0:
454,241,113955,1,2,0:0:0:0:
434,187,114046,1,0,0:0:0:0:
386,156,114137,1,0,0:0:0:0:
328,160,114228,1,0,0:0:0:0:
285,198,114319,1,2,0:0:0:0:
241,235,114409,1,8,0:0:0:0:
183,238,114500,1,0,0:0:0:0:
135,206,114591,1,0,0:0:0:0:
116,152,114683,1,2,0:0:0:0:
132,96,114774,1,0,0:0:0:0:
180,64,114865,1,0,0:0:0:0:
236,72,114956,1,0,0:0:0:0:
292,84,115047,1,2,0:0:0:0:
348,92,115137,1,0,0:0:0:0:
404,104,115228,1,0,0:0:0:0:
460,112,115319,5,8,0:0:0:0:
432,168,115410,1,2,0:0:0:0:
404,224,115501,1,0,0:0:0:0:
376,280,115592,1,0,0:0:0:0:
348,336,115683,1,0,0:0:0:0:
293,366,115773,1,2,0:0:0:0:
230,357,115864,1,0,0:0:0:0:
187,312,115955,1,0,0:0:0:0:
179,250,116046,1,0,0:0:0:0:
200,192,116137,5,8,0:0:0:0:
265,170,116228,1,8,0:0:0:0:
330,152,116319,1,8,0:0:0:0:
395,131,116410,1,8,0:0:0:0:
460,112,116501,5,6,0:0:0:0:
230,357,116774,1,6,0:0:0:0:
28,92,117047,1,6,0:0:0:0:
460,112,117592,21,2,0:0:0:0:
460,112,118319,1,2,0:0:0:0:
460,112,119047,1,2,0:0:0:0:
364,204,119228,53,4,0:0:0:0:
352,200,119289,1,4,0:0:0:0:
340,196,119350,1,4,0:0:0:0:
328,192,119410,21,10,0:0:0:0:
28,92,119683,1,6,0:0:0:0:
224,368,119956,1,6,0:0:0:0:
460,112,120501,5,2,0:0:0:0:
460,112,121228,1,2,0:0:0:0:
364,204,121410,21,4,0:0:0:0:
368,220,121471,1,4,0:0:0:0:
372,236,121531,1,4,0:0:0:0:
376,252,121592,53,8,0:0:0:0:
192,296,121774,1,4,0:0:0:0:
148,112,121956,1,8,0:0:0:0:
332,68,122138,1,4,0:0:0:0:
376,252,122319,21,6,0:0:0:0:
36,336,122592,1,6,0:0:0:0:
192,20,122865,1,6,0:0:0:0:
460,112,123410,5,2,0:0:0:0:
460,112,124137,1,2,0:0:0:0:
364,204,124683,37,4,0:0:0:0:
360,188,124744,1,4,0:0:0:0:
356,172,124804,1,4,0:0:0:0:
352,156,124865,37,8,0:0:0:0:
460,112,125228,5,6,0:0:0:0:
192,360,125501,1,6,0:0:0:0:
112,4,125774,1,6,0:0:0:0:
460,112,126047,1,6,0:0:0:0:
192,360,126319,21,6,0:0:0:0:
136,76,126501,1,6,0:0:0:0:
408,168,126683,1,6,0:0:0:0:
192,360,127774,54,0,P|160:352|128:348,1,62.9999980773926,0|4,0:0|0:0,0:0:0:0:
124,336,128016,1,4,0:0:0:0:
120,324,128077,1,4,0:0:0:0:
116,312,128137,5,6,0:0:0:0:
192,216,128865,53,4,0:0:0:0:
200,203,128925,1,4,0:0:0:0:
205,189,128986,1,4,0:0:0:0:
207,174,129046,1,4,0:0:0:0:
206,160,129107,1,4,0:0:0:0:
201,145,129168,1,4,0:0:0:0:
193,133,129228,1,4,0:0:0:0:
184,120,129288,1,4,0:0:0:0:
179,106,129349,1,4,0:0:0:0:
178,91,129409,1,4,0:0:0:0:
180,76,129470,1,4,0:0:0:0:
185,62,129531,1,4,0:0:0:0:
194,50,129592,6,0,B|220:28|220:28|292:20,1,103.500001974106,10|4,0:0|0:0,0:0:0:0:
192,216,129956,2,0,B|166:238|166:238|94:246,1,103.500001974106,10|4,0:0|0:0,0:0:0:0:
248,92,130319,1,10,0:0:0:0:
316,256,130501,1,4,0:0:0:0:
180,368,130683,1,10,0:0:0:0:
112,204,130865,1,4,0:0:0:0:
248,92,131047,5,10,0:0:0:0:
420,68,131228,1,4,0:0:0:0:
192,216,131410,1,10,0:0:0:0:
20,192,131591,1,4,0:0:0:0:
248,340,131774,1,10,0:0:0:0:
344,168,131956,1,4,0:0:0:0:
204,32,132137,1,10,0:0:0:0:
112,204,132319,1,4,0:0:0:0:
248,340,132501,6,0,L|304:344,1,51.7500009870529,10|4,0:0|0:0,0:0:0:0:
296,256,132683,2,0,L|352:260,1,51.7500009870529,8|4,0:0|0:0,0:0:0:0:
252,116,132865,2,0,L|196:120,1,51.7500009870529,10|4,0:0|0:0,0:0:0:0:
204,32,133047,2,0,L|148:36,1,51.7500009870529,8|4,0:0|0:0,0:0:0:0:
60,207,133228,2,0,L|116:203,1,51.7500009870529,10|4,0:0|0:0,0:0:0:0:
108,291,133410,2,0,L|164:287,1,51.7500009870529,8|4,0:0|0:0,0:0:0:0:
344,168,133592,2,0,L|400:172,1,51.7500009870529,10|4,0:0|0:0,0:0:0:0:
392,84,133774,2,0,L|448:88,1,51.7500009870529,8|4,0:0|0:0,0:0:0:0:
444,288,133956,21,8,0:0:0:0:
428,304,134016,1,8,0:0:0:0:
408,315,134077,1,4,0:0:0:0:
386,321,134137,1,4,0:0:0:0:
363,321,134198,1,4,0:0:0:0:
341,314,134259,1,4,0:0:0:0:
322,301,134319,1,8,0:0:0:0:
302,288,134379,1,8,0:0:0:0:
280,281,134440,1,8,0:0:0:0:
257,281,134500,1,4,0:0:0:0:
235,286,134561,1,4,0:0:0:0:
215,298,134622,1,4,0:0:0:0:
200,314,134682,53,10,0:0:0:0:
200,314,135410,22,0,B|197:278|184:256|184:256|196:224|196:224|172:196|168:144,1,175.499991966248,6|4,0:0|0:0,0:0:0:0:
176,120,135774,2,0,P|184:68|164:8,1,116.999994644165,10|4,0:0|0:0,0:0:0:0:
334,188,136137,2,0,P|314:242|321:300,1,116.999994644165,6|4,0:0|0:0,0:0:0:0:
432,256,136501,1,10,0:0:0:0:
372,60,136683,1,4,0:0:0:0:
176,120,136865,1,6,0:0:0:0:
236,316,137047,1,8,0:0:0:0:
432,256,137228,5,10,0:0:0:0:
436,240,137319,1,4,0:0:0:0:
440,224,137410,1,4,0:0:0:0:
248,192,137592,1,10,0:0:0:0:
252,208,137683,1,4,0:0:0:0:
256,224,137774,1,4,0:0:0:0:
80,304,137956,1,10,0:0:0:0:
80,304,138047,1,4,0:0:0:0:
80,304,138137,1,4,0:0:0:0:
80,304,138228,1,4,0:0:0:0:
80,304,138319,6,0,B|84:272|84:272|96:256|96:256|104:192,1,116.999994644165,10|4,0:0|0:0,0:0:0:0:
264,32,138683,1,10,0:0:0:0:
484,72,138865,1,4,0:0:0:0:
244,28,139047,1,10,0:0:0:0:
504,76,139228,1,4,0:0:0:0:
340,228,139410,1,10,0:0:0:0:
244,28,139592,1,4,0:0:0:0:
484,148,139774,5,10,0:0:0:0:
488,164,139865,1,4,0:0:0:0:
492,180,139956,1,4,0:0:0:0:
232,136,140137,1,10,0:0:0:0:
236,120,140228,1,4,0:0:0:0:
240,104,140319,1,4,0:0:0:0:
440,284,140501,1,10,0:0:0:0:
228,384,140683,1,10,0:0:0:0:
56,224,140865,1,8,0:0:0:0:
72,168,140956,1,8,0:0:0:0:
88,112,141047,1,8,0:0:0:0:
104,56,141137,1,8,0:0:0:0:
120,0,141228,22,0,P|180:0|228:28,1,116.999994644165,6|10,0:0|0:0,0:0:0:0:
164,200,141501,2,0,L|156:84,1,116.999994644165,4|4,0:0|0:0,0:0:0:0:
240,104,141774,2,0,L|232:164,1,58.4999973220826,10|4,0:0|0:0,0:0:0:0:
212,308,141956,1,4,0:0:0:0:
238,342,142046,1,4,0:0:0:0:
279,357,142137,1,10,0:0:0:0:
321,350,142228,1,4,0:0:0:0:
354,321,142319,1,4,0:0:0:0:
386,292,142409,1,4,0:0:0:0:
429,285,142500,1,10,0:0:0:0:
469,300,142591,1,4,0:0:0:0:
496,335,142683,6,0,B|476:368|476:368|440:380|396:376,1,116.999994644165,6|10,0:0|0:0,0:0:0:0:
318,285,142956,2,0,P|370:269|430:285,1,116.999994644165,4|4,0:0|0:0,0:0:0:0:
279,357,143228,2,0,L|220:344,1,58.4999973220826,10|4,0:0|0:0,0:0:0:0:
80,240,143410,1,6,0:0:0:0:
80,240,143501,1,8,0:0:0:0:
80,240,143592,1,8,0:0:0:0:
124,256,143683,1,8,0:0:0:0:
168,272,143774,1,8,0:0:0:0:
224,269,143864,1,8,0:0:0:0:
262,226,143955,1,4,0:0:0:0:
259,169,144046,1,4,0:0:0:0:
216,132,144137,6,0,B|160:116|160:116|44:140,1,175.499991966248,10|4,0:0|0:0,0:0:0:0:
136,200,144501,2,0,L|152:80,1,116.999994644165,10|4,0:0|0:0,0:0:0:0:
420,72,144865,2,0,B|448:156|448:156|420:240,1,175.499991966248,10|4,0:0|0:0,0:0:0:0:
332,140,145228,2,0,L|448:156,1,116.999994644165,10|4,0:0|0:0,0:0:0:0:
372,328,145592,21,8,0:0:0:0:
352,330,145652,1,4,0:0:0:0:
333,333,145713,1,8,0:0:0:0:
314,335,145773,1,4,0:0:0:0:
294,338,145834,1,4,0:0:0:0:
275,341,145895,1,4,0:0:0:0:
256,343,145955,1,10,0:0:0:0:
40,192,146319,54,0,L|36:132,1,58.4999973220826,8|8,0:0|0:0,0:0:0:0:
208,176,146501,2,0,L|212:236,1,58.4999973220826,8|8,0:0|0:0,0:0:0:0:
112,100,146683,2,0,L|108:40,1,58.4999973220826,8|8,0:0|0:0,0:0:0:0:
280,84,146865,2,0,L|284:144,1,58.4999973220826,8|8,0:0|0:0,0:0:0:0:
256,343,147047,22,0,B|227:348|200:360|200:360|144:336|144:336|96:356|32:344,1,233.999989288331,6|4,0:0|0:0,0:0:0:0:
208,176,147592,1,10,0:0:0:0:
436,228,147774,1,4,0:0:0:0:
196,180,147956,1,10,0:0:0:0:
436,126,148138,1,4,0:0:0:0:
184,184,148319,1,10,0:0:0:0:
393,34,148501,1,6,0:0:0:0:
172,188,148683,1,10,0:0:0:0:
408,320,148865,5,6,0:0:0:0:
424,316,148956,1,4,0:0:0:0:
440,312,149047,1,10,0:0:0:0:
308,148,149228,1,4,0:0:0:0:
292,152,149319,1,4,0:0:0:0:
276,156,149410,1,10,0:0:0:0:
140,340,149592,1,4,0:0:0:0:
156,344,149683,1,4,0:0:0:0:
172,348,149774,1,10,0:0:0:0:
188,352,149865,1,4,0:0:0:0:
204,356,149956,6,0,P|260:352|300:304,1,116.999994644165,6|10,0:0|0:0,0:0:0:0:
276,156,150319,1,4,0:0:0:0:
152,80,150501,1,10,0:0:0:0:
100,216,150683,1,4,0:0:0:0:
228,284,150865,1,10,0:0:0:0:
260,52,151047,1,4,0:0:0:0:
44,140,151228,1,10,0:0:0:0:
228,284,151410,6,0,B|304:264|304:264|360:208|360:208|436:188,1,233.999989288331,6|6,0:0|0:0,0:0:0:0:
500,312,151956,1,10,0:0:0:0:
500,312,152047,1,4,0:0:0:0:
500,312,152137,1,4,0:0:0:0:
470,344,152227,1,4,0:0:0:0:
430,360,152318,1,10,0:0:0:0:
387,358,152409,1,4,0:0:0:0:
349,337,152501,1,4,0:0:0:0:
310,315,152591,1,4,0:0:0:0:
267,313,152682,1,10,0:0:0:0:
227,329,152773,1,4,0:0:0:0:
198,362,152865,22,0,P|144:348|84:340,1,116.999994644165,6|10,0:0|0:0,0:0:0:0:
72,256,153137,2,0,P|128:272|184:256,1,116.999994644165,4|4,0:0|0:0,0:0:0:0:
120,128,153410,2,0,L|128:188,1,58.4999973220826,10|4,0:0|0:0,0:0:0:0:
267,313,153592,1,4,0:0:0:0:
294,323,153682,1,4,0:0:0:0:
323,325,153773,1,10,0:0:0:0:
351,317,153864,1,4,0:0:0:0:
375,300,153956,1,4,0:0:0:0:
398,283,154046,1,4,0:0:0:0:
426,275,154137,1,10,0:0:0:0:
456,277,154228,1,4,0:0:0:0:
483,287,154319,6,0,B|496:232|496:232|480:172,1,116.999994644165,6|10,0:0|0:0,0:0:0:0:
396,236,154592,2,0,L|416:352,1,116.999994644165,4|4,0:0|0:0,0:0:0:0:
312,240,154865,2,0,L|320:180,1,58.4999973220826,10|4,0:0|0:0,0:0:0:0:
156,244,155047,1,4,0:0:0:0:
160,272,155137,1,4,0:0:0:0:
164,300,155228,1,10,0:0:0:0:
256,136,155410,1,10,0:0:0:0:
252,108,155501,1,4,0:0:0:0:
248,80,155592,1,4,0:0:0:0:
244,52,155683,1,4,0:0:0:0:
240,24,155774,5,10,0:0:0:0:
203,46,155864,1,4,0:0:0:0:
193,87,155955,1,4,0:0:0:0:
214,124,156046,1,4,0:0:0:0:
255,136,156137,1,10,0:0:0:0:
296,147,156227,1,4,0:0:0:0:
317,184,156318,1,4,0:0:0:0:
307,225,156409,1,4,0:0:0:0:
270,248,156500,1,10,0:0:0:0:
228,244,156592,1,4,0:0:0:0:
188,236,156683,1,4,0:0:0:0:
148,228,156774,1,4,0:0:0:0:
108,220,156865,1,10,0:0:0:0:
116,260,156956,1,4,0:0:0:0:
124,300,157047,1,4,0:0:0:0:
132,340,157137,1,4,0:0:0:0:
140,380,157228,5,8,0:0:0:0:
270,248,157410,1,8,0:0:0:0:
88,132,157592,1,6,0:0:0:0:
88,132,158137,5,4,0:0:0:0:
100,136,158198,1,4,0:0:0:0:
112,140,158259,1,4,0:0:0:0:
124,144,158319,1,8,0:0:0:0:
124,144,158683,5,6,0:0:0:0:
277,362,158957,1,4,0:0:0:0:
391,120,159231,1,10,0:0:0:0:
83,244,159506,5,6,0:0:0:0:
383,353,159780,1,6,0:0:0:0:
329,37,160054,1,10,0:0:0:0:
115,368,160329,5,8,0:0:0:0:
475,271,160603,1,4,0:0:0:0:
211,5,160877,1,6,0:0:0:0:
