osu file format v6

[General]
AudioFilename: 17 Jehovah's YaHVeH.mp3
AudioLeadIn: 0
PreviewTime: 150442
Countdown: 0
SampleSet: Normal
StackLeniency: 0.3
Mode: 1
LetterboxInBreaks: 1
SkinPreference:Touhou

[Editor]
Bookmarks: 35343,62616,150454,233760
DistanceSpacing: 1
BeatDivisor: 4
GridSize: 8

[Metadata]
Title:Jehovah's YaHVeH
Artist:Demetori
Creator:happy30
Version:Taiko
Source:Il Mondo dove e finito il Tempo
Tags:Sanae kochiya faith is for the transient people

[Difficulty]
HPDrainRate:5
CircleSize:5
OverallDifficulty:5
SliderMultiplier:1.4
SliderTickRate:0.5

[Events]
//Background and Video events
0,0,"sanae2.jpg"
//Break Periods
//Storyboard Layer 0 (Background)
//Storyboard Layer 1 (Fail)
//Storyboard Layer 2 (Pass)
//Storyboard Layer 3 (Foreground)
//Storyboard Sound Samples
//Background Colour Transformations
3,100,163,162,255

[TimingPoints]
988,272.727272727273,4,1,0,100,1,0
88806,-100,4,1,0,100,0,1
106260,-100,4,1,0,100,0,0
150442,-100,4,1,0,100,0,1
167897,-100,4,1,0,100,0,0
238806,-100,4,1,0,100,0,1
273715,-100,4,1,0,100,0,0

[Colours]
Combo1 : 38,48,72
Combo2 : 35,71,71
Combo3 : 86,105,135

[HitObjects]
256,200,35351,1,6
264,192,37533,1,0
264,192,37942,1,0
264,192,38351,1,0
272,104,39715,1,4
240,256,40806,1,0
112,152,41897,1,0
112,152,42169,1,0
112,152,42442,1,0
192,104,42715,1,0
176,168,42851,1,0
192,104,42919,1,0
192,104,42988,1,2
176,168,43124,1,0
192,104,43192,1,0
192,104,43261,1,2
176,168,43397,1,0
192,104,43465,1,0
192,104,43534,1,2
320,192,44078,1,0
320,192,44215,1,2
320,192,44351,1,0
320,192,44419,1,0
320,192,44488,1,2
320,192,44624,1,0
320,192,44761,1,2
320,192,44897,1,0
320,192,44965,1,0
320,192,45034,1,2
320,192,45169,1,0
320,192,45306,1,2
320,192,45442,1,0
320,192,45510,1,0
320,192,45579,1,2
320,192,45715,1,0
320,192,45783,1,0
320,192,45852,1,2
320,192,45988,1,0
320,192,46056,1,0
320,192,46125,1,2
320,192,46260,1,0
320,192,46397,1,2
320,192,46533,1,0
320,192,46601,1,0
320,192,46670,1,2
320,192,46806,1,0
320,192,46943,1,2
320,192,47079,1,0
320,192,47147,1,0
320,192,47216,1,2
320,192,47351,1,0
320,192,47488,1,2
320,192,47624,1,0
320,192,47692,1,0
320,192,47761,1,2
320,192,47897,1,0
320,192,47965,1,0
320,192,48034,1,2
320,192,48170,1,0
320,192,48238,1,0
320,192,48307,1,2
160,136,48442,1,0
280,96,48578,1,2
392,112,48715,1,0
392,112,48783,1,0
392,112,48851,1,2
344,288,48988,1,0
424,216,49124,1,2
192,256,49260,1,0
192,256,49328,1,0
192,256,49397,1,2
120,176,49533,1,0
120,176,49601,1,0
120,176,49669,1,2
272,160,49806,1,0
280,96,49942,1,2
368,184,50078,1,0
368,184,50147,1,0
368,184,50215,1,2
432,88,50351,1,0
352,88,50488,1,2
296,224,50624,1,0
296,224,50692,1,0
296,224,50760,1,2
344,280,50897,1,0
344,280,50965,1,0
344,280,51033,1,2
272,160,51169,1,0
408,128,51306,1,2
440,216,51442,1,0
440,216,51510,1,0
440,216,51578,1,2
120,192,51715,1,2
120,192,51783,1,2
120,192,51851,1,2
120,192,51919,1,2
120,192,51988,1,0
120,192,52056,1,0
120,192,52124,1,0
120,192,52192,1,0
120,192,52260,1,2
120,192,52328,1,2
120,192,52397,1,0
120,192,52465,1,0
120,192,52533,1,2
120,192,52601,1,2
120,192,52669,1,0
120,192,52738,1,0
120,192,52806,1,0
184,168,52942,1,2
240,208,53078,1,0
272,224,53147,1,0
304,208,53215,1,2
312,136,53351,1,0
384,152,53488,1,2
376,224,53624,1,0
376,224,53692,1,0
408,216,53760,1,2
360,264,53897,1,0
304,216,54033,1,2
248,256,54169,1,0
248,256,54238,1,0
280,240,54306,1,2
248,256,54442,1,0
248,256,54511,1,0
280,240,54579,1,2
248,256,54715,1,0
248,256,54784,1,0
280,240,54852,1,2
120,192,54988,1,0
184,168,55124,1,2
240,208,55260,1,0
272,224,55329,1,0
304,208,55397,1,2
312,136,55533,1,0
384,152,55670,1,2
376,224,55806,1,0
376,224,55874,1,0
408,216,55942,1,2
360,264,56079,1,0
304,216,56215,1,2
248,256,56351,1,0
248,256,56420,1,0
280,240,56488,1,2
248,256,56624,1,0
248,256,56693,1,0
280,240,56761,1,2
248,256,56897,1,0
248,256,56966,1,0
280,240,57034,1,2
232,184,57169,1,0
296,152,57306,1,2
368,168,57442,1,0
368,168,57510,1,0
392,136,57578,1,2
328,120,57715,1,0
360,128,57783,1,0
376,96,57851,1,2
304,88,57988,1,0
264,144,58124,1,2
248,256,58260,1,0
312,232,58397,1,2
248,200,58533,1,0
280,216,58601,1,0
280,216,58669,1,2
248,200,58806,1,0
280,216,58874,1,0
280,216,58942,1,2
248,200,59078,1,0
280,216,59146,1,0
280,216,59214,1,2
280,144,59351,1,0
280,144,59419,1,0
280,144,59488,1,0
280,144,59556,1,0
280,144,59624,1,2
264,144,59692,1,2
280,144,59760,1,2
280,144,59828,1,2
248,144,59897,1,0
264,144,59965,1,0
264,144,60033,1,0
264,144,60101,1,0
280,112,60169,1,2
304,88,60238,1,2
304,88,60306,1,2
304,88,60374,1,2
336,104,60442,1,0
336,104,60510,1,0
336,104,60578,1,0
336,104,60647,1,0
352,136,60715,1,2
352,136,60783,1,2
328,160,60851,1,0
328,160,60919,1,0
328,160,60988,1,2
328,160,61056,1,2
328,160,61124,1,0
304,184,61192,1,0
288,216,61260,1,2
320,224,61328,1,2
352,240,61397,1,2
384,248,61465,1,2
384,248,61533,1,0
112,240,62078,1,2
248,232,62351,1,2
192,104,62624,1,0
264,96,62760,1,2
336,96,62897,1,0
360,120,62965,1,0
392,112,63033,1,2
192,104,63169,1,0
264,96,63305,1,2
336,96,63442,1,0
360,120,63510,1,0
392,112,63578,1,2
192,104,63715,1,0
264,96,63851,1,2
336,96,63988,1,0
360,120,64056,1,0
392,112,64124,1,2
192,104,64260,1,0
264,96,64396,1,2
336,96,64533,1,0
360,120,64601,1,0
392,112,64669,1,2
384,184,64806,1,0
240,296,65078,1,0
296,264,65215,1,2
168,232,65488,1,2
120,248,65624,1,0
120,176,65760,1,2
192,168,65897,1,0
192,168,65965,1,0
392,112,66033,1,2
352,168,66169,1,0
360,136,66238,1,0
424,160,66306,1,2
368,208,66442,1,0
368,208,66510,1,0
368,208,66578,1,0
368,208,66647,1,0
336,208,66715,1,2
296,168,66851,1,2
264,232,66988,6,0,B|168:304|104:280|80:200,1,210
120,88,67669,1,2
176,136,67806,1,0
176,136,67874,1,0
144,120,67942,1,2
208,96,68078,2,0,B|232:224|392:184,1,210
120,88,68760,1,2
176,136,68897,1,0
176,136,68965,1,0
144,120,69033,1,2
208,96,69169,2,0,B|232:224|392:184,1,210
216,336,69988,1,0
120,192,70260,1,2
120,192,70328,1,2
120,192,70396,1,2
120,192,70464,1,2
120,192,70533,1,0
120,192,70601,1,0
120,192,70669,1,0
120,192,70737,1,0
120,192,70805,1,2
120,192,70873,1,2
120,192,70942,1,0
120,192,71010,1,0
120,192,71078,1,2
120,192,71146,1,2
120,192,71214,1,0
120,192,71283,1,0
120,192,71351,1,0
264,96,71488,1,2
336,96,71625,1,0
360,120,71693,1,0
392,112,71761,1,2
192,104,71897,1,0
264,96,72033,1,2
336,96,72170,1,0
360,120,72238,1,0
392,112,72306,1,2
192,104,72443,1,0
264,96,72579,1,2
336,96,72716,1,0
360,120,72784,1,0
392,112,72852,1,2
192,104,72988,1,0
264,96,73124,1,2
336,96,73261,1,0
360,120,73329,1,0
392,112,73397,1,2
384,184,73534,1,0
240,296,73806,1,0
296,264,73943,1,2
168,232,74216,1,2
120,248,74352,1,0
120,176,74488,1,2
192,168,74625,1,0
192,168,74693,1,0
392,112,74761,1,2
352,168,74897,1,0
360,136,74966,1,0
424,160,75034,1,2
368,208,75170,1,0
368,208,75238,1,0
368,208,75306,1,0
368,208,75375,1,0
336,208,75443,1,2
296,168,75579,1,2
264,232,75716,6,0,B|168:304|104:280|80:200,1,210
120,88,76397,1,2
176,136,76534,1,0
176,136,76602,1,0
144,120,76670,1,2
208,96,76806,2,0,B|232:224|392:184,1,210
120,88,77488,1,2
176,136,77625,1,0
176,136,77693,1,0
144,120,77761,1,2
208,96,77897,2,0,B|232:224|392:184,1,210
216,336,78716,1,0
120,192,78988,1,2
120,192,79056,1,2
120,192,79124,1,2
120,192,79192,1,2
120,192,79261,1,0
120,192,79329,1,0
120,192,79397,1,0
120,192,79465,1,0
120,192,79533,1,2
120,192,79601,1,2
120,192,79670,1,0
120,192,79738,1,0
120,192,79806,1,2
120,192,79874,1,2
120,192,79942,1,0
120,192,80011,1,0
120,192,80079,1,0
176,152,80215,1,2
240,168,80351,1,4
304,136,80488,1,2
240,168,80624,1,4
304,136,80761,1,2
240,168,80897,1,4
304,136,81034,1,2
240,168,81169,1,4
304,136,81306,1,2
240,168,81442,1,4
304,136,81579,1,2
240,168,81715,1,4
304,136,81852,1,2
240,168,81988,1,4
304,136,82125,1,2
304,208,82260,1,4
304,208,82533,1,4
304,208,82806,1,4
304,208,83078,1,4
240,216,83215,1,2
184,248,83351,1,4
64,320,83624,1,4
32,200,83897,1,4
24,64,84169,1,4
96,80,84306,1,2
104,176,84442,1,4
224,136,84715,1,2
224,136,84988,1,2
328,224,85260,1,0
344,152,85397,1,2
408,184,85533,1,4
288,224,85806,1,2
168,272,86078,1,2
104,144,86351,1,0
144,88,86488,1,2
200,128,86624,1,4
336,96,86897,1,2
488,88,87169,1,2
400,176,87442,1,2
304,248,87715,1,6
144,328,87988,1,6
264,264,88260,1,6
136,216,88533,1,6
200,96,88806,1,0
272,112,88942,1,2
336,88,89078,1,0
336,88,89147,1,0
368,96,89215,1,2
200,96,89351,1,0
272,112,89487,1,2
336,88,89623,1,0
336,88,89692,1,0
368,96,89760,1,2
200,96,89897,1,0
272,112,90033,1,2
336,88,90169,1,0
336,88,90238,1,0
368,96,90306,1,2
200,96,90442,1,0
208,128,90510,1,0
272,112,90578,1,2
336,88,90714,1,0
336,88,90783,1,0
368,96,90851,1,2
200,96,90988,1,0
272,112,91124,1,2
336,88,91260,1,0
336,88,91329,1,0
368,96,91397,1,2
200,96,91533,1,0
272,112,91669,1,2
336,88,91805,1,0
336,88,91874,1,0
368,96,91942,1,2
200,96,92079,1,0
272,112,92215,1,2
336,88,92351,1,0
336,88,92420,1,0
368,96,92488,1,2
200,96,92624,1,0
208,128,92692,1,0
272,112,92760,1,2
336,88,92896,1,0
336,88,92965,1,0
368,96,93033,1,2
200,96,93169,1,0
272,112,93305,1,2
336,88,93441,1,0
336,88,93510,1,0
368,96,93578,1,2
200,96,93714,1,0
272,112,93850,1,2
336,88,93988,1,0
336,88,94056,1,0
368,96,94123,1,2
200,96,94260,1,0
272,112,94396,1,2
336,88,94532,1,0
336,88,94601,1,0
368,96,94669,1,2
200,96,94805,1,0
208,128,94873,1,0
272,112,94941,1,2
336,88,95077,1,0
336,88,95146,1,0
368,96,95214,1,2
200,96,95351,1,0
272,112,95487,1,2
336,88,95623,1,0
336,88,95692,1,0
368,96,95760,1,2
200,96,95896,1,0
272,112,96032,1,2
336,88,96168,1,0
336,88,96237,1,0
368,96,96305,1,2
200,96,96442,1,0
272,112,96578,1,2
336,88,96714,1,0
336,88,96783,1,0
368,96,96851,1,2
360,128,96919,1,2
352,160,96988,1,0
320,168,97056,1,0
288,160,97124,1,2
256,160,97192,1,2
248,192,97260,1,0
160,200,97397,1,2
200,96,97533,1,0
272,112,97669,1,2
336,88,97805,1,0
336,88,97874,1,0
368,96,97942,1,2
200,96,98078,1,0
272,112,98214,1,2
336,88,98350,1,0
336,88,98419,1,0
368,96,98487,1,2
200,96,98624,1,0
272,112,98760,1,2
336,88,98896,1,0
336,88,98965,1,0
368,96,99033,1,2
200,96,99169,1,0
208,128,99237,1,0
272,112,99305,1,2
336,88,99441,1,0
336,88,99510,1,0
368,96,99578,1,2
200,96,99715,1,0
272,112,99851,1,2
336,88,99987,1,0
336,88,100056,1,0
368,96,100124,1,2
200,96,100260,1,0
272,112,100396,1,2
336,88,100532,1,0
336,88,100601,1,0
368,96,100669,1,2
200,96,100806,1,0
272,112,100942,1,2
336,88,101078,1,0
336,88,101147,1,0
368,96,101215,1,2
200,96,101351,1,0
208,128,101419,1,0
272,112,101487,1,2
336,88,101623,1,0
336,88,101692,1,0
368,96,101760,1,2
200,96,101896,1,0
272,112,102032,1,2
336,88,102168,1,0
336,88,102237,1,0
368,96,102305,1,2
200,96,102441,1,0
272,112,102577,1,2
336,88,102715,1,0
336,88,102782,1,0
368,96,102850,1,2
200,96,102987,1,0
272,112,103123,1,2
336,88,103259,1,0
336,88,103328,1,0
368,96,103396,1,2
200,96,103532,1,0
208,128,103600,1,0
272,112,103668,1,2
336,88,103806,1,0
336,88,103873,1,0
368,96,103941,1,2
200,96,104078,1,0
272,112,104214,1,2
336,88,104350,1,0
336,88,104419,1,0
368,96,104487,1,2
200,96,104623,1,0
272,112,104759,1,2
336,88,104897,1,0
336,88,104964,1,0
368,96,105032,1,2
200,96,105169,1,0
200,128,105238,1,0
200,128,105306,1,0
200,128,105374,1,0
168,152,105442,1,2
168,152,105510,1,2
168,152,105578,1,2
168,152,105647,1,2
192,184,105715,1,0
192,184,105783,1,0
192,184,105851,1,0
192,184,105919,1,0
192,184,105988,1,2
192,184,106056,1,2
160,200,106124,1,2
160,200,106192,1,2
192,208,106260,1,0
464,256,106806,1,0
336,224,107078,1,0
336,224,107351,1,0
64,224,107897,1,2
192,248,108169,1,2
64,224,108442,1,2
464,256,108988,1,0
336,224,109260,1,0
336,224,109533,1,2
64,224,110079,1,2
192,248,110351,1,2
64,224,110624,1,4
272,144,111715,1,4
176,248,112806,1,0
248,240,112942,1,2
312,208,113078,1,0
360,160,113215,1,2
320,104,113351,1,0
248,120,113488,1,2
200,72,113624,1,0
192,144,113760,1,2
120,128,113897,1,4
120,128,114169,1,4
120,128,114442,1,4
192,248,114715,1,0
256,224,114851,1,2
320,192,114988,1,0
320,192,115125,1,2
320,192,115261,1,0
320,192,115329,1,0
320,192,115398,1,2
320,192,115534,1,0
320,192,115669,1,2
320,192,115807,1,0
320,192,115875,1,0
320,192,115942,1,2
320,192,116079,1,0
320,192,116216,1,2
320,192,116352,1,0
320,192,116420,1,0
320,192,116489,1,2
320,192,116625,1,0
320,192,116693,1,0
320,192,116760,1,2
320,192,116898,1,0
320,192,116966,1,0
320,192,117033,1,2
320,192,117170,1,0
320,192,117307,1,2
320,192,117443,1,0
320,192,117511,1,0
320,192,117578,1,2
320,192,117716,1,0
320,192,117851,1,2
320,192,117989,1,0
320,192,118057,1,0
320,192,118124,1,2
320,192,118261,1,0
320,192,118398,1,2
320,192,118534,1,0
320,192,118602,1,0
320,192,118669,1,2
320,192,118807,1,0
320,192,118875,1,0
320,192,118942,1,2
320,192,119078,1,0
320,192,119147,1,0
320,192,119215,1,2
160,136,119352,1,0
280,96,119488,1,2
392,112,119625,1,0
392,112,119693,1,0
392,112,119761,1,2
344,288,119898,1,0
424,216,120034,1,2
192,256,120170,1,0
192,256,120238,1,0
192,256,120307,1,2
120,176,120443,1,0
120,176,120511,1,0
120,176,120579,1,2
272,160,120716,1,0
280,96,120852,1,2
368,184,120988,1,0
368,184,121057,1,0
368,184,121125,1,2
432,88,121261,1,0
352,88,121398,1,2
296,224,121534,1,0
296,224,121602,1,0
296,224,121670,1,2
344,280,121807,1,0
344,280,121875,1,0
344,280,121943,1,2
272,160,122079,1,0
408,128,122216,1,2
440,216,122352,1,0
440,216,122420,1,0
440,216,122488,1,2
120,192,122625,1,2
144,88,122806,1,2
144,88,122988,1,2
256,208,123306,12,0,124260
264,192,124533,5,2
264,192,124669,1,0
264,192,124942,1,0
264,192,125010,1,0
264,192,125078,1,2
192,216,125215,1,0
192,216,125351,1,0
168,152,125487,1,0
168,152,125624,1,2
168,152,125897,1,0
168,152,126033,1,0
168,152,126169,1,2
304,112,126442,1,0
304,112,126578,1,0
304,112,126715,1,2
304,112,126783,1,0
304,112,126851,1,0
176,104,127124,1,0
240,112,127260,1,2
280,240,127533,1,0
280,240,127669,1,0
280,240,127806,1,2
280,240,128078,1,0
280,240,128215,1,0
280,240,128283,1,0
280,240,128351,1,2
232,200,128487,1,0
144,216,128624,1,0
64,112,128897,1,2
128,104,129033,1,0
256,120,129306,1,0
320,104,129442,1,2
376,232,129715,1,0
320,264,129851,1,0
280,296,129987,1,2
144,264,130260,1,0
216,256,130397,1,0
216,256,130465,1,0
216,256,130533,1,2
184,208,130669,1,0
112,192,130806,1,2
280,80,131215,1,2
368,176,131487,1,0
344,152,131556,1,0
328,128,131624,1,2
328,128,131692,1,2
312,152,131760,1,0
328,128,131828,1,0
328,128,131897,1,2
208,160,132988,1,0
232,96,133124,1,2
240,168,133260,1,0
312,152,133328,1,0
336,128,133397,1,2
344,192,133533,1,0
368,248,133669,1,2
280,248,133806,1,0
248,248,133874,1,0
216,248,133942,1,2
152,216,134078,1,0
136,152,134215,1,2
240,168,134351,1,0
240,168,134419,1,0
264,160,134488,1,2
232,96,134624,1,0
232,96,134692,1,0
264,88,134760,1,2
328,96,134897,1,0
352,96,134965,1,0
376,96,135033,1,2
376,168,135169,1,0
336,208,135306,1,2
288,256,135442,1,0
256,272,135510,1,0
232,248,135578,1,2
200,192,135715,1,0
256,168,135851,1,2
304,208,135988,1,0
328,224,136056,1,0
352,232,136124,1,2
288,248,136260,1,0
224,256,136397,1,2
168,272,136533,1,0
128,232,136601,1,0
128,232,136669,1,2
88,176,136806,1,0
88,176,136874,1,0
88,176,136942,1,2
136,128,137078,1,0
160,104,137147,1,0
160,104,137215,1,0
160,104,137283,1,0
160,104,137351,1,0
224,112,137488,1,2
328,224,137624,1,0
352,232,137692,1,0
368,216,137760,1,2
336,160,137897,1,0
384,120,138033,1,2
328,96,138169,1,0
304,88,138238,1,0
288,104,138306,1,2
248,152,138442,1,0
216,200,138578,1,2
152,192,138715,1,0
120,184,138783,1,0
112,208,138851,1,2
152,264,138988,1,0
168,280,139056,1,0
200,280,139124,1,2
256,272,139260,1,0
280,264,139328,1,0
304,256,139397,1,2
360,224,139533,1,0
360,168,139669,1,0
360,144,139738,1,0
288,104,139806,1,2
256,88,139874,1,2
248,112,139942,1,0
208,160,140010,1,0
208,160,140078,1,2
152,136,140215,1,0
128,128,140283,1,0
104,144,140351,1,2
80,160,140419,1,2
72,192,140488,1,0
64,224,140556,1,0
80,256,140624,1,2
144,272,140760,1,0
280,256,141033,1,0
408,184,141306,1,0
416,112,141442,1,0
416,80,141510,1,0
416,80,141578,1,0
416,80,141647,1,0
392,80,141715,1,0
360,80,141783,1,0
336,80,141851,1,2
208,136,142124,1,0
208,136,142260,1,0
240,184,142397,1,2
360,240,142669,1,2
304,256,142806,1,0
280,264,142874,1,0
256,272,142942,1,2
120,264,143215,1,2
88,208,143351,1,0
64,152,143488,1,2
208,136,143624,1,0
272,128,143760,1,2
312,176,143897,1,0
328,200,143965,1,0
352,200,144033,1,2
288,320,144306,1,2
232,288,144442,1,0
240,224,144578,1,2
120,176,144851,1,2
96,336,145124,1,0
136,288,145260,1,0
184,248,145397,1,2
336,192,145669,1,2
296,144,145806,1,0
368,128,145942,1,2
408,176,146078,1,0
424,192,146147,1,0
432,216,146215,1,2
312,184,146488,1,2
240,176,146624,1,0
184,144,146760,1,2
176,280,147033,1,2
240,288,147169,1,0
264,296,147238,1,0
304,280,147306,1,2
344,232,147442,1,0
360,208,147510,1,0
376,184,147578,1,2
336,112,147715,1,0
296,96,147783,1,0
272,96,147851,1,2
240,176,147919,1,0
240,176,147988,1,0
240,176,148056,1,0
200,168,148124,1,2
176,176,148192,1,0
152,160,148260,1,2
136,224,148397,1,0
144,264,148465,1,0
160,296,148533,1,0
176,280,148601,1,0
208,264,148669,1,2
232,264,148738,1,0
264,264,148806,1,2
296,256,148874,1,0
328,248,148942,1,0
360,240,149010,1,0
384,216,149078,1,2
408,192,149147,1,2
440,160,149215,1,2
440,160,149283,1,2
440,160,149351,1,2
200,96,150442,1,0
272,112,150578,1,2
336,88,150714,1,0
336,88,150783,1,0
368,96,150851,1,2
200,96,150987,1,0
272,112,151123,1,2
336,88,151259,1,0
336,88,151328,1,0
368,96,151396,1,2
200,96,151533,1,0
272,112,151669,1,2
336,88,151805,1,0
336,88,151874,1,0
368,96,151942,1,2
200,96,152078,1,0
208,128,152146,1,0
272,112,152214,1,2
336,88,152350,1,0
336,88,152419,1,0
368,96,152487,1,2
200,96,152624,1,0
272,112,152760,1,2
336,88,152896,1,0
336,88,152965,1,0
368,96,153033,1,2
200,96,153169,1,0
272,112,153305,1,2
336,88,153441,1,0
336,88,153510,1,0
368,96,153578,1,2
200,96,153715,1,0
272,112,153851,1,2
336,88,153987,1,0
336,88,154056,1,0
368,96,154124,1,2
200,96,154260,1,0
208,128,154328,1,0
272,112,154396,1,2
336,88,154532,1,0
336,88,154601,1,0
368,96,154669,1,2
288,160,154738,1,0
200,96,154805,1,0
272,112,154941,1,2
336,88,155077,1,0
336,88,155146,1,0
368,96,155214,1,2
200,96,155350,1,0
272,112,155488,1,2
336,88,155624,1,0
336,88,155691,1,0
368,96,155759,1,2
200,96,155896,1,0
272,112,156032,1,2
336,88,156168,1,0
336,88,156237,1,0
368,96,156305,1,2
200,96,156441,1,0
208,128,156509,1,0
272,112,156577,1,2
336,88,156715,1,0
336,88,156782,1,0
368,96,156850,1,2
200,96,156987,1,0
272,112,157123,1,2
336,88,157259,1,0
336,88,157328,1,0
368,96,157396,1,2
200,96,157532,1,0
272,112,157668,1,2
336,88,157806,1,0
336,88,157873,1,0
368,96,157941,1,2
200,96,158078,1,0
272,112,158214,1,2
336,88,158350,1,0
336,88,158419,1,0
368,96,158487,1,2
360,128,158555,1,2
352,160,158624,1,0
320,168,158692,1,0
288,160,158760,1,2
256,160,158828,1,2
248,192,158896,1,0
160,200,159033,1,2
200,96,159169,1,0
272,112,159305,1,2
336,88,159441,1,0
336,88,159510,1,0
368,96,159578,1,2
200,96,159714,1,0
272,112,159850,1,2
336,88,159988,1,0
336,88,160055,1,0
368,96,160123,1,2
200,96,160260,1,0
272,112,160396,1,2
336,88,160532,1,0
336,88,160601,1,0
368,96,160669,1,2
200,96,160805,1,0
208,128,160873,1,0
272,112,160941,1,2
336,88,161077,1,0
336,88,161146,1,0
368,96,161214,1,2
272,216,161283,1,0
200,96,161351,1,0
272,112,161487,1,2
336,88,161623,1,0
336,88,161692,1,0
368,96,161760,1,2
200,96,161896,1,0
272,112,162032,1,2
336,88,162168,1,0
336,88,162237,1,0
368,96,162305,1,2
200,96,162442,1,0
272,112,162578,1,2
336,88,162714,1,0
336,88,162783,1,0
368,96,162851,1,2
200,96,162987,1,0
208,128,163055,1,0
272,112,163123,1,2
336,88,163259,1,0
336,88,163328,1,0
368,96,163396,1,2
200,96,163532,1,0
272,112,163668,1,2
336,88,163806,1,0
336,88,163873,1,0
368,96,163941,1,2
200,96,164077,1,0
272,112,164215,1,2
336,88,164351,1,0
336,88,164418,1,0
368,96,164488,1,2
200,96,164623,1,0
272,112,164759,1,2
336,88,164897,1,0
336,88,164964,1,0
368,96,165032,1,2
200,96,165168,1,0
208,128,165238,1,0
272,112,165306,1,2
336,88,165442,1,0
336,88,165509,1,0
368,96,165577,1,2
248,208,165647,1,0
200,96,165714,1,0
272,112,165850,1,2
336,88,165988,1,0
336,88,166055,1,0
368,96,166123,1,2
200,96,166259,1,0
272,112,166397,1,2
336,88,166533,1,0
336,88,166600,1,0
368,96,166668,1,2
200,96,166805,1,0
200,128,166874,1,0
200,128,166942,1,0
200,128,167010,1,0
168,152,167078,1,2
168,152,167146,1,2
168,152,167214,1,2
168,152,167283,1,2
192,184,167351,1,0
192,184,167419,1,0
192,184,167487,1,0
192,184,167555,1,0
192,184,167624,1,2
192,184,167692,1,2
160,200,167760,1,2
160,200,167828,1,2
192,208,167896,1,0
336,136,168988,1,0
336,136,169124,1,0
336,136,169260,1,0
336,136,169397,1,0
256,248,169669,1,0
256,248,169806,1,0
256,248,169942,1,0
256,248,170078,1,0
232,208,170169,1,0
200,168,170260,1,0
160,168,170351,1,0
152,216,170442,1,0
144,264,170533,1,0
104,256,170624,1,0
144,240,170715,1,0
56,200,170806,1,0
48,152,170897,1,0
64,112,170988,1,0
80,72,171078,1,0
120,80,171169,1,2
152,80,171238,1,2
192,80,171306,1,0
224,80,171374,1,0
264,80,171442,1,0
304,88,171510,1,0
336,112,171578,1,2
376,136,171647,1,2
392,160,171715,1,2
400,184,171783,1,2
392,224,171851,1,0
376,256,171919,1,0
352,256,171988,1,2
328,256,172056,1,2
304,248,172124,1,2
328,232,172192,1,0
248,232,172260,1,0
192,200,172397,1,2
160,256,172533,1,0
144,280,172601,1,0
112,288,172669,1,2
88,224,172806,1,0
96,168,172942,1,2
144,120,173078,1,0
336,112,173147,1,0
392,160,173215,1,2
424,280,173351,1,0
336,192,173488,1,2
304,304,173624,1,0
304,304,173692,1,0
248,232,173760,1,2
184,320,173897,1,0
184,320,173965,1,0
168,200,174033,1,2
72,304,174169,1,0
72,304,174238,1,0
64,176,174306,1,2
224,120,174442,1,0
224,120,174510,1,0
288,72,174578,1,2
400,104,174647,1,0
336,112,174715,1,0
336,112,174783,1,0
400,192,174851,1,2
304,200,174919,1,0
304,200,174988,1,0
304,200,175056,1,0
416,272,175124,1,2
304,304,175192,1,0
304,304,175260,1,0
248,232,175328,1,0
152,232,175397,1,2
152,232,175465,1,2
176,144,175533,1,0
96,176,175806,1,4
96,176,176078,1,4
96,176,176351,1,4
256,80,176624,1,2
336,224,177033,1,2
336,224,177442,1,2
336,224,177851,1,2
336,224,178260,1,2
336,224,178533,1,2
256,208,178806,12,0,180988
256,192,182078,5,4
256,192,183169,1,4
256,192,183442,1,0
256,192,183715,1,0
256,192,183988,1,0
128,200,184124,1,2
96,128,184260,1,2
320,104,184669,1,2
248,112,185078,1,2
368,216,185215,1,2
344,320,185351,2,0,B|184:320,6,140
152,176,187260,1,0
344,320,187533,2,0,B|184:320,6,140
168,144,189442,1,0
168,144,189510,1,0
168,144,189578,1,0
320,208,189715,1,2
384,176,189988,1,2
304,120,190260,1,2
240,248,190533,1,2
120,288,190806,1,0
120,288,190874,1,0
120,288,190942,1,2
120,288,191078,1,0
120,288,191146,1,0
120,288,191214,1,2
120,288,191351,1,0
120,288,191419,1,0
120,288,191487,1,2
120,288,191624,1,0
120,288,191692,1,0
120,288,191760,1,2
216,144,191897,1,2
320,256,192169,1,2
360,112,192442,1,2
360,112,192715,1,2
256,192,192988,1,6
256,192,193397,1,6
256,192,193806,1,6
208,112,193942,1,0
208,112,194010,1,0
288,80,194078,1,2
448,112,194215,1,0
432,192,194351,1,2
360,232,194488,1,0
360,232,194556,1,0
368,160,194624,1,2
288,288,194760,1,0
288,288,194828,1,0
256,232,194897,1,2
176,240,195033,1,0
176,240,195101,1,0
176,240,195169,1,2
120,168,195442,1,2
256,136,195578,1,0
256,136,195647,1,0
256,136,195715,1,2
368,160,195851,1,0
368,160,195919,1,0
368,160,195988,1,2
360,232,196124,1,0
360,232,196192,1,0
344,272,196260,1,2
272,232,196533,1,2
208,168,196669,1,0
208,312,196806,1,2
112,272,196942,1,0
112,272,197010,1,0
96,224,197078,1,2
104,144,197215,1,0
104,144,197283,1,0
104,144,197351,1,2
248,80,197488,1,0
248,80,197556,1,0
392,72,197624,1,2
360,232,197760,1,0
360,232,197828,1,0
440,168,197897,1,2
288,168,198033,1,0
288,168,198101,1,0
288,168,198169,1,2
192,208,198306,1,0
192,208,198374,1,0
192,208,198442,1,2
288,304,198578,1,0
408,288,198715,1,2
144,320,198851,1,0
64,176,198988,1,2
176,104,199124,1,0
176,104,199192,1,0
312,72,199260,1,2
440,168,199397,1,0
448,88,199533,1,2
376,176,199669,1,0
336,216,199806,1,2
408,288,199942,1,0
408,288,200010,1,0
408,288,200078,1,2
240,224,200215,1,0
240,224,200283,1,0
240,224,200351,1,2
144,200,200488,1,0
192,160,200556,1,0
288,160,200624,1,2
216,88,200692,1,2
312,72,200760,1,0
312,72,200828,1,0
368,144,200897,1,2
368,144,200965,1,2
400,200,201033,1,0
400,200,201101,1,0
320,248,201169,1,2
112,120,201238,1,0
112,120,201306,1,0
112,120,201374,1,0
80,64,201442,1,2
160,56,201578,1,0
160,56,201647,1,0
208,48,201715,1,2
288,160,201851,1,2
192,160,201988,1,0
192,160,202056,1,0
320,136,202124,1,2
232,224,202260,1,0
232,224,202328,1,0
232,224,202397,1,2
144,264,202533,1,0
144,264,202669,1,0
344,288,202806,1,0
344,288,202874,1,0
344,288,202942,1,0
344,288,203010,1,0
344,288,203078,1,0
344,288,203147,1,0
344,288,203215,1,0
344,288,203283,1,0
344,288,203351,1,0
344,288,203419,1,0
344,288,203488,1,0
344,288,203556,1,0
344,288,203624,1,0
344,288,203692,1,0
344,288,203761,1,0
344,288,203829,1,0
344,288,203897,1,0
344,288,203965,1,0
344,288,204033,1,0
344,288,204102,1,0
344,288,204170,1,0
344,288,204238,1,0
344,288,204306,1,0
344,288,204375,1,0
344,288,204443,1,0
344,288,204511,1,0
344,288,204579,1,0
344,288,204647,1,0
344,288,204716,1,0
344,288,204988,1,0
344,288,205056,1,0
344,288,205124,1,0
344,288,205192,1,0
344,288,205260,1,0
344,288,205329,1,0
344,288,205397,1,0
344,288,205465,1,0
344,288,205533,1,0
344,288,205602,1,0
344,288,205670,1,0
344,288,205738,1,0
344,288,205806,1,0
344,288,205874,1,0
344,288,205943,1,0
344,288,206011,1,0
344,288,206078,1,0
344,288,206146,1,0
344,288,206215,1,0
344,288,206283,1,0
344,288,206351,1,0
344,288,206419,1,0
344,288,206487,1,0
344,288,206556,1,0
344,288,206624,1,0
288,88,206692,1,0
288,88,206760,1,0
288,88,206828,1,0
256,192,206897,1,2
256,192,206965,1,2
256,192,207033,1,2
256,192,207101,1,2
344,288,207169,1,0
344,288,207237,1,0
344,288,207306,1,2
344,288,207374,1,2
344,288,207442,1,0
344,288,207510,1,0
344,288,207578,1,2
344,288,207647,1,2
344,288,207715,1,0
344,288,207783,1,0
344,288,207851,1,2
344,288,207919,1,2
344,288,207988,1,0
344,288,208056,1,0
344,288,208124,1,2
344,288,208192,1,2
344,288,208261,1,0
344,288,208329,1,0
344,288,208397,1,2
344,288,208465,1,2
344,288,208534,1,0
344,288,208602,1,0
344,288,208670,1,2
344,288,208738,1,2
344,288,208806,1,0
344,288,208875,1,0
344,288,208943,1,2
344,288,209010,1,2
344,288,209078,1,0
344,288,209147,1,0
344,288,209215,1,2
344,288,209283,1,2
384,120,209351,1,0
264,152,209624,1,0
256,56,209692,1,0
256,56,209760,1,2
336,80,209828,1,2
360,200,209897,1,0
448,144,209965,1,0
440,296,210033,1,2
448,192,210101,1,2
152,176,210169,1,0
152,176,210238,1,0
152,176,210306,1,2
152,176,210374,1,2
152,176,210442,1,2
72,176,210533,1,2
80,120,210624,1,2
120,264,210715,1,0
64,264,210806,1,0
176,336,210897,1,2
280,192,210988,1,0
280,192,211078,1,0
280,192,211169,1,2
280,192,211260,1,2
280,192,211351,1,2
280,192,211442,1,2
280,192,211533,1,0
256,192,213715,1,4
200,120,214601,1,0
200,120,214669,1,0
200,120,214738,1,0
200,120,214806,1,2
288,96,214942,1,2
256,256,215078,1,0
392,200,215215,1,2
184,240,215488,1,2
184,240,215624,1,2
304,184,215760,1,0
408,120,215897,1,4
288,96,216306,1,0
200,120,216374,1,0
200,120,216442,1,2
64,192,216851,1,0
64,192,216919,1,0
64,192,216988,1,0
112,104,217124,1,2
224,240,217397,1,0
336,216,217533,1,2
416,120,217669,1,2
304,144,217806,1,0
296,80,217942,1,2
208,136,218078,1,0
160,216,218351,1,0
160,216,218488,1,0
160,216,218624,1,0
224,240,218760,1,0
176,296,218897,1,0
176,296,219033,1,0
112,136,219169,1,0
112,136,219238,1,0
112,136,219306,1,0
112,136,219374,1,0
112,136,219442,1,0
112,136,219510,1,0
112,136,219578,1,0
112,136,219647,1,0
112,136,219715,1,0
112,136,219783,1,0
112,136,219851,1,0
112,136,219919,1,0
112,136,219988,1,0
208,160,220056,1,0
208,160,220124,1,0
208,160,220192,1,0
208,160,220260,1,0
432,112,220397,1,2
304,272,220533,1,0
304,272,220601,1,0
336,248,220669,1,2
320,120,220806,1,0
208,264,220942,1,2
128,232,221078,1,0
128,232,221147,1,0
184,200,221215,1,2
176,96,221351,1,0
288,72,221488,1,2
392,192,221624,1,0
392,192,221692,1,0
392,192,221760,1,2
280,192,221897,1,0
280,192,221965,1,0
352,176,222033,1,2
304,272,222169,1,0
336,248,222238,1,0
352,176,222306,1,2
184,200,222442,1,0
288,128,222578,1,2
120,160,222715,1,0
120,160,222783,1,0
144,96,222851,1,2
432,96,222988,1,0
440,136,223124,1,2
408,240,223260,1,0
408,240,223328,1,0
376,280,223397,1,2
256,296,223533,1,0
264,176,223669,1,2
144,264,223806,1,0
144,200,223874,1,0
144,200,223942,1,2
200,136,224078,1,0
200,136,224147,1,0
200,136,224215,1,2
360,136,224351,1,0
360,136,224419,1,0
360,136,224488,1,0
360,136,224556,1,0
360,136,224624,1,0
360,136,224692,1,0
408,120,224760,1,2
344,192,224828,1,0
264,80,224897,1,0
264,80,224965,1,0
264,80,225033,1,2
160,80,225101,1,0
160,80,225169,1,0
160,80,225238,1,0
48,176,225306,1,2
208,200,225374,1,0
208,200,225442,1,0
208,200,225510,1,0
344,192,225578,1,2
272,272,225647,1,2
144,296,225715,1,0
152,176,225988,1,0
152,176,226056,1,0
152,176,226124,1,2
152,176,226192,1,2
152,176,226260,1,0
280,112,226397,1,0
280,112,226533,1,2
280,112,226669,1,0
392,152,226806,1,2
392,152,226874,1,2
392,152,226942,1,0
392,152,227010,1,0
392,152,227078,1,2
392,152,227147,1,2
392,152,227215,1,0
392,152,227283,1,0
392,152,227351,1,2
312,224,227442,1,0
312,224,227533,1,0
264,192,227624,1,0
192,208,227715,1,2
192,208,227806,1,2
72,144,227897,1,2
96,104,227988,1,2
176,72,228078,1,0
248,80,228169,1,0
248,80,228260,1,0
248,80,228351,1,0
248,80,228442,1,2
344,184,228715,1,2
328,128,228851,1,0
328,128,228919,1,0
416,88,228988,1,2
384,232,229124,1,0
384,232,229192,1,0
384,232,229260,1,2
280,256,229397,1,0
280,256,229465,1,0
280,256,229533,1,2
240,264,229601,1,0
192,256,229669,1,0
192,256,229738,1,0
192,256,229806,1,2
120,224,229942,1,0
120,224,230010,1,0
120,224,230078,1,2
208,144,230215,1,0
208,144,230283,1,0
208,144,230351,1,2
128,88,230488,1,0
312,72,230624,1,2
368,168,230760,1,0
368,168,230828,1,0
368,168,230897,1,2
320,176,230965,1,0
320,176,231033,1,0
320,176,231101,1,0
320,176,231169,1,2
312,264,231306,1,0
312,264,231374,1,0
312,264,231442,1,2
248,232,231578,1,0
248,232,231647,1,0
216,256,231715,1,2
160,176,231851,1,0
160,176,231919,1,0
160,176,231988,1,2
224,112,232124,1,0
224,112,232192,1,0
224,112,232260,1,2
224,112,232328,1,0
224,112,232397,1,0
224,112,232465,1,0
224,112,232533,1,2
224,112,232601,1,0
224,112,232669,1,0
224,112,232738,1,0
224,112,232806,1,2
224,112,232874,1,0
224,112,232942,1,0
224,112,233010,1,0
224,112,233078,1,2
224,112,233147,1,0
224,112,233215,1,0
224,112,233283,1,0
224,112,233351,1,2
328,208,233488,1,0
328,208,233556,1,0
328,208,233624,1,2
408,128,233760,1,0
408,128,233828,1,0
408,128,233897,1,2
352,72,234033,1,0
352,72,234101,1,0
352,72,234169,1,2
184,232,234306,1,0
184,232,234374,1,0
216,216,234442,1,2
128,168,234510,1,0
128,168,234578,1,0
128,168,234647,1,0
128,128,234715,1,2
88,88,234783,1,0
88,88,234851,1,0
88,88,234919,1,0
88,88,234988,1,2
216,128,235056,1,0
216,128,235124,1,0
216,128,235192,1,0
280,80,235260,1,2
312,168,235397,1,0
312,168,235465,1,0
312,168,235533,1,2
344,264,235806,1,0
344,264,235874,1,0
344,264,235942,1,2
416,120,236078,1,2
392,96,236147,1,0
392,96,236215,1,0
392,96,236283,1,0
352,64,236351,1,2
304,56,236488,1,0
304,56,236556,1,0
352,64,236624,1,2
232,96,236760,1,2
208,208,237715,1,2
208,208,237783,1,2
416,176,237851,1,0
304,200,237919,1,0
304,200,237988,1,2
304,200,238056,1,2
304,200,238124,1,0
304,200,238192,1,0
304,200,238260,1,2
264,136,238328,1,2
264,136,238397,1,0
264,136,238465,1,0
264,136,238533,1,2
264,136,238601,1,2
264,136,238669,1,0
264,136,238738,1,0
200,96,238806,1,0
272,112,238942,1,2
336,88,239078,1,0
336,88,239147,1,0
368,96,239215,1,2
200,96,239351,1,0
272,112,239487,1,2
336,88,239623,1,0
336,88,239692,1,0
368,96,239760,1,2
200,96,239897,1,0
272,112,240033,1,2
336,88,240169,1,0
336,88,240238,1,0
368,96,240306,1,2
200,96,240442,1,0
208,128,240510,1,0
272,112,240578,1,2
336,88,240714,1,0
336,88,240783,1,0
368,96,240851,1,2
200,96,240988,1,4
272,112,241124,1,2
336,88,241260,1,0
336,88,241329,1,0
368,96,241397,1,2
200,96,241533,1,0
272,112,241669,1,2
336,88,241805,1,0
336,88,241874,1,0
368,96,241942,1,2
200,96,242079,1,0
272,112,242215,1,2
336,88,242351,1,0
336,88,242420,1,0
368,96,242488,1,2
200,96,242624,1,0
208,128,242692,1,0
272,112,242760,1,2
336,88,242896,1,0
336,88,242965,1,0
368,96,243033,1,2
368,128,243101,1,0
200,96,243169,1,0
272,112,243305,1,2
336,88,243441,1,0
336,88,243510,1,0
368,96,243578,1,2
200,96,243714,1,0
272,112,243850,1,2
336,88,243988,1,0
336,88,244055,1,0
368,96,244123,1,2
200,96,244260,1,0
272,112,244396,1,2
336,88,244532,1,0
336,88,244601,1,0
368,96,244669,1,2
200,96,244805,1,0
208,128,244873,1,0
272,112,244941,1,2
336,88,245077,1,0
336,88,245146,1,0
368,96,245214,1,2
200,96,245351,1,4
272,112,245487,1,2
336,88,245623,1,0
336,88,245692,1,0
368,96,245760,1,2
200,96,245896,1,0
272,112,246032,1,2
336,88,246168,1,0
336,88,246237,1,0
368,96,246305,1,2
200,96,246442,1,0
272,112,246578,1,2
336,88,246714,1,0
336,88,246783,1,0
368,96,246851,1,2
360,128,246919,1,2
352,160,246988,1,0
320,168,247056,1,0
288,160,247124,1,2
256,160,247192,1,2
248,192,247260,1,0
160,200,247397,1,2
200,96,247533,1,4
272,112,247669,1,2
336,88,247805,1,0
336,88,247874,1,0
368,96,247942,1,2
200,96,248078,1,0
272,112,248214,1,2
336,88,248350,1,0
336,88,248419,1,0
368,96,248487,1,2
200,96,248624,1,0
272,112,248760,1,2
336,88,248896,1,0
336,88,248965,1,0
368,96,249033,1,2
200,96,249169,1,0
208,128,249237,1,0
272,112,249305,1,2
336,88,249441,1,0
336,88,249510,1,0
368,96,249578,1,2
344,128,249647,1,0
200,96,249715,1,0
272,112,249851,1,2
336,88,249987,1,0
336,88,250056,1,0
368,96,250124,1,2
200,96,250260,1,0
272,112,250396,1,2
336,88,250532,1,0
336,88,250601,1,0
368,96,250669,1,2
200,96,250806,1,0
272,112,250942,1,2
336,88,251078,1,0
336,88,251147,1,0
368,96,251215,1,2
200,96,251351,1,0
208,128,251419,1,0
272,112,251487,1,2
336,88,251623,1,0
336,88,251692,1,0
368,96,251760,1,2
200,96,251896,1,4
272,112,252032,1,2
336,88,252168,1,0
336,88,252237,1,0
368,96,252305,1,2
200,96,252441,1,0
272,112,252577,1,2
336,88,252715,1,0
336,88,252782,1,0
368,96,252850,1,2
200,96,252987,1,0
272,112,253123,1,2
336,88,253259,1,0
336,88,253328,1,0
368,96,253396,1,2
200,96,253532,1,0
208,128,253600,1,0
272,112,253668,1,2
336,88,253806,1,0
336,88,253873,1,0
368,96,253941,1,2
336,112,254010,1,0
200,96,254078,1,0
272,112,254214,1,2
336,88,254350,1,0
336,88,254419,1,0
368,96,254487,1,2
200,96,254623,1,0
272,112,254759,1,2
336,88,254897,1,0
336,88,254964,1,0
368,96,255032,1,2
200,96,255169,1,0
200,128,255238,1,0
200,128,255306,1,0
200,128,255374,1,0
168,152,255442,1,2
168,152,255510,1,2
168,152,255578,1,2
168,152,255647,1,2
192,184,255715,1,0
192,184,255783,1,0
192,184,255851,1,0
192,184,255919,1,0
192,184,255988,1,2
192,184,256056,1,2
160,200,256124,1,2
160,200,256192,1,2
200,96,256260,1,0
272,112,256396,1,2
336,88,256532,1,0
336,88,256601,1,0
368,96,256669,1,2
200,96,256805,1,0
272,112,256941,1,2
336,88,257077,1,0
336,88,257146,1,0
368,96,257214,1,2
200,96,257351,1,4
272,112,257487,1,2
336,88,257623,1,0
336,88,257692,1,0
368,96,257760,1,2
200,96,257896,1,0
208,128,257964,1,0
272,112,258032,1,2
336,88,258168,1,0
336,88,258237,1,0
368,96,258305,1,2
200,96,258442,1,0
272,112,258578,1,2
336,88,258714,1,0
336,88,258783,1,0
368,96,258851,1,2
200,96,258987,1,0
272,112,259123,1,2
336,88,259259,1,0
336,88,259328,1,0
368,96,259396,1,2
200,96,259533,1,4
272,112,259669,1,2
336,88,259805,1,4
368,96,259942,1,2
200,96,260078,1,4
272,112,260214,1,2
336,88,260350,1,4
368,96,260487,1,2
200,96,260623,1,4
272,112,260759,1,2
336,88,260897,1,0
336,88,260964,1,0
368,96,261032,1,2
200,96,261168,1,0
272,112,261306,1,2
336,88,261442,1,0
336,88,261509,1,0
368,96,261577,1,2
200,96,261714,1,4
272,112,261850,1,2
336,88,261988,1,0
336,88,262055,1,0
368,96,262123,1,2
200,96,262259,1,0
208,128,262327,1,0
272,112,262397,1,2
336,88,262533,1,0
336,88,262600,1,0
368,96,262668,1,2
200,96,262805,1,0
272,112,262941,1,2
336,88,263077,1,0
336,88,263146,1,0
368,96,263214,1,2
200,96,263350,1,0
272,112,263488,1,2
336,88,263624,1,0
336,88,263691,1,0
368,96,263759,1,2
200,96,263896,1,4
272,112,264032,1,2
336,88,264168,1,0
336,88,264237,1,0
368,96,264305,1,2
360,128,264373,1,2
352,160,264442,1,0
320,168,264510,1,0
288,160,264578,1,2
256,160,264646,1,2
248,192,264714,1,0
160,200,264851,1,2
200,96,264987,1,4
272,112,265123,1,2
336,88,265259,1,0
336,88,265328,1,0
368,96,265396,1,2
200,96,265532,1,0
272,112,265668,1,2
336,88,265806,1,0
336,88,265873,1,0
368,96,265941,1,2
200,96,266078,1,4
272,112,266214,1,2
336,88,266350,1,0
336,88,266419,1,0
368,96,266487,1,2
200,96,266623,1,0
208,128,266691,1,0
272,112,266759,1,2
336,88,266897,1,0
336,88,266964,1,0
368,96,267032,1,2
336,112,267101,1,0
200,96,267169,1,0
272,112,267305,1,2
336,88,267441,1,0
336,88,267510,1,0
368,96,267578,1,2
200,96,267714,1,0
272,112,267850,1,2
336,88,267988,1,0
336,88,268055,1,0
368,96,268123,1,2
200,96,268260,1,4
272,112,268396,1,2
336,88,268532,1,4
368,96,268669,1,2
200,96,268805,1,4
272,112,268941,1,2
336,88,269077,1,4
368,96,269214,1,2
200,96,269350,1,4
272,112,269488,1,2
336,88,269624,1,0
336,88,269691,1,0
368,96,269759,1,2
200,96,269897,1,0
272,112,270033,1,2
336,88,270169,1,0
336,88,270238,1,0
368,96,270306,1,2
200,96,270441,1,4
272,112,270577,1,2
336,88,270715,1,0
336,88,270782,1,0
368,96,270850,1,2
200,96,270988,1,0
208,128,271056,1,0
272,112,271124,1,2
336,88,271260,1,0
336,88,271327,1,0
368,96,271397,1,2
200,96,271532,1,4
272,112,271668,1,2
336,88,271806,1,0
336,88,271873,1,0
368,96,271941,1,2
200,96,272077,1,4
272,112,272215,1,2
336,88,272351,1,0
336,88,272418,1,0
368,96,272488,1,2
200,96,272623,1,0
200,128,272692,1,0
200,128,272760,1,0
200,128,272828,1,0
168,152,272896,1,2
168,152,272964,1,2
168,152,273032,1,2
168,152,273101,1,2
192,184,273169,1,0
192,184,273237,1,0
192,184,273305,1,0
192,184,273373,1,0
192,184,273442,1,2
192,184,273510,1,2
160,200,273578,1,2
160,200,273646,1,2
320,192,273715,1,0
320,192,273852,1,2
320,192,273988,1,0
320,192,274056,1,0
320,192,274125,1,2
320,192,274261,1,0
320,192,274398,1,2
320,192,274534,1,0
320,192,274602,1,0
320,192,274669,1,2
320,192,274806,1,0
320,192,274943,1,2
320,192,275079,1,0
320,192,275147,1,0
320,192,275216,1,2
320,192,275352,1,0
320,192,275420,1,0
320,192,275489,1,2
320,192,275625,1,0
320,192,275693,1,0
320,192,275760,1,2
320,192,275897,1,0
320,192,276034,1,2
320,192,276170,1,0
320,192,276238,1,0
320,192,276307,1,2
320,192,276443,1,0
320,192,276578,1,2
320,192,276716,1,0
320,192,276784,1,0
320,192,276851,1,2
320,192,276988,1,0
320,192,277125,1,2
320,192,277261,1,0
320,192,277329,1,0
320,192,277398,1,2
320,192,277534,1,0
320,192,277602,1,0
320,192,277669,1,2
320,192,277807,1,0
320,192,277875,1,0
320,192,277942,1,2
160,136,278079,1,0
280,96,278215,1,2
392,112,278352,1,0
392,112,278420,1,0
392,112,278488,1,2
344,288,278625,1,0
424,216,278761,1,2
192,256,278897,1,0
192,256,278965,1,0
192,256,279034,1,2
120,176,279170,1,0
120,176,279238,1,0
120,176,279306,1,2
272,160,279443,1,0
280,96,279579,1,2
368,184,279715,1,0
368,184,279784,1,0
368,184,279852,1,2
432,88,279988,1,0
352,88,280125,1,2
296,224,280261,1,0
296,224,280329,1,0
296,224,280397,1,2
344,280,280534,1,0
344,280,280602,1,0
344,280,280670,1,2
272,160,280806,1,0
408,128,280943,1,2
440,216,281079,1,0
440,216,281147,1,0
440,216,281215,1,2
120,192,281352,1,2
120,192,281420,1,2
120,192,281488,1,2
120,192,281556,1,2
120,192,281625,1,0
120,192,281693,1,0
120,192,281761,1,0
120,192,281829,1,0
120,192,281897,1,2
120,192,281965,1,2
120,192,282034,1,0
120,192,282102,1,0
120,192,282170,1,2
120,192,282238,1,2
120,192,282306,1,0
120,192,282375,1,0
120,192,282443,1,0
192,192,282578,1,0
248,152,282715,1,0
312,128,282851,1,0
120,192,282988,1,0
192,192,283123,1,0
248,152,283260,1,0
312,128,283396,1,0
120,192,283533,1,0
192,192,283668,1,0
248,152,283805,1,0
312,128,283941,1,0
120,192,284078,1,0
192,192,284215,1,0
248,152,284350,1,0
312,128,284488,1,0
320,160,284556,1,0
320,192,284624,1,0
264,240,284760,1,0
192,232,284897,1,0
168,168,285033,1,0
376,272,285169,1,0
400,128,285306,1,0
208,48,285442,1,0
96,128,285578,1,0
296,176,285715,1,0
248,152,285851,1,0
120,232,285988,1,0
232,320,286124,1,0
248,152,286260,1,0
320,160,286397,1,0
296,176,286533,1,0
224,0,286669,1,0
248,152,286738,1,0
232,320,286805,1,0
248,152,286941,1,0
320,160,287078,1,0
296,176,287214,1,0
376,80,287351,1,2
360,232,287488,1,0
360,232,287624,1,0
360,232,287760,1,0
192,224,287897,1,0
136,136,288033,1,0
216,120,288169,1,0
56,96,288306,1,0
64,168,288442,1,2
320,160,288578,1,0
328,80,288715,1,2
248,192,288851,1,0
248,256,288988,1,0
248,256,289056,1,0
248,256,289124,1,0
248,256,289192,1,0
248,256,289260,1,0
248,256,289328,1,0
248,256,289397,1,0
248,256,289465,1,0
248,256,289533,1,0
248,256,289601,1,0
248,256,289669,1,0
248,256,289738,1,0
248,256,289806,1,0
176,136,290078,1,0
176,136,290147,1,0
176,136,290215,1,0
176,136,290283,1,0
400,96,290351,1,2
400,96,290419,1,2
400,96,290488,1,2
400,96,290556,1,2
352,112,290624,1,0
352,112,290692,1,0
352,112,290760,1,0
352,112,290828,1,0
320,88,290897,1,2
320,88,290965,1,2
320,88,291033,1,2
320,88,291101,1,2
248,200,291169,1,0
232,80,291306,1,2
232,80,291374,1,0
232,80,291442,1,0
304,304,291578,1,0
96,144,291715,1,0
96,144,291783,1,0
96,144,291851,1,2
328,144,291988,1,0
464,72,292124,1,2
464,72,292192,1,0
464,72,292260,1,0
424,208,292397,1,2
328,144,292533,1,0
424,208,292669,1,2
328,144,292805,1,0
424,208,292942,1,2
328,144,293078,1,0
184,96,293147,1,0
424,208,293214,1,2
256,136,293283,1,0
328,144,293350,1,0
176,192,293419,1,0
424,208,293488,1,2
256,256,293556,1,0
328,144,293624,1,0
424,208,293760,1,2
328,144,293896,1,0
424,208,294033,1,2
328,144,294169,1,0
424,208,294305,1,2
328,144,294441,1,0
424,208,294578,1,2
328,144,294714,1,0
424,208,294850,1,2
328,144,294988,1,0
424,208,295124,1,2
328,144,295260,1,0
424,208,295396,1,2
208,168,295465,1,0
328,144,295532,1,0
208,168,295601,1,0
424,208,295669,1,2
208,168,295738,1,0
328,144,295805,1,0
208,168,295874,1,0
424,208,295941,1,2
328,144,296077,1,0
424,208,296215,1,2
328,144,296351,1,0
424,208,296487,1,2
200,104,296556,1,0
328,144,296623,1,0
200,104,296692,1,0
424,208,296760,1,2
200,104,296828,1,0
328,144,296896,1,0
200,104,296965,1,0
424,208,297032,1,2
320,80,297101,1,2
328,144,297168,1,0
248,64,297238,1,0
424,208,297306,1,2
248,64,297374,1,0
328,144,297442,1,0
248,224,297510,1,0
424,208,297578,1,2
328,144,297715,1,0
424,208,297851,1,2
328,144,297988,1,0
112,184,298124,1,2
184,168,298192,1,0
328,144,298259,1,0
424,208,298397,1,2
176,264,298465,1,0
328,144,298533,1,0
424,208,298669,1,2
328,144,298805,1,0
168,112,298874,1,0
424,208,298942,1,2
328,144,299078,1,0
424,208,299214,1,2
328,144,299350,1,0
136,64,299419,1,0
384,64,299488,1,2
448,136,299624,1,0
296,96,299760,1,2
256,192,299897,1,4
192,168,300306,1,4
192,168,300715,1,4
