osu file format v6

[General]
AudioFilename: 17 Jehovah's YaHVeH.mp3
AudioLeadIn: 0
PreviewTime: 150442
Countdown: 0
SampleSet: Normal
StackLeniency: 0.7
Mode: 0
LetterboxInBreaks: 1
SkinPreference:Touhou

[Editor]
Bookmarks: 35343,62616,150454
DistanceSpacing: 1.20000004768372
BeatDivisor: 2
GridSize: 8

[Metadata]
Title:Jehovah's YaHVeH
Artist:Demetori
Creator:happy30
Version:Normal
Source:Il Mondo dove e finito il Tempo
Tags:Sanae kochiya faith is for the transient people

[Difficulty]
HPDrainRate:3
CircleSize:3
OverallDifficulty:4
SliderMultiplier:1
SliderTickRate:0.5

[Events]
//Background and Video events
0,0,"sanae2.jpg"
//Break Periods
2,108642,122940
//Storyboard Layer 0 (Background)
//Storyboard Layer 1 (Fail)
//Storyboard Layer 2 (Pass)
//Storyboard Layer 3 (Foreground)
//Storyboard Sound Samples
//Background Colour Transformations
3,100,163,162,255

[TimingPoints]
988,272.727272727273,4,1,0,100,1,0
35900,-100,4,2,0,100,0,0
37400,-100,4,1,0,100,0,0
39715,-200,4,1,0,100,0,0
41488,-100,4,1,0,100,0,0
150442,-100,4,1,0,100,0,1
170078,-100,4,1,0,100,0,0

[Colours]
Combo1 : 35,71,71
Combo2 : 86,105,135
Combo3 : 38,48,72

[HitObjects]
256,48,35351,1,4
256,48,37533,5,0
256,200,37942,1,0
256,352,38351,1,4
256,352,39715,6,0,B|256:112,1,200,4|4
296,40,41897,6,0,B|328:144,1,100,4|0
224,128,42442,2,0,B|192:232,1,100
256,304,42988,1,4
256,304,43260,1,0
256,304,43533,1,0
456,280,44078,6,0,B|432:168,1,100,4|0
328,112,44624,2,0,B|352:224,2,100
328,112,45442,1,0
184,112,45715,2,0,B|160:224,2,100,0|0|4
184,112,46533,5,0
76,182,46806,2,0,B|56:280,2,100
76,182,47624,1,0
160,232,47897,1,0
248,192,48169,1,0
248,192,48442,6,0,B|464:192,1,200,4|0
416,288,49260,1,0
416,288,49533,2,0,B|208:288,1,200
248,192,50351,1,0
248,192,50624,6,0,B|360:192,1,100,4|0
315,288,51169,2,0,B|203:288,1,100
112,288,51715,1,4
64,200,51988,1,0
144,152,52260,1,0
192,240,52533,1,0
112,288,52806,6,0,B|80:240|112:176,1,100,4|0
192,104,53351,2,0,B|224:152|192:216,1,100,0|0
296,192,53897,2,0,B|264:240|296:304,1,100
376,376,54442,2,0,B|408:328|376:264,1,100,0|0
456,208,54988,6,0,B|352:152|368:16,1,200,4|0
264,40,55806,1,0
256,136,56078,2,0,B|303:244|207:341,1,200
136,272,56897,1,0
160,176,57169,6,0,B|368:176,2,200,4|0|0
136,272,58533,1,0
208,344,58806,1,0
280,272,59078,1,0
368,320,59351,6,0,B|408:208,1,100,4|0
360,96,59897,2,0,B|320:208,1,100,0|0
224,192,60442,1,4
224,192,60715,1,0
224,192,60988,2,0,B|8:192,1,200,0|4
24,192,62624,5,4
112,312,63033,1,0
240,232,63442,1,0
200,144,63715,2,0,B|208:56|320:48,1,150
400,160,64533,1,0
448,248,64806,6,0,B|440:336|328:344,2,150,4|0|0
400,160,65897,1,0
264,224,66306,1,0
120,176,66715,1,0
64,264,66988,6,0,B|104:352|216:328,2,150,4|0|0
120,176,68078,2,0,B|153:85|57:23,2,150,4|0|0
200,240,69169,6,0,B|240:152|352:176,2,150,4|0|0
152,328,70260,1,4
80,200,70669,1,0
184,96,71078,1,0
248,168,71351,6,0,B|256:256|368:288,1,150,4|0
456,192,72169,1,0
424,96,72442,1,0
288,32,72851,1,0
168,120,73260,1,0
80,72,73533,6,0,B|16:136|48:232,1,150,4|0
120,336,74351,1,0
120,336,74624,2,0,B|184:272|152:176,2,150
216,352,75715,5,4
280,216,76124,1,0
424,264,76533,1,0
456,168,76806,1,0
376,40,77215,1,0
240,96,77624,1,0
152,48,77897,6,0,B|72:96|96:216,1,150,4|0
168,304,78715,1,0
240,232,78988,1,0
304,96,79397,1,0
416,192,79806,1,0
416,192,79942,1,0
416,192,80078,6,0,B|296:192,1,100,4|0
216,192,80624,2,0,B|104:192,1,100
72,280,81169,2,0,B|176:280,1,100,4|0
272,280,81715,2,0,B|384:280,1,100
416,192,82260,6,0,B|304:184|256:56,1,200,4|0
264,77,82942,1,0
176,120,83215,1,0
176,120,83351,2,0,B|176:232,1,100,4|0
264,272,83897,2,0,B|264:160,1,100
352,216,84442,6,0,B|352:320,2,100,4|0|0
352,216,85260,1,0
440,176,85533,2,0,B|440:64,2,100,4|0|0
440,176,86351,1,0
352,216,86624,5,4
264,168,86897,1,0
176,208,87169,1,0
80,192,87442,1,0
80,192,87715,1,6
128,304,87988,1,2
248,288,88260,1,2
360,336,88533,1,2
424,232,88806,6,0,B|480:152|416:56,1,150,4|0
280,176,89624,1,0
280,176,89897,2,0,B|240:128|264:64,1,100
160,152,90442,2,0,B|200:200|176:264,1,100
80,312,90988,6,0,B|16:256|48:152,2,150,4|0|0
192,344,92078,1,0
288,272,92351,1,0
400,320,92624,1,0
424,200,92897,1,0
312,152,93169,6,0,B|224:168|160:72,2,150,4|0|0
424,200,94260,1,0
400,320,94533,1,0
288,272,94806,2,0,B|176:272,1,100
80,328,95351,5,4
40,152,95760,1,0
216,168,96169,1,0
128,248,96442,2,0,B|104:192|144:136,1,100
224,232,96988,2,0,B|248:288|208:344,1,100
336,304,97533,6,0,B|304:216|368:144,1,150,4|0
216,40,98351,1,0
112,104,98624,2,0,B|80:152|96:208,1,100
176,280,99169,2,0,B|208:232|192:176,1,100
72,176,99715,6,0,B|32:264|112:336,2,150,4|0|0
192,160,100806,1,0
296,216,101078,1,0
408,168,101351,1,0
448,280,101624,1,0
344,336,101897,6,0,B|256:368|176:296,1,150,4|0
72,192,102715,1,0
168,120,102988,2,0,B|288:120,1,100
344,208,103533,2,0,B|224:208,1,100
376,104,104078,6,0,B|464:136|456:248,2,150,4|0|0
264,152,105169,2,0,B|176:120|184:8,2,150,4|0|0
264,152,106260,1,4
256,208,106533,12,4,108442
488,192,124260,5,4
400,72,124669,1,0
272,152,125078,1,0
312,240,125351,2,0,B|304:328|192:336,1,150
112,224,126169,1,0
64,136,126442,6,0,B|72:48|184:40,2,150,4|0|0
112,224,127533,1,0
248,160,127942,1,0
392,208,128351,1,0
448,120,128624,6,0,B|408:32|296:56,2,150,4|0|0
392,208,129714,2,0,B|359:299|455:361,2,150,4|0|0
312,144,130805,6,0,B|272:232|160:208,2,150,4|0|0
360,56,131896,1,4
360,56,132988,6,0,B|432:120|392:232,1,150,4|0
240,120,133805,1,0
144,192,134078,1,0
200,352,134487,1,0
344,264,134896,1,0
432,312,135169,6,0,B|496:248|464:152,1,150,4|0
392,48,135987,1,0
392,48,136260,2,0,B|328:112|360:208,2,150
296,32,137351,5,4
232,168,137760,1,0
88,120,138169,1,0
56,216,138442,1,0
136,344,138851,1,0
272,288,139260,1,0
360,336,139533,6,0,B|440:288|416:168,1,150,4|0
344,80,140351,1,0
272,152,140624,1,0
208,288,141033,1,0
96,192,141442,1,0
96,192,141578,1,0
96,192,141714,6,0,B|216:192,1,100,4|0
296,192,142260,2,0,B|408:192,1,100
440,104,142805,2,0,B|336:104,1,100,4|0
240,104,143351,2,0,B|128:104,1,100
96,192,143896,6,0,B|208:200|256:328,1,200,4|0
248,307,144578,1,0
336,264,144851,1,0
336,264,144987,2,0,B|336:152,1,100,4|0
248,112,145533,2,0,B|248:224,1,100
160,168,146078,6,0,B|160:64,2,100,4|0|0
160,168,146896,1,0
72,208,147169,2,0,B|72:320,2,100,4|0|0
72,208,147987,1,0
160,168,148260,5,4
248,216,148533,1,0
336,176,148805,1,0
432,192,149078,1,0
432,192,149351,1,0
152,48,149897,5,0
152,48,150169,1,0
88,152,150442,2,0,B|32:232|96:328,1,150,4|0
232,208,151260,1,0
232,208,151533,2,0,B|272:256|248:320,1,100
352,232,152078,2,0,B|312:184|336:120,1,100
432,72,152624,6,0,B|496:128|464:232,2,150,4|0|0
320,40,153714,1,0
224,112,153987,1,0
112,64,154260,1,0
88,184,154533,1,0
200,232,154805,6,0,B|288:216|352:312,2,150,4|0|0
88,184,155896,1,0
112,64,156169,1,0
224,112,156442,2,0,B|336:112,1,100
432,56,156987,5,4
472,232,157396,1,0
296,216,157805,1,0
384,136,158078,2,0,B|408:192|368:248,1,100
288,152,158624,2,0,B|264:96|304:40,1,100
176,80,159169,6,0,B|208:168|144:240,1,150,4|0
296,344,159987,1,0
400,280,160260,2,0,B|432:232|416:176,1,100
336,104,160805,2,0,B|304:152|320:208,1,100
440,208,161351,6,0,B|480:120|400:48,2,150,4|0|0
320,224,162442,1,0
216,168,162714,1,0
104,216,162987,1,0
64,104,163260,1,0
168,48,163533,6,0,B|256:16|336:88,1,150,4|0
440,192,164351,1,0
344,264,164624,2,0,B|224:264,1,100
168,176,165169,2,0,B|288:176,1,100
136,280,165714,6,0,B|48:248|56:136,2,150,4|0|0
248,232,166806,2,0,B|344:160|480:256,1,200,4|4
436,228,167897,1,4
256,208,168169,12,4,170078
