osu file format v13

[General]
AudioFilename: styx.mp3
AudioLeadIn: 0
PreviewTime: 121309
Countdown: 0
SampleSet: Normal
StackLeniency: 0.7
Mode: 1
LetterboxInBreaks: 0
WidescreenStoryboard: 1

[Editor]
Bookmarks: 449657
DistanceSpacing: 0.8
BeatDivisor: 4
GridSize: 32
TimelineZoom: 1

[Metadata]
Title:Higan Retour ~ View of The River Styx
TitleUnicode:彼岸帰航 ~ View of The River Styx
Artist:Demetori
ArtistUnicode:Demetori
Creator:Love
Version:Inner Oni
Source:Touhou
Tags:Nada Upasana Pundarika Riverside Phantasmagoria Flower TH09 Kikou 小野塚小町 Komachi Onoduka 東方花映塚 Kaeiduka
BeatmapID:392976
BeatmapSetID:160916

[Difficulty]
HPDrainRate:7
CircleSize:5
OverallDifficulty:6
ApproachRate:5
SliderMultiplier:1.4
SliderTickRate:1

[Events]
//Background and Video events
0,0,"Konachan.com - 98484 sample.jpg",0,110
//Break Periods
2,221064,228236
//Storyboard Layer 0 (Background)
//Storyboard Layer 1 (Fail)
//Storyboard Layer 2 (Pass)
//Storyboard Layer 3 (Foreground)
//Storyboard Sound Samples
//Background Colour Transformations
3,100,163,162,255

[TimingPoints]
-10,329.67032967033,4,1,0,80,1,0
51088,329.67032967033,4,1,0,80,1,0
72186,329.67032967033,5,1,0,80,1,0
73834,329.67032967033,6,1,0,80,1,0
75812,329.67032967033,5,1,0,80,1,0
79109,329.67032967033,4,1,0,80,1,0
142405,329.67032967033,6,1,0,80,1,0
144383,329.67032967033,4,1,0,80,1,0
149657,329.67032967033,5,1,0,80,1,0
151305,329.67032967033,4,1,0,80,1,0
161854,329.67032967033,5,1,0,80,1,0
163502,329.67032967033,4,1,0,80,1,0
197787,-100,4,1,0,80,0,1
218886,-100,4,1,0,80,0,0
238010,329.67032967033,4,1,0,80,1,8
243284,329.67032967033,6,1,0,80,1,0
245262,329.67032967033,7,1,0,80,1,0
247570,329.67032967033,6,1,0,80,1,0
249548,329.67032967033,7,1,0,80,1,0
251855,329.67032967033,4,1,0,80,1,0
265042,-100,4,1,0,80,0,1
307239,-100,4,1,0,80,0,0
328338,-100,4,1,0,80,0,1
348118,-100,4,1,0,80,0,0
370536,-100,4,1,0,80,0,1
412734,329.67032967033,6,1,0,80,1,0
414712,329.67032967033,4,1,0,80,1,0
419986,329.67032967033,6,1,0,80,1,0
421964,329.67032967033,4,1,0,80,1,0
424601,329.67032967033,6,1,0,80,1,0
428557,329.67032967033,4,1,0,80,1,0
436140,329.67032967033,5,1,0,80,1,0
447678,329.67032967033,6,1,0,80,1,0
449656,329.67032967033,4,1,0,80,1,0
449820,-100,4,1,0,5,0,0

[Colours]
Combo1 : 255,94,55
Combo2 : 173,255,95
Combo3 : 255,88,100
Combo4 : 17,254,176

[HitObjects]
256,192,22407,5,4,0:0:0:0:
256,192,22737,1,8,0:0:0:0:
256,192,22902,1,0,0:0:0:0:
256,192,22984,1,0,0:0:0:0:
256,192,23066,1,0,0:0:0:0:
256,192,23396,1,8,0:0:0:0:
256,192,23479,1,0,0:0:0:0:
256,192,23561,1,0,0:0:0:0:
256,192,23891,1,0,0:0:0:0:
256,192,24055,1,8,0:0:0:0:
256,192,24220,1,0,0:0:0:0:
256,192,24303,1,0,0:0:0:0:
256,192,24385,1,0,0:0:0:0:
256,192,24468,1,0,0:0:0:0:
256,192,24550,1,0,0:0:0:0:
256,192,24632,1,0,0:0:0:0:
256,192,24715,1,8,0:0:0:0:
256,192,25044,1,0,0:0:0:0:
256,192,25127,1,0,0:0:0:0:
256,192,25209,1,0,0:0:0:0:
256,192,25374,1,8,0:0:0:0:
256,192,25539,1,0,0:0:0:0:
256,192,25869,1,0,0:0:0:0:
256,192,25951,1,0,0:0:0:0:
256,192,26033,1,8,0:0:0:0:
256,192,26116,1,0,0:0:0:0:
256,192,26198,1,0,0:0:0:0:
256,192,26528,1,0,0:0:0:0:
256,192,26693,1,8,0:0:0:0:
256,192,26858,1,0,0:0:0:0:
256,192,26940,1,0,0:0:0:0:
256,192,27022,1,0,0:0:0:0:
256,192,27105,1,0,0:0:0:0:
256,192,27187,1,0,0:0:0:0:
256,192,27270,1,0,0:0:0:0:
256,192,27352,1,8,0:0:0:0:
256,192,27682,1,0,0:0:0:0:
256,192,27764,1,0,0:0:0:0:
256,192,27847,1,0,0:0:0:0:
256,192,28011,1,8,0:0:0:0:
256,192,28176,1,0,0:0:0:0:
256,192,28259,1,0,0:0:0:0:
256,192,28341,1,0,0:0:0:0:
256,192,28671,1,8,0:0:0:0:
256,192,28753,1,0,0:0:0:0:
256,192,28836,1,0,0:0:0:0:
256,192,29165,1,0,0:0:0:0:
256,192,29330,1,8,0:0:0:0:
256,192,29495,1,0,0:0:0:0:
256,192,29577,1,0,0:0:0:0:
256,192,29660,1,0,0:0:0:0:
256,192,29742,1,0,0:0:0:0:
256,192,29825,1,0,0:0:0:0:
256,192,29907,1,0,0:0:0:0:
256,192,29990,1,8,0:0:0:0:
256,192,30319,1,0,0:0:0:0:
256,192,30402,1,0,0:0:0:0:
256,192,30484,1,0,0:0:0:0:
256,192,30649,1,8,0:0:0:0:
256,192,30814,1,0,0:0:0:0:
256,192,31143,1,0,0:0:0:0:
256,192,31226,1,0,0:0:0:0:
256,192,31308,1,8,0:0:0:0:
256,192,31391,1,0,0:0:0:0:
256,192,31473,1,0,0:0:0:0:
256,192,31803,1,0,0:0:0:0:
256,192,31968,1,8,0:0:0:0:
256,192,32132,1,0,0:0:0:0:
256,192,32215,1,0,0:0:0:0:
256,192,32297,1,0,0:0:0:0:
256,192,32380,1,0,0:0:0:0:
256,192,32462,1,0,0:0:0:0:
256,192,32544,1,0,0:0:0:0:
256,192,32627,1,8,0:0:0:0:
256,192,32957,1,4,0:0:0:0:
256,192,33286,1,8,0:0:0:0:
256,192,33451,1,0,0:0:0:0:
256,192,33533,1,0,0:0:0:0:
256,192,33616,1,0,0:0:0:0:
256,192,33946,1,8,0:0:0:0:
256,192,34028,1,0,0:0:0:0:
256,192,34110,1,0,0:0:0:0:
256,192,34440,1,0,0:0:0:0:
256,192,34605,1,8,0:0:0:0:
256,192,34770,1,0,0:0:0:0:
256,192,34852,1,0,0:0:0:0:
256,192,34935,1,0,0:0:0:0:
256,192,35017,1,0,0:0:0:0:
256,192,35099,1,0,0:0:0:0:
256,192,35182,1,0,0:0:0:0:
256,192,35264,1,8,0:0:0:0:
256,192,35594,1,0,0:0:0:0:
256,192,35676,1,0,0:0:0:0:
256,192,35759,1,0,0:0:0:0:
256,192,35924,1,8,0:0:0:0:
256,192,36088,1,0,0:0:0:0:
256,192,36418,1,0,0:0:0:0:
256,192,36500,1,0,0:0:0:0:
256,192,36583,1,8,0:0:0:0:
256,192,36665,1,0,0:0:0:0:
256,192,36748,1,0,0:0:0:0:
256,192,37077,1,0,0:0:0:0:
256,192,37242,1,8,0:0:0:0:
256,192,37407,1,0,0:0:0:0:
256,192,37490,1,0,0:0:0:0:
256,192,37572,1,0,0:0:0:0:
256,192,37654,1,0,0:0:0:0:
256,192,37737,1,0,0:0:0:0:
256,192,37819,1,0,0:0:0:0:
256,192,37902,1,8,0:0:0:0:
256,192,37984,1,0,0:0:0:0:
256,192,38066,1,0,0:0:0:0:
256,192,38231,1,4,0:0:0:0:
256,192,38561,1,8,0:0:0:0:
256,192,38726,1,0,0:0:0:0:
256,192,38808,1,0,0:0:0:0:
256,192,38891,1,0,0:0:0:0:
256,192,39220,1,8,0:0:0:0:
256,192,39303,1,0,0:0:0:0:
256,192,39385,1,0,0:0:0:0:
256,192,39715,1,0,0:0:0:0:
256,192,39880,1,8,0:0:0:0:
256,192,40044,1,0,0:0:0:0:
256,192,40127,1,0,0:0:0:0:
256,192,40209,1,0,0:0:0:0:
256,192,40292,1,0,0:0:0:0:
256,192,40374,1,0,0:0:0:0:
256,192,40457,1,0,0:0:0:0:
256,192,40539,1,8,0:0:0:0:
256,192,40621,1,0,0:0:0:0:
256,192,40704,1,8,0:0:0:0:
256,192,40869,1,0,0:0:0:0:
256,192,40951,1,0,0:0:0:0:
256,192,41033,1,0,0:0:0:0:
256,192,41198,1,8,0:0:0:0:
256,192,41363,1,0,0:0:0:0:
256,192,41693,1,0,0:0:0:0:
256,192,41775,1,0,0:0:0:0:
256,192,41858,1,8,0:0:0:0:
256,192,41940,1,0,0:0:0:0:
256,192,42022,1,0,0:0:0:0:
256,192,42352,1,0,0:0:0:0:
256,192,42517,1,8,0:0:0:0:
256,192,42682,1,0,0:0:0:0:
256,192,42764,1,0,0:0:0:0:
256,192,42847,1,0,0:0:0:0:
256,192,42929,1,0,0:0:0:0:
256,192,43011,1,0,0:0:0:0:
256,192,43094,1,0,0:0:0:0:
256,192,43176,1,8,0:0:0:0:
256,192,43259,1,8,0:0:0:0:
256,192,43341,1,8,0:0:0:0:
256,192,43506,1,4,0:0:0:0:
256,192,43836,1,8,0:0:0:0:
256,192,44000,1,0,0:0:0:0:
256,192,44083,1,0,0:0:0:0:
256,192,44165,1,0,0:0:0:0:
256,192,44495,1,8,0:0:0:0:
256,192,44577,1,0,0:0:0:0:
256,192,44660,1,0,0:0:0:0:
256,192,44990,1,0,0:0:0:0:
256,192,45154,1,8,0:0:0:0:
256,192,45319,1,0,0:0:0:0:
256,192,45402,1,0,0:0:0:0:
256,192,45484,1,0,0:0:0:0:
256,192,45566,1,0,0:0:0:0:
256,192,45649,1,0,0:0:0:0:
256,192,45814,1,12,0:0:0:0:
256,192,46143,1,4,0:0:0:0:
256,192,46473,1,8,0:0:0:0:
256,192,46638,1,0,0:0:0:0:
256,192,46968,1,0,0:0:0:0:
256,192,47050,1,0,0:0:0:0:
256,192,47132,1,8,0:0:0:0:
256,192,47215,1,0,0:0:0:0:
256,192,47297,1,0,0:0:0:0:
256,192,47627,1,0,0:0:0:0:
256,192,47792,1,8,0:0:0:0:
256,192,47957,1,0,0:0:0:0:
256,192,48039,1,0,0:0:0:0:
256,192,48121,1,8,0:0:0:0:
256,192,48341,1,0,0:0:0:0:
256,192,48561,1,0,0:0:0:0:
256,192,49770,1,8,0:0:0:0:
256,192,49935,1,0,0:0:0:0:
256,192,50099,1,0,0:0:0:0:
256,192,50264,1,8,0:0:0:0:
256,192,50594,1,0,0:0:0:0:
256,192,50676,1,0,0:0:0:0:
256,192,50759,1,8,0:0:0:0:
256,192,51088,1,4,0:0:0:0:
256,192,51252,1,0,0:0:0:0:
256,192,51417,1,8,0:0:0:0:
256,192,51582,1,0,0:0:0:0:
256,192,51747,1,0,0:0:0:0:
256,192,51912,1,0,0:0:0:0:
256,192,52077,1,8,0:0:0:0:
256,192,52241,1,0,0:0:0:0:
256,192,52571,1,0,0:0:0:0:
256,192,52736,1,8,0:0:0:0:
256,192,52901,1,8,0:0:0:0:
256,192,53066,1,0,0:0:0:0:
256,192,53230,1,0,0:0:0:0:
256,192,53395,1,8,0:0:0:0:
256,192,53560,1,0,0:0:0:0:
256,192,53642,1,0,0:0:0:0:
256,192,53725,1,0,0:0:0:0:
256,192,53890,1,0,0:0:0:0:
256,192,54055,1,8,0:0:0:0:
256,192,54219,1,0,0:0:0:0:
256,192,54384,1,0,0:0:0:0:
256,192,54549,1,0,0:0:0:0:
256,192,54714,1,8,0:0:0:0:
256,192,54879,1,0,0:0:0:0:
256,192,55208,1,0,0:0:0:0:
256,192,55373,1,8,0:0:0:0:
256,192,55538,1,8,0:0:0:0:
256,192,55703,1,0,0:0:0:0:
256,192,55868,1,0,0:0:0:0:
256,192,56033,1,8,0:0:0:0:
256,192,56197,1,0,0:0:0:0:
256,192,56280,1,0,0:0:0:0:
256,192,56362,1,8,0:0:0:0:
256,192,56527,1,8,0:0:0:0:
256,192,56692,1,0,0:0:0:0:
256,192,56857,1,8,0:0:0:0:
256,192,57022,1,8,0:0:0:0:
256,192,57186,1,8,0:0:0:0:
256,192,57351,1,0,0:0:0:0:
256,192,57516,1,8,0:0:0:0:
256,192,57846,1,8,0:0:0:0:
256,192,58011,1,0,0:0:0:0:
256,192,58175,1,8,0:0:0:0:
256,192,58340,1,8,0:0:0:0:
256,192,58505,1,8,0:0:0:0:
256,192,58670,1,0,0:0:0:0:
256,192,58835,1,8,0:0:0:0:
256,192,58917,1,0,0:0:0:0:
256,192,59000,1,8,0:0:0:0:
256,192,59164,1,8,0:0:0:0:
256,192,59329,1,0,0:0:0:0:
256,192,59494,1,8,0:0:0:0:
256,192,59659,1,8,0:0:0:0:
256,192,59824,1,8,0:0:0:0:
256,192,59989,1,0,0:0:0:0:
256,192,60153,1,8,0:0:0:0:
256,192,60483,1,8,0:0:0:0:
256,192,60648,1,0,0:0:0:0:
256,192,60813,1,8,0:0:0:0:
256,192,60978,1,8,0:0:0:0:
256,192,61142,1,8,0:0:0:0:
256,192,61307,1,0,0:0:0:0:
256,192,61390,1,0,0:0:0:0:
256,192,61472,1,0,0:0:0:0:
256,192,61637,1,4,0:0:0:0:
256,192,61802,1,0,0:0:0:0:
256,192,61967,1,8,0:0:0:0:
256,192,62131,1,0,0:0:0:0:
256,192,62214,1,0,0:0:0:0:
256,192,62296,1,0,0:0:0:0:
256,192,62461,1,0,0:0:0:0:
256,192,62626,1,8,0:0:0:0:
256,192,62791,1,0,0:0:0:0:
256,192,63120,1,0,0:0:0:0:
256,192,63285,1,8,0:0:0:0:
256,192,63450,1,8,0:0:0:0:
256,192,63615,1,0,0:0:0:0:
256,192,63697,1,0,0:0:0:0:
256,192,63780,1,0,0:0:0:0:
256,192,63945,1,8,0:0:0:0:
256,192,64109,1,0,0:0:0:0:
256,192,64192,1,0,0:0:0:0:
256,192,64274,1,0,0:0:0:0:
256,192,64439,1,0,0:0:0:0:
256,192,64604,1,8,0:0:0:0:
256,192,64769,1,0,0:0:0:0:
256,192,64851,1,0,0:0:0:0:
256,192,64934,1,0,0:0:0:0:
256,192,65098,1,0,0:0:0:0:
256,192,65263,1,8,0:0:0:0:
256,192,65428,1,0,0:0:0:0:
256,192,65758,1,0,0:0:0:0:
256,192,65923,1,8,0:0:0:0:
256,192,66088,1,8,0:0:0:0:
256,192,66252,1,0,0:0:0:0:
256,192,66335,1,0,0:0:0:0:
256,192,66417,1,0,0:0:0:0:
256,192,66582,1,8,0:0:0:0:
256,192,66747,1,0,0:0:0:0:
256,192,66829,1,0,0:0:0:0:
256,192,66912,1,8,0:0:0:0:
256,192,67077,1,8,0:0:0:0:
256,192,67241,1,0,0:0:0:0:
256,192,67406,1,8,0:0:0:0:
256,192,67489,1,8,0:0:0:0:
256,192,67571,1,8,0:0:0:0:
256,192,67736,1,8,0:0:0:0:
256,192,67901,1,0,0:0:0:0:
256,192,68066,1,8,0:0:0:0:
256,192,68395,1,8,0:0:0:0:
256,192,68560,1,0,0:0:0:0:
256,192,68725,1,8,0:0:0:0:
256,192,68807,1,8,0:0:0:0:
256,192,68890,1,0,0:0:0:0:
256,192,69055,1,0,0:0:0:0:
256,192,69219,1,12,0:0:0:0:
256,192,69384,1,0,0:0:0:0:
256,192,69467,1,0,0:0:0:0:
256,192,69549,1,8,0:0:0:0:
256,192,69714,1,0,0:0:0:0:
256,192,69879,1,0,0:0:0:0:
256,192,70044,1,0,0:0:0:0:
256,192,70208,1,8,0:0:0:0:
256,192,70373,1,0,0:0:0:0:
256,192,70538,1,8,0:0:0:0:
256,192,70703,1,0,0:0:0:0:
256,192,70785,1,0,0:0:0:0:
256,192,70868,1,8,0:0:0:0:
256,192,70950,1,0,0:0:0:0:
256,192,71033,1,8,0:0:0:0:
256,192,71197,1,0,0:0:0:0:
256,192,71362,1,0,0:0:0:0:
256,192,71527,1,0,0:0:0:0:
256,192,71692,1,0,0:0:0:0:
256,192,71857,1,0,0:0:0:0:
256,192,72022,1,0,0:0:0:0:
256,192,72186,1,4,0:0:0:0:
256,192,72516,1,0,0:0:0:0:
256,192,72681,1,8,0:0:0:0:
256,192,73011,1,0,0:0:0:0:
256,192,73175,1,8,0:0:0:0:
256,192,73505,1,0,0:0:0:0:
256,192,73835,1,12,0:0:0:0:
256,192,74164,1,0,0:0:0:0:
256,192,74329,1,8,0:0:0:0:
256,192,74659,1,0,0:0:0:0:
256,192,74824,1,8,0:0:0:0:
256,192,74987,1,0,0:0:0:0:
256,192,75071,1,0,0:0:0:0:
256,192,75153,1,8,0:0:0:0:
256,192,75318,1,0,0:0:0:0:
256,192,75483,1,8,0:0:0:0:
256,192,75648,1,0,0:0:0:0:
256,192,75813,1,12,0:0:0:0:
256,192,75976,1,0,0:0:0:0:
256,192,76060,1,0,0:0:0:0:
256,192,76142,1,0,0:0:0:0:
256,192,76307,1,12,0:0:0:0:
256,192,76472,1,0,0:0:0:0:
256,192,76553,1,0,0:0:0:0:
256,192,76637,1,0,0:0:0:0:
256,192,76802,1,12,0:0:0:0:
256,192,76965,1,0,0:0:0:0:
256,192,77049,1,0,0:0:0:0:
256,192,77131,1,0,0:0:0:0:
256,192,77461,1,8,0:0:0:0:
256,192,77954,1,8,0:0:0:0:
256,192,78450,1,8,0:0:0:0:
256,192,78615,1,0,0:0:0:0:
256,192,78670,1,0,0:0:0:0:
256,192,78725,1,0,0:0:0:0:
256,192,78780,1,8,0:0:0:0:
256,192,79109,1,4,0:0:0:0:
256,192,79356,1,0,0:0:0:0:
256,192,79438,1,8,0:0:0:0:
256,192,79603,1,0,0:0:0:0:
256,192,79685,1,0,0:0:0:0:
256,192,79768,1,0,0:0:0:0:
256,192,79933,1,0,0:0:0:0:
256,192,80015,1,0,0:0:0:0:
256,192,80098,1,8,0:0:0:0:
256,192,80262,1,8,0:0:0:0:
256,192,80427,1,0,0:0:0:0:
256,192,80674,1,0,0:0:0:0:
256,192,80757,1,8,0:0:0:0:
256,192,80922,1,0,0:0:0:0:
256,192,81004,1,0,0:0:0:0:
256,192,81087,1,0,0:0:0:0:
256,192,81251,1,0,0:0:0:0:
256,192,81416,1,8,0:0:0:0:
256,192,81581,1,0,0:0:0:0:
256,192,81746,1,0,0:0:0:0:
256,192,81993,1,0,0:0:0:0:
256,192,82076,1,8,0:0:0:0:
256,192,82240,1,0,0:0:0:0:
256,192,82323,1,0,0:0:0:0:
256,192,82405,1,0,0:0:0:0:
256,192,82570,1,0,0:0:0:0:
256,192,82652,1,0,0:0:0:0:
256,192,82735,1,8,0:0:0:0:
256,192,82900,1,0,0:0:0:0:
256,192,83229,1,0,0:0:0:0:
256,192,83394,1,8,0:0:0:0:
256,192,83559,1,8,0:0:0:0:
256,192,83724,1,0,0:0:0:0:
256,192,83806,1,0,0:0:0:0:
256,192,83889,1,0,0:0:0:0:
256,192,83971,1,0,0:0:0:0:
256,192,84054,1,8,0:0:0:0:
256,192,84218,1,8,0:0:0:0:
256,192,84383,1,4,0:0:0:0:
256,192,84630,1,0,0:0:0:0:
256,192,84713,1,8,0:0:0:0:
256,192,84878,1,0,0:0:0:0:
256,192,84960,1,0,0:0:0:0:
256,192,85043,1,0,0:0:0:0:
256,192,85207,1,0,0:0:0:0:
256,192,85290,1,0,0:0:0:0:
256,192,85372,1,8,0:0:0:0:
256,192,85537,1,8,0:0:0:0:
256,192,85702,1,0,0:0:0:0:
256,192,85949,1,0,0:0:0:0:
256,192,86032,1,8,0:0:0:0:
256,192,86196,1,0,0:0:0:0:
256,192,86279,1,0,0:0:0:0:
256,192,86361,1,0,0:0:0:0:
256,192,86526,1,0,0:0:0:0:
256,192,86691,1,8,0:0:0:0:
256,192,86856,1,0,0:0:0:0:
256,192,87021,1,8,0:0:0:0:
256,192,87268,1,0,0:0:0:0:
256,192,87350,1,8,0:0:0:0:
256,192,87515,1,0,0:0:0:0:
256,192,87598,1,0,0:0:0:0:
256,192,87680,1,0,0:0:0:0:
256,192,87845,1,0,0:0:0:0:
256,192,87927,1,0,0:0:0:0:
256,192,88010,1,8,0:0:0:0:
256,192,88174,1,0,0:0:0:0:
256,192,88504,1,0,0:0:0:0:
256,192,88669,1,8,0:0:0:0:
256,192,88834,1,8,0:0:0:0:
256,192,88999,1,0,0:0:0:0:
256,192,89081,1,8,0:0:0:0:
256,192,89163,1,0,0:0:0:0:
256,192,89246,1,0,0:0:0:0:
256,192,89328,1,8,0:0:0:0:
256,192,89411,1,8,0:0:0:0:
256,192,89493,1,8,0:0:0:0:
256,192,89658,1,4,0:0:0:0:
256,192,89905,1,0,0:0:0:0:
256,192,89988,1,8,0:0:0:0:
256,192,90152,1,0,0:0:0:0:
256,192,90235,1,0,0:0:0:0:
256,192,90317,1,0,0:0:0:0:
256,192,90482,1,0,0:0:0:0:
256,192,90565,1,0,0:0:0:0:
256,192,90647,1,8,0:0:0:0:
256,192,90812,1,8,0:0:0:0:
256,192,90977,1,0,0:0:0:0:
256,192,91224,1,0,0:0:0:0:
256,192,91306,1,8,0:0:0:0:
256,192,91471,1,0,0:0:0:0:
256,192,91554,1,0,0:0:0:0:
256,192,91636,1,0,0:0:0:0:
256,192,91801,1,0,0:0:0:0:
256,192,91966,1,8,0:0:0:0:
256,192,92130,1,0,0:0:0:0:
256,192,92295,1,0,0:0:0:0:
256,192,92543,1,0,0:0:0:0:
256,192,92625,1,8,0:0:0:0:
256,192,92790,1,0,0:0:0:0:
256,192,92872,1,0,0:0:0:0:
256,192,92955,1,0,0:0:0:0:
256,192,93119,1,0,0:0:0:0:
256,192,93202,1,0,0:0:0:0:
256,192,93284,1,8,0:0:0:0:
256,192,93449,1,0,0:0:0:0:
256,192,93779,1,0,0:0:0:0:
256,192,93944,1,8,0:0:0:0:
256,192,94109,1,8,0:0:0:0:
256,192,94191,1,8,0:0:0:0:
256,192,94273,1,0,0:0:0:0:
256,192,94356,1,0,0:0:0:0:
256,192,94438,1,0,0:0:0:0:
256,192,94521,1,0,0:0:0:0:
256,192,94603,1,8,0:0:0:0:
256,192,94768,1,8,0:0:0:0:
256,192,94933,1,4,0:0:0:0:
256,192,95180,1,0,0:0:0:0:
256,192,95262,1,8,0:0:0:0:
256,192,95427,1,0,0:0:0:0:
256,192,95510,1,0,0:0:0:0:
256,192,95592,1,0,0:0:0:0:
256,192,95757,1,0,0:0:0:0:
256,192,95839,1,0,0:0:0:0:
256,192,95922,1,8,0:0:0:0:
256,192,96087,1,8,0:0:0:0:
256,192,96251,1,0,0:0:0:0:
256,192,96499,1,0,0:0:0:0:
256,192,96581,1,8,0:0:0:0:
256,192,96746,1,0,0:0:0:0:
256,192,96828,1,0,0:0:0:0:
256,192,96911,1,0,0:0:0:0:
256,192,97076,1,0,0:0:0:0:
256,192,97158,1,0,0:0:0:0:
256,192,97240,1,8,0:0:0:0:
256,192,97323,1,8,0:0:0:0:
256,192,97405,1,8,0:0:0:0:
256,192,97570,1,4,0:0:0:0:
256,192,97817,1,0,0:0:0:0:
256,192,97900,1,8,0:0:0:0:
256,192,98065,1,0,0:0:0:0:
256,192,98147,1,0,0:0:0:0:
256,192,98229,1,0,0:0:0:0:
256,192,98394,1,0,0:0:0:0:
256,192,98477,1,0,0:0:0:0:
256,192,98559,1,8,0:0:0:0:
256,192,98724,1,0,0:0:0:0:
256,192,98889,1,0,0:0:0:0:
256,192,98971,1,0,0:0:0:0:
256,192,99054,1,0,0:0:0:0:
256,192,99218,1,8,0:0:0:0:
256,192,99383,1,0,0:0:0:0:
256,192,99548,1,8,0:0:0:0:
256,192,99630,1,8,0:0:0:0:
256,192,99713,1,8,0:0:0:0:
256,192,99795,1,8,0:0:0:0:
256,192,99878,1,0,0:0:0:0:
256,192,99960,1,0,0:0:0:0:
256,192,100043,1,0,0:0:0:0:
256,192,100207,1,4,0:0:0:0:
256,192,100537,1,8,0:0:0:0:
256,192,100702,1,0,0:0:0:0:
256,192,100784,1,0,0:0:0:0:
256,192,100867,1,0,0:0:0:0:
256,192,101196,1,8,0:0:0:0:
256,192,101279,1,0,0:0:0:0:
256,192,101361,1,0,0:0:0:0:
256,192,101691,1,0,0:0:0:0:
256,192,101856,1,8,0:0:0:0:
256,192,102021,1,0,0:0:0:0:
256,192,102103,1,0,0:0:0:0:
256,192,102185,1,0,0:0:0:0:
256,192,102268,1,0,0:0:0:0:
256,192,102350,1,0,0:0:0:0:
256,192,102433,1,0,0:0:0:0:
256,192,102515,1,8,0:0:0:0:
256,192,102680,1,8,0:0:0:0:
256,192,102845,1,0,0:0:0:0:
256,192,102927,1,0,0:0:0:0:
256,192,103010,1,0,0:0:0:0:
256,192,103174,1,8,0:0:0:0:
256,192,103339,1,0,0:0:0:0:
256,192,103669,1,0,0:0:0:0:
256,192,103751,1,0,0:0:0:0:
256,192,103834,1,8,0:0:0:0:
256,192,103916,1,0,0:0:0:0:
256,192,103999,1,0,0:0:0:0:
256,192,104328,1,0,0:0:0:0:
256,192,104493,1,8,0:0:0:0:
256,192,104658,1,0,0:0:0:0:
256,192,104740,1,0,0:0:0:0:
256,192,104823,1,0,0:0:0:0:
256,192,104905,1,0,0:0:0:0:
256,192,104988,1,0,0:0:0:0:
256,192,105070,1,0,0:0:0:0:
256,192,105152,1,8,0:0:0:0:
256,192,105317,1,8,0:0:0:0:
256,192,105482,1,0,0:0:0:0:
256,192,105565,1,0,0:0:0:0:
256,192,105647,1,0,0:0:0:0:
256,192,105812,1,8,0:0:0:0:
256,192,105977,1,0,0:0:0:0:
256,192,106059,1,0,0:0:0:0:
256,192,106141,1,0,0:0:0:0:
256,192,106471,1,8,0:0:0:0:
256,192,106554,1,0,0:0:0:0:
256,192,106636,1,0,0:0:0:0:
256,192,106966,1,0,0:0:0:0:
256,192,107130,1,8,0:0:0:0:
256,192,107295,1,0,0:0:0:0:
256,192,107378,1,0,0:0:0:0:
256,192,107460,1,0,0:0:0:0:
256,192,107543,1,0,0:0:0:0:
256,192,107625,1,0,0:0:0:0:
256,192,107707,1,0,0:0:0:0:
256,192,107790,1,8,0:0:0:0:
256,192,108119,1,0,0:0:0:0:
256,192,108202,1,0,0:0:0:0:
256,192,108284,1,0,0:0:0:0:
256,192,108449,1,8,0:0:0:0:
256,192,108614,1,0,0:0:0:0:
256,192,108944,1,0,0:0:0:0:
256,192,109026,1,0,0:0:0:0:
256,192,109109,1,8,0:0:0:0:
256,192,109191,1,0,0:0:0:0:
256,192,109273,1,0,0:0:0:0:
256,192,109603,1,0,0:0:0:0:
256,192,109768,1,8,0:0:0:0:
256,192,109933,1,0,0:0:0:0:
256,192,110015,1,0,0:0:0:0:
256,192,110098,1,0,0:0:0:0:
256,192,110180,1,0,0:0:0:0:
256,192,110262,1,0,0:0:0:0:
256,192,110345,1,0,0:0:0:0:
256,192,110427,1,8,0:0:0:0:
256,192,110757,1,4,0:0:0:0:
256,192,111087,1,8,0:0:0:0:
256,192,111251,1,0,0:0:0:0:
256,192,111334,1,0,0:0:0:0:
256,192,111416,1,8,0:0:0:0:
256,192,111581,1,0,0:0:0:0:
256,192,111746,1,8,0:0:0:0:
256,192,111828,1,0,0:0:0:0:
256,192,111911,1,0,0:0:0:0:
256,192,112076,1,8,0:0:0:0:
256,192,112240,1,0,0:0:0:0:
256,192,112405,1,8,0:0:0:0:
256,192,112570,1,0,0:0:0:0:
256,192,112652,1,0,0:0:0:0:
256,192,112735,1,8,0:0:0:0:
256,192,112817,1,0,0:0:0:0:
256,192,112900,1,0,0:0:0:0:
256,192,112982,1,0,0:0:0:0:
256,192,113065,1,8,0:0:0:0:
256,192,113394,1,8,0:0:0:0:
256,192,113477,1,0,0:0:0:0:
256,192,113559,1,0,0:0:0:0:
256,192,113724,1,8,0:0:0:0:
256,192,113889,1,0,0:0:0:0:
256,192,113971,1,0,0:0:0:0:
256,192,114054,1,8,0:0:0:0:
256,192,114218,1,0,0:0:0:0:
256,192,114383,1,8,0:0:0:0:
256,192,114466,1,0,0:0:0:0:
256,192,114548,1,0,0:0:0:0:
256,192,114713,1,8,0:0:0:0:
256,192,114878,1,0,0:0:0:0:
256,192,115043,1,8,0:0:0:0:
256,192,115207,1,0,0:0:0:0:
256,192,115290,1,0,0:0:0:0:
256,192,115372,1,8,0:0:0:0:
256,192,115455,1,8,0:0:0:0:
256,192,115537,1,0,0:0:0:0:
256,192,115619,1,0,0:0:0:0:
256,192,115702,1,8,0:0:0:0:
256,192,115784,1,0,0:0:0:0:
256,192,115867,1,0,0:0:0:0:
256,192,116032,1,4,0:0:0:0:
256,192,116361,1,8,0:0:0:0:
256,192,116526,1,0,0:0:0:0:
256,192,116609,1,0,0:0:0:0:
256,192,116691,1,8,0:0:0:0:
256,192,116856,1,0,0:0:0:0:
256,192,117021,1,8,0:0:0:0:
256,192,117103,1,0,0:0:0:0:
256,192,117185,1,0,0:0:0:0:
256,192,117350,1,8,0:0:0:0:
256,192,117515,1,0,0:0:0:0:
256,192,117680,1,8,0:0:0:0:
256,192,117845,1,0,0:0:0:0:
256,192,117927,1,0,0:0:0:0:
256,192,118010,1,8,0:0:0:0:
256,192,118092,1,0,0:0:0:0:
256,192,118174,1,0,0:0:0:0:
256,192,118339,1,12,0:0:0:0:
256,192,118669,1,4,0:0:0:0:
256,192,118999,1,8,0:0:0:0:
256,192,119163,1,0,0:0:0:0:
256,192,119246,1,0,0:0:0:0:
256,192,119328,1,8,0:0:0:0:
256,192,119493,1,0,0:0:0:0:
256,192,119658,1,0,0:0:0:0:
256,192,119823,1,12,0:0:0:0:
256,192,120152,1,0,0:0:0:0:
256,192,120317,1,0,0:0:0:0:
256,192,120400,1,0,0:0:0:0:
256,192,120482,1,0,0:0:0:0:
256,192,120565,1,0,0:0:0:0:
256,192,120647,1,8,0:0:0:0:
256,192,120812,1,8,0:0:0:0:
256,192,120977,1,8,0:0:0:0:
256,192,121141,1,8,0:0:0:0:
256,192,121306,1,4,0:0:0:0:
256,192,121636,1,8,0:0:0:0:
256,192,121801,1,0,0:0:0:0:
256,192,122130,1,0,0:0:0:0:
256,192,122295,1,8,0:0:0:0:
256,192,122460,1,8,0:0:0:0:
256,192,122625,1,0,0:0:0:0:
256,192,122872,1,0,0:0:0:0:
256,192,122955,1,8,0:0:0:0:
256,192,123119,1,0,0:0:0:0:
256,192,123449,1,0,0:0:0:0:
256,192,123614,1,8,0:0:0:0:
256,192,123779,1,0,0:0:0:0:
256,192,123944,1,0,0:0:0:0:
256,192,124191,1,0,0:0:0:0:
256,192,124273,1,8,0:0:0:0:
256,192,124438,1,0,0:0:0:0:
256,192,124768,1,0,0:0:0:0:
256,192,124933,1,8,0:0:0:0:
256,192,125098,1,0,0:0:0:0:
256,192,125427,1,0,0:0:0:0:
256,192,125592,1,8,0:0:0:0:
256,192,125757,1,8,0:0:0:0:
256,192,125922,1,0,0:0:0:0:
256,192,126004,1,0,0:0:0:0:
256,192,126087,1,0,0:0:0:0:
256,192,126251,1,8,0:0:0:0:
256,192,126416,1,0,0:0:0:0:
256,192,126581,1,4,0:0:0:0:
256,192,126828,1,0,0:0:0:0:
256,192,126911,1,8,0:0:0:0:
256,192,127076,1,0,0:0:0:0:
256,192,127405,1,0,0:0:0:0:
256,192,127570,1,8,0:0:0:0:
256,192,127735,1,8,0:0:0:0:
256,192,127900,1,0,0:0:0:0:
256,192,128147,1,0,0:0:0:0:
256,192,128229,1,8,0:0:0:0:
256,192,128394,1,0,0:0:0:0:
256,192,128724,1,0,0:0:0:0:
256,192,128889,1,8,0:0:0:0:
256,192,129054,1,0,0:0:0:0:
256,192,129218,1,8,0:0:0:0:
256,192,129466,1,0,0:0:0:0:
256,192,129548,1,8,0:0:0:0:
256,192,129713,1,0,0:0:0:0:
256,192,130043,1,0,0:0:0:0:
256,192,130207,1,8,0:0:0:0:
256,192,130372,1,0,0:0:0:0:
256,192,130702,1,0,0:0:0:0:
256,192,130867,1,8,0:0:0:0:
256,192,131032,1,8,0:0:0:0:
256,192,131196,1,0,0:0:0:0:
256,192,131279,1,0,0:0:0:0:
256,192,131361,1,8,0:0:0:0:
256,192,131526,1,0,0:0:0:0:
256,192,131691,1,12,0:0:0:0:
256,192,131856,1,4,0:0:0:0:
256,192,132103,1,0,0:0:0:0:
256,192,132185,1,8,0:0:0:0:
256,192,132350,1,0,0:0:0:0:
256,192,132680,1,0,0:0:0:0:
256,192,132845,1,8,0:0:0:0:
256,192,133010,1,8,0:0:0:0:
256,192,133174,1,0,0:0:0:0:
256,192,133422,1,0,0:0:0:0:
256,192,133504,1,8,0:0:0:0:
256,192,133669,1,0,0:0:0:0:
256,192,133999,1,0,0:0:0:0:
256,192,134163,1,8,0:0:0:0:
256,192,134328,1,0,0:0:0:0:
256,192,134493,1,0,0:0:0:0:
256,192,134740,1,0,0:0:0:0:
256,192,134823,1,8,0:0:0:0:
256,192,134988,1,0,0:0:0:0:
256,192,135317,1,0,0:0:0:0:
256,192,135482,1,8,0:0:0:0:
256,192,135647,1,0,0:0:0:0:
256,192,135977,1,0,0:0:0:0:
256,192,136141,1,8,0:0:0:0:
256,192,136306,1,8,0:0:0:0:
256,192,136471,1,0,0:0:0:0:
256,192,136554,1,0,0:0:0:0:
256,192,136636,1,0,0:0:0:0:
256,192,136718,1,0,0:0:0:0:
256,192,136801,1,8,0:0:0:0:
256,192,136883,1,8,0:0:0:0:
256,192,136966,1,8,0:0:0:0:
256,192,137130,1,4,0:0:0:0:
256,192,137378,1,0,0:0:0:0:
256,192,137460,1,8,0:0:0:0:
256,192,137625,1,0,0:0:0:0:
256,192,137955,1,0,0:0:0:0:
256,192,138119,1,8,0:0:0:0:
256,192,138284,1,8,0:0:0:0:
256,192,138449,1,0,0:0:0:0:
256,192,138696,1,0,0:0:0:0:
256,192,138779,1,8,0:0:0:0:
256,192,138944,1,0,0:0:0:0:
256,192,139109,1,0,0:0:0:0:
256,192,139273,1,8,0:0:0:0:
256,192,139438,1,0,0:0:0:0:
256,192,139603,1,8,0:0:0:0:
256,192,139768,1,4,0:0:0:0:
256,192,140015,1,0,0:0:0:0:
256,192,140098,1,8,0:0:0:0:
256,192,140262,1,0,0:0:0:0:
256,192,140427,1,8,0:0:0:0:
256,192,140592,1,0,0:0:0:0:
256,192,140922,1,4,0:0:0:0:
256,192,141251,1,0,0:0:0:0:
256,192,141416,1,8,0:0:0:0:
256,192,141581,1,0,0:0:0:0:
256,192,141746,1,8,0:0:0:0:
256,192,141828,1,8,0:0:0:0:
256,192,141911,1,8,0:0:0:0:
256,192,141993,1,8,0:0:0:0:
256,192,142076,1,0,0:0:0:0:
256,192,142158,1,0,0:0:0:0:
256,192,142240,1,0,0:0:0:0:
256,192,142405,1,4,0:0:0:0:
256,192,142734,1,0,0:0:0:0:
256,192,142899,1,8,0:0:0:0:
256,192,143229,1,0,0:0:0:0:
256,192,143311,1,0,0:0:0:0:
256,192,143394,1,8,0:0:0:0:
256,192,143723,1,0,0:0:0:0:
256,192,143806,1,0,0:0:0:0:
256,192,143888,1,0,0:0:0:0:
256,192,143970,1,0,0:0:0:0:
256,192,144053,1,0,0:0:0:0:
256,192,144218,1,0,0:0:0:0:
256,192,144383,1,8,0:0:0:0:
256,192,144547,1,0,0:0:0:0:
256,192,144630,1,0,0:0:0:0:
256,192,144712,1,0,0:0:0:0:
256,192,144877,1,8,0:0:0:0:
256,192,145042,1,0,0:0:0:0:
256,192,145124,1,0,0:0:0:0:
256,192,145207,1,0,0:0:0:0:
256,192,145372,1,8,0:0:0:0:
256,192,145536,1,0,0:0:0:0:
256,192,145619,1,0,0:0:0:0:
256,192,145701,1,0,0:0:0:0:
256,192,145784,1,0,0:0:0:0:
256,192,145866,1,8,0:0:0:0:
256,192,146031,1,0,0:0:0:0:
256,192,146113,1,0,0:0:0:0:
256,192,146196,1,0,0:0:0:0:
256,192,146278,1,0,0:0:0:0:
256,192,146361,1,8,0:0:0:0:
256,192,146415,1,8,0:0:0:0:
256,192,146470,1,8,0:0:0:0:
256,192,146525,1,0,0:0:0:0:
256,192,146690,1,12,0:0:0:0:
256,192,147020,1,8,0:0:0:0:
256,192,147185,1,8,0:0:0:0:
256,192,147350,1,8,0:0:0:0:
256,192,147514,1,12,0:0:0:0:
256,192,147844,1,0,0:0:0:0:
256,192,148009,1,8,0:0:0:0:
256,192,148174,1,8,0:0:0:0:
256,192,148339,1,0,0:0:0:0:
256,192,148503,1,12,0:0:0:0:
256,192,148833,1,0,0:0:0:0:
256,192,148998,1,8,0:0:0:0:
256,192,149080,1,0,0:0:0:0:
256,192,149163,1,0,0:0:0:0:
256,192,149328,1,8,0:0:0:0:
256,192,149492,1,8,0:0:0:0:
256,192,149657,1,4,0:0:0:0:
256,192,149986,1,0,0:0:0:0:
256,192,150151,1,8,0:0:0:0:
256,192,150481,1,0,0:0:0:0:
256,192,150563,1,0,0:0:0:0:
256,192,150646,1,8,0:0:0:0:
256,192,150975,1,8,0:0:0:0:
256,192,151305,1,4,0:0:0:0:
256,192,151469,1,8,0:0:0:0:
256,192,151552,1,8,0:0:0:0:
256,192,151634,1,8,0:0:0:0:
256,192,151799,1,0,0:0:0:0:
256,192,151964,1,8,0:0:0:0:
256,192,152046,1,8,0:0:0:0:
256,192,152129,1,8,0:0:0:0:
256,192,152294,1,0,0:0:0:0:
256,192,152458,1,8,0:0:0:0:
256,192,152541,1,8,0:0:0:0:
256,192,152623,1,8,0:0:0:0:
256,192,152706,1,8,0:0:0:0:
256,192,152788,1,0,0:0:0:0:
256,192,152953,1,8,0:0:0:0:
256,192,153035,1,8,0:0:0:0:
256,192,153118,1,8,0:0:0:0:
256,192,153200,1,8,0:0:0:0:
256,192,153283,1,0,0:0:0:0:
256,192,153447,1,0,0:0:0:0:
256,192,153502,1,0,0:0:0:0:
256,192,153557,1,0,0:0:0:0:
256,192,153612,1,0,0:0:0:0:
256,192,153777,1,0,0:0:0:0:
256,192,153942,1,8,0:0:0:0:
256,192,154024,1,8,0:0:0:0:
256,192,154107,1,8,0:0:0:0:
256,192,154189,1,8,0:0:0:0:
256,192,154272,1,0,0:0:0:0:
256,192,154354,1,0,0:0:0:0:
256,192,154436,1,0,0:0:0:0:
256,192,154601,1,4,0:0:0:0:
256,192,154931,1,0,0:0:0:0:
256,192,155096,1,8,0:0:0:0:
256,192,155425,1,0,0:0:0:0:
256,192,155508,1,0,0:0:0:0:
256,192,155590,1,8,0:0:0:0:
256,192,155755,1,0,0:0:0:0:
256,192,155920,1,8,0:0:0:0:
256,192,156250,1,0,0:0:0:0:
256,192,156579,1,4,0:0:0:0:
256,192,156744,1,0,0:0:0:0:
256,192,156826,1,0,0:0:0:0:
256,192,156909,1,0,0:0:0:0:
256,192,157074,1,8,0:0:0:0:
256,192,157156,1,8,0:0:0:0:
256,192,157239,1,0,0:0:0:0:
256,192,157321,1,0,0:0:0:0:
256,192,157403,1,0,0:0:0:0:
256,192,157568,1,4,0:0:0:0:
256,192,157733,1,0,0:0:0:0:
256,192,157815,1,0,0:0:0:0:
256,192,157898,1,0,0:0:0:0:
256,192,158063,1,4,0:0:0:0:
256,192,158228,1,0,0:0:0:0:
256,192,158310,1,0,0:0:0:0:
256,192,158392,1,0,0:0:0:0:
256,192,158475,1,0,0:0:0:0:
256,192,158557,1,8,0:0:0:0:
256,192,158640,1,8,0:0:0:0:
256,192,158722,1,0,0:0:0:0:
256,192,158805,1,8,0:0:0:0:
256,192,158887,1,8,0:0:0:0:
256,192,158969,1,0,0:0:0:0:
256,192,159052,1,8,0:0:0:0:
256,192,159134,1,8,0:0:0:0:
256,192,159217,1,0,0:0:0:0:
256,192,159381,1,0,0:0:0:0:
256,192,159546,1,0,0:0:0:0:
256,192,159711,1,8,0:0:0:0:
256,192,160041,1,0,0:0:0:0:
256,192,160123,1,0,0:0:0:0:
256,192,160206,1,0,0:0:0:0:
256,192,160370,1,0,0:0:0:0:
256,192,160535,1,0,0:0:0:0:
256,192,160700,1,8,0:0:0:0:
256,192,160865,1,0,0:0:0:0:
256,192,160975,1,8,0:0:0:0:
256,192,161085,1,8,0:0:0:0:
256,192,161195,1,0,0:0:0:0:
256,192,161305,1,8,0:0:0:0:
256,192,161414,1,0,0:0:0:0:
256,192,161524,1,0,0:0:0:0:
256,192,161689,1,0,0:0:0:0:
256,192,161854,1,4,0:0:0:0:
256,192,162183,1,0,0:0:0:0:
256,192,162348,1,8,0:0:0:0:
256,192,162678,1,0,0:0:0:0:
256,192,162843,1,8,0:0:0:0:
256,192,163062,1,0,0:0:0:0:
256,192,163282,1,0,0:0:0:0:
256,192,163502,1,4,0:0:0:0:
256,192,163666,1,8,0:0:0:0:
256,192,163749,1,8,0:0:0:0:
256,192,163831,1,8,0:0:0:0:
256,192,163996,1,4,0:0:0:0:
256,192,164161,1,8,0:0:0:0:
256,192,164243,1,8,0:0:0:0:
256,192,164326,1,8,0:0:0:0:
256,192,164491,1,4,0:0:0:0:
256,192,164655,1,0,0:0:0:0:
256,192,164738,1,0,0:0:0:0:
256,192,164820,1,8,0:0:0:0:
256,192,164903,1,0,0:0:0:0:
256,192,164985,1,0,0:0:0:0:
256,192,165067,1,0,0:0:0:0:
256,192,165150,1,0,0:0:0:0:
256,192,165232,1,0,0:0:0:0:
256,192,165315,1,0,0:0:0:0:
256,192,165397,1,0,0:0:0:0:
256,192,165480,1,8,0:0:0:0:
256,192,165644,1,8,0:0:0:0:
256,192,165809,1,8,0:0:0:0:
256,192,165974,1,8,0:0:0:0:
256,192,166139,1,4,0:0:0:0:
256,192,166304,1,0,0:0:0:0:
256,192,166386,1,0,0:0:0:0:
256,192,166469,1,0,0:0:0:0:
256,192,166633,1,12,0:0:0:0:
256,192,166798,1,8,0:0:0:0:
256,192,166881,1,8,0:0:0:0:
256,192,166963,1,8,0:0:0:0:
256,192,167128,1,4,0:0:0:0:
256,192,167293,1,8,0:0:0:0:
256,192,167375,1,8,0:0:0:0:
256,192,167458,1,8,0:0:0:0:
256,192,167622,1,12,0:0:0:0:
256,192,167787,1,0,0:0:0:0:
256,192,167870,1,0,0:0:0:0:
256,192,167952,1,0,0:0:0:0:
256,192,168117,1,8,0:0:0:0:
256,192,168172,1,0,0:0:0:0:
256,192,168227,1,0,0:0:0:0:
256,192,168282,1,0,0:0:0:0:
256,192,168447,1,12,0:0:0:0:
256,192,168611,1,0,0:0:0:0:
256,192,168694,1,0,0:0:0:0:
256,192,168776,1,8,0:0:0:0:
256,192,168941,1,0,0:0:0:0:
256,192,169106,1,0,0:0:0:0:
256,192,169271,1,8,0:0:0:0:
256,192,169436,1,0,0:0:0:0:
256,192,169600,1,12,0:0:0:0:
256,192,169765,1,0,0:0:0:0:
256,192,169930,1,0,0:0:0:0:
256,192,170095,1,12,0:0:0:0:
256,192,170260,1,0,0:0:0:0:
256,192,170425,1,12,0:0:0:0:
256,192,170589,1,0,0:0:0:0:
256,192,170754,1,0,0:0:0:0:
256,192,170837,1,0,0:0:0:0:
256,192,170919,1,0,0:0:0:0:
256,192,171002,1,0,0:0:0:0:
256,192,171084,1,8,0:0:0:0:
256,192,171249,1,0,0:0:0:0:
256,192,171414,1,12,0:0:0:0:
256,192,171578,1,0,0:0:0:0:
256,192,171661,1,0,0:0:0:0:
256,192,171743,1,0,0:0:0:0:
256,192,171908,1,12,0:0:0:0:
256,192,172073,1,0,0:0:0:0:
256,192,172155,1,0,0:0:0:0:
256,192,172238,1,0,0:0:0:0:
256,192,172403,1,12,0:0:0:0:
256,192,172567,1,0,0:0:0:0:
256,192,172650,1,0,0:0:0:0:
256,192,172732,1,0,0:0:0:0:
256,192,172897,1,12,0:0:0:0:
256,192,173062,1,0,0:0:0:0:
256,192,173144,1,0,0:0:0:0:
256,192,173227,1,0,0:0:0:0:
256,192,173392,1,12,0:0:0:0:
256,192,173556,1,0,0:0:0:0:
256,192,173639,1,0,0:0:0:0:
256,192,173721,1,8,0:0:0:0:
256,192,173886,1,0,0:0:0:0:
256,192,174051,1,12,0:0:0:0:
256,192,174216,1,0,0:0:0:0:
256,192,174298,1,0,0:0:0:0:
256,192,174381,1,0,0:0:0:0:
256,192,174545,1,12,0:0:0:0:
256,192,174710,1,0,0:0:0:0:
256,192,174793,1,0,0:0:0:0:
256,192,174875,1,0,0:0:0:0:
256,192,175040,1,8,0:0:0:0:
256,192,175095,1,0,0:0:0:0:
256,192,175150,1,0,0:0:0:0:
256,192,175205,1,0,0:0:0:0:
256,192,175370,1,12,0:0:0:0:
256,192,176029,1,8,0:0:0:0:
256,192,176359,1,8,0:0:0:0:
256,192,176688,1,4,0:0:0:0:
256,192,176853,1,0,0:0:0:0:
256,192,176936,1,0,0:0:0:0:
256,192,177018,1,8,0:0:0:0:
256,192,177348,1,0,0:0:0:0:
256,192,177430,1,0,0:0:0:0:
256,192,177512,1,0,0:0:0:0:
256,192,177842,1,8,0:0:0:0:
256,192,178007,1,0,0:0:0:0:
256,192,178089,1,0,0:0:0:0:
256,192,178172,1,0,0:0:0:0:
256,192,178254,1,0,0:0:0:0:
256,192,178337,1,8,0:0:0:0:
256,192,178666,1,0,0:0:0:0:
256,192,178749,1,0,0:0:0:0:
256,192,178831,1,0,0:0:0:0:
256,192,179161,1,8,0:0:0:0:
256,192,179326,1,0,0:0:0:0:
256,192,179408,1,0,0:0:0:0:
256,192,179491,1,0,0:0:0:0:
256,192,179573,1,0,0:0:0:0:
256,192,179655,1,8,0:0:0:0:
256,192,179985,1,0,0:0:0:0:
256,192,180067,1,0,0:0:0:0:
256,192,180150,1,0,0:0:0:0:
256,192,180480,1,8,0:0:0:0:
256,192,180644,1,0,0:0:0:0:
256,192,180727,1,0,0:0:0:0:
256,192,180809,1,0,0:0:0:0:
256,192,180892,1,0,0:0:0:0:
256,192,180974,1,8,0:0:0:0:
256,192,181304,1,0,0:0:0:0:
256,192,181386,1,0,0:0:0:0:
256,192,181469,1,0,0:0:0:0:
256,192,181551,1,0,0:0:0:0:
256,192,181633,1,8,0:0:0:0:
256,192,181963,1,4,0:0:0:0:
256,192,182128,1,0,0:0:0:0:
256,192,182210,1,0,0:0:0:0:
256,192,182293,1,8,0:0:0:0:
256,192,182622,1,0,0:0:0:0:
256,192,182705,1,0,0:0:0:0:
256,192,182787,1,0,0:0:0:0:
256,192,183117,1,8,0:0:0:0:
256,192,183282,1,0,0:0:0:0:
256,192,183364,1,0,0:0:0:0:
256,192,183447,1,0,0:0:0:0:
256,192,183529,1,0,0:0:0:0:
256,192,183611,1,8,0:0:0:0:
256,192,183941,1,0,0:0:0:0:
256,192,184023,1,0,0:0:0:0:
256,192,184106,1,0,0:0:0:0:
256,192,184436,1,8,0:0:0:0:
256,192,184600,1,0,0:0:0:0:
256,192,184683,1,0,0:0:0:0:
256,192,184765,1,0,0:0:0:0:
256,192,184848,1,0,0:0:0:0:
256,192,184930,1,8,0:0:0:0:
256,192,185260,1,0,0:0:0:0:
256,192,185342,1,0,0:0:0:0:
256,192,185425,1,0,0:0:0:0:
256,192,185754,1,8,0:0:0:0:
256,192,185919,1,0,0:0:0:0:
256,192,186002,1,0,0:0:0:0:
256,192,186084,1,0,0:0:0:0:
256,192,186166,1,0,0:0:0:0:
256,192,186249,1,8,0:0:0:0:
256,192,186578,1,0,0:0:0:0:
256,192,186661,1,0,0:0:0:0:
256,192,186743,1,0,0:0:0:0:
256,192,186826,1,0,0:0:0:0:
256,192,186908,1,8,0:0:0:0:
256,192,187238,1,4,0:0:0:0:
256,192,187403,1,0,0:0:0:0:
256,192,187485,1,0,0:0:0:0:
256,192,187567,1,8,0:0:0:0:
256,192,187897,1,0,0:0:0:0:
256,192,187980,1,0,0:0:0:0:
256,192,188062,1,0,0:0:0:0:
256,192,188392,1,8,0:0:0:0:
256,192,188556,1,0,0:0:0:0:
256,192,188639,1,0,0:0:0:0:
256,192,188721,1,0,0:0:0:0:
256,192,188804,1,0,0:0:0:0:
256,192,188886,1,8,0:0:0:0:
256,192,189216,1,0,0:0:0:0:
256,192,189298,1,0,0:0:0:0:
256,192,189381,1,0,0:0:0:0:
256,192,189463,1,0,0:0:0:0:
256,192,189545,1,0,0:0:0:0:
256,192,189710,1,8,0:0:0:0:
256,192,189875,1,0,0:0:0:0:
256,192,189958,1,0,0:0:0:0:
256,192,190040,1,0,0:0:0:0:
256,192,190122,1,0,0:0:0:0:
256,192,190205,1,8,0:0:0:0:
256,192,190534,1,0,0:0:0:0:
256,192,190617,1,0,0:0:0:0:
256,192,190699,1,0,0:0:0:0:
256,192,191029,1,8,0:0:0:0:
256,192,191194,1,0,0:0:0:0:
256,192,191276,1,0,0:0:0:0:
256,192,191359,1,0,0:0:0:0:
256,192,191441,1,0,0:0:0:0:
256,192,191523,1,8,0:0:0:0:
256,192,191853,1,0,0:0:0:0:
256,192,191936,1,0,0:0:0:0:
256,192,192018,1,0,0:0:0:0:
256,192,192100,1,0,0:0:0:0:
256,192,192183,1,8,0:0:0:0:
256,192,192512,1,4,0:0:0:0:
256,192,192677,1,0,0:0:0:0:
256,192,192760,1,0,0:0:0:0:
256,192,192842,1,8,0:0:0:0:
256,192,193172,1,0,0:0:0:0:
256,192,193254,1,0,0:0:0:0:
256,192,193337,1,0,0:0:0:0:
256,192,193666,1,8,0:0:0:0:
256,192,193831,1,0,0:0:0:0:
256,192,193914,1,0,0:0:0:0:
256,192,193996,1,0,0:0:0:0:
256,192,194078,1,0,0:0:0:0:
256,192,194161,1,8,0:0:0:0:
256,192,194491,1,0,0:0:0:0:
256,192,194573,1,0,0:0:0:0:
256,192,194655,1,0,0:0:0:0:
256,192,194985,1,8,0:0:0:0:
256,192,195150,1,0,0:0:0:0:
256,192,195232,1,0,0:0:0:0:
256,192,195315,1,0,0:0:0:0:
256,192,195397,1,0,0:0:0:0:
256,192,195480,1,8,0:0:0:0:
256,192,195809,1,0,0:0:0:0:
256,192,195892,1,0,0:0:0:0:
256,192,195974,1,0,0:0:0:0:
256,192,196139,1,8,0:0:0:0:
256,192,196221,1,8,0:0:0:0:
256,192,196304,1,8,0:0:0:0:
256,192,196386,1,8,0:0:0:0:
256,192,196469,1,0,0:0:0:0:
256,192,196551,1,0,0:0:0:0:
256,192,196633,1,0,0:0:0:0:
256,192,196716,1,0,0:0:0:0:
256,192,196798,1,8,0:0:0:0:
256,192,196881,1,8,0:0:0:0:
256,192,196963,1,0,0:0:0:0:
256,192,197045,1,0,0:0:0:0:
256,192,197128,1,8,0:0:0:0:
256,192,197210,1,0,0:0:0:0:
256,192,197293,1,0,0:0:0:0:
256,192,197375,1,0,0:0:0:0:
256,192,197458,1,8,0:0:0:0:
256,192,197540,1,0,0:0:0:0:
256,192,197622,1,8,0:0:0:0:
256,192,197787,1,4,0:0:0:0:
256,192,197952,1,0,0:0:0:0:
256,192,198117,1,8,0:0:0:0:
256,192,198282,1,0,0:0:0:0:
256,192,198364,1,0,0:0:0:0:
256,192,198447,1,0,0:0:0:0:
256,192,198611,1,0,0:0:0:0:
256,192,198776,1,8,0:0:0:0:
256,192,198941,1,8,0:0:0:0:
256,192,199106,1,0,0:0:0:0:
256,192,199188,1,0,0:0:0:0:
256,192,199271,1,0,0:0:0:0:
256,192,199436,1,8,0:0:0:0:
256,192,199600,1,0,0:0:0:0:
256,192,199683,1,0,0:0:0:0:
256,192,199765,1,0,0:0:0:0:
256,192,199848,1,0,0:0:0:0:
256,192,199930,1,0,0:0:0:0:
256,192,200095,1,8,0:0:0:0:
256,192,200260,1,8,0:0:0:0:
256,192,200425,1,0,0:0:0:0:
256,192,200507,1,0,0:0:0:0:
256,192,200589,1,0,0:0:0:0:
256,192,200672,1,0,0:0:0:0:
256,192,200754,1,8,0:0:0:0:
256,192,200919,1,0,0:0:0:0:
256,192,201002,1,0,0:0:0:0:
256,192,201084,1,0,0:0:0:0:
256,192,201249,1,0,0:0:0:0:
256,192,201331,1,0,0:0:0:0:
256,192,201414,1,8,0:0:0:0:
256,192,201578,1,8,0:0:0:0:
256,192,201743,1,0,0:0:0:0:
256,192,201826,1,0,0:0:0:0:
256,192,201908,1,0,0:0:0:0:
256,192,202073,1,8,0:0:0:0:
256,192,202155,1,0,0:0:0:0:
256,192,202238,1,0,0:0:0:0:
256,192,202403,1,0,0:0:0:0:
256,192,202485,1,0,0:0:0:0:
256,192,202567,1,0,0:0:0:0:
256,192,202650,1,0,0:0:0:0:
256,192,202732,1,8,0:0:0:0:
256,192,202897,1,0,0:0:0:0:
256,192,203062,1,4,0:0:0:0:
256,192,203227,1,0,0:0:0:0:
256,192,203392,1,8,0:0:0:0:
256,192,203556,1,0,0:0:0:0:
256,192,203639,1,0,0:0:0:0:
256,192,203721,1,0,0:0:0:0:
256,192,203886,1,0,0:0:0:0:
256,192,204051,1,8,0:0:0:0:
256,192,204216,1,8,0:0:0:0:
256,192,204298,1,8,0:0:0:0:
256,192,204381,1,0,0:0:0:0:
256,192,204463,1,0,0:0:0:0:
256,192,204545,1,0,0:0:0:0:
256,192,204710,1,8,0:0:0:0:
256,192,204875,1,0,0:0:0:0:
256,192,204958,1,0,0:0:0:0:
256,192,205040,1,0,0:0:0:0:
256,192,205122,1,0,0:0:0:0:
256,192,205205,1,0,0:0:0:0:
256,192,205370,1,8,0:0:0:0:
256,192,205534,1,8,0:0:0:0:
256,192,205699,1,0,0:0:0:0:
256,192,205782,1,0,0:0:0:0:
256,192,205864,1,0,0:0:0:0:
256,192,205947,1,0,0:0:0:0:
256,192,206029,1,8,0:0:0:0:
256,192,206194,1,0,0:0:0:0:
256,192,206276,1,0,0:0:0:0:
256,192,206359,1,0,0:0:0:0:
256,192,206523,1,0,0:0:0:0:
256,192,206606,1,0,0:0:0:0:
256,192,206688,1,8,0:0:0:0:
256,192,206853,1,8,0:0:0:0:
256,192,207018,1,0,0:0:0:0:
256,192,207100,1,0,0:0:0:0:
256,192,207183,1,0,0:0:0:0:
256,192,207348,1,8,0:0:0:0:
256,192,207430,1,0,0:0:0:0:
256,192,207512,1,0,0:0:0:0:
256,192,207677,1,0,0:0:0:0:
256,192,207760,1,0,0:0:0:0:
256,192,207842,1,0,0:0:0:0:
256,192,208007,1,8,0:0:0:0:
256,192,208089,1,0,0:0:0:0:
256,192,208172,1,0,0:0:0:0:
256,192,208337,1,4,0:0:0:0:
256,192,208502,1,0,0:0:0:0:
256,192,208666,1,8,0:0:0:0:
256,192,208831,1,0,0:0:0:0:
256,192,208914,1,0,0:0:0:0:
256,192,208996,1,0,0:0:0:0:
256,192,209161,1,0,0:0:0:0:
256,192,209326,1,8,0:0:0:0:
256,192,209491,1,0,0:0:0:0:
256,192,209655,1,0,0:0:0:0:
256,192,209738,1,0,0:0:0:0:
256,192,209820,1,0,0:0:0:0:
256,192,209985,1,8,0:0:0:0:
256,192,210150,1,0,0:0:0:0:
256,192,210232,1,0,0:0:0:0:
256,192,210315,1,0,0:0:0:0:
256,192,210397,1,0,0:0:0:0:
256,192,210480,1,0,0:0:0:0:
256,192,210644,1,8,0:0:0:0:
256,192,210809,1,8,0:0:0:0:
256,192,210892,1,8,0:0:0:0:
256,192,210974,1,0,0:0:0:0:
256,192,211056,1,0,0:0:0:0:
256,192,211139,1,0,0:0:0:0:
256,192,211221,1,0,0:0:0:0:
256,192,211304,1,8,0:0:0:0:
256,192,211469,1,0,0:0:0:0:
256,192,211551,1,0,0:0:0:0:
256,192,211633,1,0,0:0:0:0:
256,192,211798,1,0,0:0:0:0:
256,192,211881,1,0,0:0:0:0:
256,192,211963,1,8,0:0:0:0:
256,192,212128,1,8,0:0:0:0:
256,192,212210,1,8,0:0:0:0:
256,192,212293,1,0,0:0:0:0:
256,192,212375,1,0,0:0:0:0:
256,192,212458,1,0,0:0:0:0:
256,192,212622,1,8,0:0:0:0:
256,192,212705,1,0,0:0:0:0:
256,192,212787,1,0,0:0:0:0:
256,192,212952,1,0,0:0:0:0:
256,192,213034,1,0,0:0:0:0:
256,192,213117,1,0,0:0:0:0:
256,192,213199,1,0,0:0:0:0:
256,192,213282,1,8,0:0:0:0:
256,192,213447,1,0,0:0:0:0:
256,192,213611,1,12,0:0:0:0:
256,192,213776,1,0,0:0:0:0:
256,192,213941,1,0,0:0:0:0:
256,192,214106,1,12,0:0:0:0:
256,192,214271,1,0,0:0:0:0:
256,192,214353,1,0,0:0:0:0:
256,192,214436,1,0,0:0:0:0:
256,192,214600,1,12,0:0:0:0:
256,192,214765,1,0,0:0:0:0:
256,192,214930,1,0,0:0:0:0:
256,192,215095,1,12,0:0:0:0:
256,192,215260,1,0,0:0:0:0:
256,192,215342,1,0,0:0:0:0:
256,192,215425,1,0,0:0:0:0:
256,192,215589,1,12,0:0:0:0:
256,192,215754,1,0,0:0:0:0:
256,192,215919,1,12,0:0:0:0:
256,192,216084,1,0,0:0:0:0:
256,192,216249,1,12,0:0:0:0:
256,192,216414,1,0,0:0:0:0:
256,192,216578,1,0,0:0:0:0:
256,192,216743,1,12,0:0:0:0:
256,192,216908,1,0,0:0:0:0:
256,192,216991,1,0,0:0:0:0:
256,192,217073,1,0,0:0:0:0:
256,192,217238,1,12,0:0:0:0:
256,192,217403,1,0,0:0:0:0:
256,192,217567,1,0,0:0:0:0:
256,192,217732,1,12,0:0:0:0:
256,192,217897,1,0,0:0:0:0:
256,192,217980,1,0,0:0:0:0:
256,192,218062,1,0,0:0:0:0:
256,192,218227,1,12,0:0:0:0:
256,192,218392,1,0,0:0:0:0:
256,192,218556,1,12,0:0:0:0:
256,192,218721,1,0,0:0:0:0:
256,192,218886,1,4,0:0:0:0:
256,192,219051,1,0,0:0:0:0:
256,192,219133,1,0,0:0:0:0:
256,192,219216,1,0,0:0:0:0:
256,192,219298,1,0,0:0:0:0:
256,192,219381,1,8,0:0:0:0:
256,192,219545,1,0,0:0:0:0:
256,192,219628,1,0,0:0:0:0:
256,192,219710,1,8,0:0:0:0:
256,192,219793,1,8,0:0:0:0:
256,192,219875,1,8,0:0:0:0:
256,192,220864,1,4,0:0:0:0:
256,192,229436,5,4,0:0:0:0:
256,192,231414,1,0,0:0:0:0:
256,192,231496,1,0,0:0:0:0:
256,192,231578,1,0,0:0:0:0:
256,192,231661,1,0,0:0:0:0:
256,192,231743,1,0,0:0:0:0:
256,192,233721,1,4,0:0:0:0:
256,192,234216,1,4,0:0:0:0:
256,192,236359,1,8,0:0:0:0:
256,192,236853,1,0,0:0:0:0:
256,192,236936,1,0,0:0:0:0:
256,192,237018,1,8,0:0:0:0:
256,192,237183,1,8,0:0:0:0:
256,192,237348,1,0,0:0:0:0:
256,192,237512,1,0,0:0:0:0:
256,192,237677,1,0,0:0:0:0:
256,192,237842,1,0,0:0:0:0:
256,192,238007,1,4,0:0:0:0:
256,192,238174,1,0,0:0:0:0:
256,192,238257,1,0,0:0:0:0:
256,192,238339,1,0,0:0:0:0:
256,192,238669,1,8,0:0:0:0:
256,192,238834,1,0,0:0:0:0:
256,192,238916,1,0,0:0:0:0:
256,192,238999,1,0,0:0:0:0:
256,192,239163,1,8,0:0:0:0:
256,192,239328,1,0,0:0:0:0:
256,192,239493,1,0,0:0:0:0:
256,192,239575,1,0,0:0:0:0:
256,192,239658,1,0,0:0:0:0:
256,192,239988,1,8,0:0:0:0:
256,192,240152,1,0,0:0:0:0:
256,192,240235,1,0,0:0:0:0:
256,192,240317,1,0,0:0:0:0:
256,192,240482,1,0,0:0:0:0:
256,192,240647,1,4,0:0:0:0:
256,192,240812,1,0,0:0:0:0:
256,192,240894,1,0,0:0:0:0:
256,192,240977,1,0,0:0:0:0:
256,192,241306,1,8,0:0:0:0:
256,192,241471,1,0,0:0:0:0:
256,192,241553,1,0,0:0:0:0:
256,192,241636,1,0,0:0:0:0:
256,192,241801,1,8,0:0:0:0:
256,192,241966,1,0,0:0:0:0:
256,192,242130,1,0,0:0:0:0:
256,192,242213,1,0,0:0:0:0:
256,192,242295,1,0,0:0:0:0:
256,192,242460,1,8,0:0:0:0:
256,192,242542,1,8,0:0:0:0:
256,192,242625,1,8,0:0:0:0:
256,192,242790,1,8,0:0:0:0:
256,192,242872,1,0,0:0:0:0:
256,192,242955,1,0,0:0:0:0:
256,192,243119,1,0,0:0:0:0:
256,192,243284,1,4,0:0:0:0:
256,192,243449,1,0,0:0:0:0:
256,192,243614,1,8,0:0:0:0:
256,192,243779,1,0,0:0:0:0:
256,192,244108,1,0,0:0:0:0:
256,192,244273,1,8,0:0:0:0:
256,192,244438,1,8,0:0:0:0:
256,192,244603,1,0,0:0:0:0:
256,192,244768,1,0,0:0:0:0:
256,192,244933,1,8,0:0:0:0:
256,192,245262,1,0,0:0:0:0:
256,192,245427,1,0,0:0:0:0:
256,192,245592,1,8,0:0:0:0:
256,192,245757,1,0,0:0:0:0:
256,192,246086,1,0,0:0:0:0:
256,192,246251,1,8,0:0:0:0:
256,192,246416,1,8,0:0:0:0:
256,192,246581,1,0,0:0:0:0:
256,192,246746,1,0,0:0:0:0:
256,192,246911,1,8,0:0:0:0:
256,192,247075,1,0,0:0:0:0:
256,192,247158,1,8,0:0:0:0:
256,192,247240,1,0,0:0:0:0:
256,192,247405,1,8,0:0:0:0:
256,192,247570,1,4,0:0:0:0:
256,192,247734,1,0,0:0:0:0:
256,192,247899,1,8,0:0:0:0:
256,192,248064,1,0,0:0:0:0:
256,192,248394,1,0,0:0:0:0:
256,192,248559,1,8,0:0:0:0:
256,192,248723,1,8,0:0:0:0:
256,192,248888,1,0,0:0:0:0:
256,192,249053,1,0,0:0:0:0:
256,192,249218,1,8,0:0:0:0:
256,192,249548,1,0,0:0:0:0:
256,192,249712,1,0,0:0:0:0:
256,192,249877,1,8,0:0:0:0:
256,192,250042,1,0,0:0:0:0:
256,192,250372,1,0,0:0:0:0:
256,192,250537,1,8,0:0:0:0:
256,192,250866,1,0,0:0:0:0:
256,192,251031,1,0,0:0:0:0:
256,192,251196,1,8,0:0:0:0:
256,192,251361,1,0,0:0:0:0:
256,192,251443,1,0,0:0:0:0:
256,192,251526,1,8,0:0:0:0:
256,192,251690,1,8,0:0:0:0:
256,192,251855,1,0,0:0:0:0:
256,192,252019,1,0,0:0:0:0:
256,192,252184,1,0,0:0:0:0:
256,192,252349,1,4,0:0:0:0:
256,192,252679,1,0,0:0:0:0:
256,192,252844,1,8,0:0:0:0:
256,192,253173,1,0,0:0:0:0:
256,192,253338,1,0,0:0:0:0:
256,192,253503,1,8,0:0:0:0:
256,192,253833,1,0,0:0:0:0:
256,192,253997,1,0,0:0:0:0:
256,192,254162,1,8,0:0:0:0:
256,192,254492,1,0,0:0:0:0:
256,192,254657,1,0,0:0:0:0:
256,192,254822,1,8,0:0:0:0:
256,192,254986,1,0,0:0:0:0:
256,192,255316,1,0,0:0:0:0:
256,192,255481,1,8,0:0:0:0:
256,192,255646,1,0,0:0:0:0:
256,192,255728,1,0,0:0:0:0:
256,192,255811,1,0,0:0:0:0:
256,192,255975,1,0,0:0:0:0:
256,192,256140,1,8,0:0:0:0:
256,192,256470,1,0,0:0:0:0:
256,192,256635,1,0,0:0:0:0:
256,192,256800,1,8,0:0:0:0:
256,192,256964,1,0,0:0:0:0:
256,192,257129,1,8,0:0:0:0:
256,192,257294,1,0,0:0:0:0:
256,192,257459,1,0,0:0:0:0:
256,192,257624,1,4,0:0:0:0:
256,192,257953,1,0,0:0:0:0:
256,192,258118,1,8,0:0:0:0:
256,192,258448,1,0,0:0:0:0:
256,192,258613,1,0,0:0:0:0:
256,192,258778,1,8,0:0:0:0:
256,192,259107,1,0,0:0:0:0:
256,192,259272,1,0,0:0:0:0:
256,192,259437,1,8,0:0:0:0:
256,192,259767,1,4,0:0:0:0:
256,192,259931,1,0,0:0:0:0:
256,192,260096,1,8,0:0:0:0:
256,192,260261,1,0,0:0:0:0:
256,192,260591,1,0,0:0:0:0:
256,192,260756,1,12,0:0:0:0:
256,192,260920,1,0,0:0:0:0:
256,192,261003,1,0,0:0:0:0:
256,192,261085,1,0,0:0:0:0:
256,192,261250,1,0,0:0:0:0:
256,192,261415,1,0,0:0:0:0:
256,192,261580,1,0,0:0:0:0:
256,192,261662,1,0,0:0:0:0:
256,192,261745,1,0,0:0:0:0:
256,192,261909,1,0,0:0:0:0:
256,192,262074,1,0,0:0:0:0:
256,192,262239,1,0,0:0:0:0:
256,192,262404,1,4,0:0:0:0:
256,192,262898,1,4,0:0:0:0:
256,192,263228,1,0,0:0:0:0:
256,192,263311,1,0,0:0:0:0:
256,192,263393,1,8,0:0:0:0:
256,192,264217,1,0,0:0:0:0:
256,192,264300,1,0,0:0:0:0:
256,192,264382,1,8,0:0:0:0:
256,192,264547,1,8,0:0:0:0:
256,192,264629,1,8,0:0:0:0:
256,192,264712,1,8,0:0:0:0:
256,192,264876,1,8,0:0:0:0:
256,192,264959,1,0,0:0:0:0:
256,192,265041,1,8,0:0:0:0:
256,192,265124,1,8,0:0:0:0:
256,192,265206,1,0,0:0:0:0:
256,192,265289,1,0,0:0:0:0:
256,192,265371,1,8,0:0:0:0:
256,192,265454,1,0,0:0:0:0:
256,192,265536,1,0,0:0:0:0:
256,192,265618,1,0,0:0:0:0:
256,192,265701,1,8,0:0:0:0:
256,192,265783,1,0,0:0:0:0:
256,192,265866,1,8,0:0:0:0:
256,192,265948,1,0,0:0:0:0:
256,192,266031,1,8,0:0:0:0:
256,192,266113,1,0,0:0:0:0:
256,192,266195,1,8,0:0:0:0:
256,192,266278,1,8,0:0:0:0:
256,192,266360,1,0,0:0:0:0:
256,192,266443,1,0,0:0:0:0:
256,192,266525,1,0,0:0:0:0:
256,192,266607,1,0,0:0:0:0:
256,192,266690,1,8,0:0:0:0:
256,192,266772,1,0,0:0:0:0:
256,192,266855,1,8,0:0:0:0:
256,192,266937,1,0,0:0:0:0:
256,192,267020,1,8,0:0:0:0:
256,192,267102,1,8,0:0:0:0:
256,192,267184,1,0,0:0:0:0:
256,192,267267,1,0,0:0:0:0:
256,192,267349,1,8,0:0:0:0:
256,192,267514,1,0,0:0:0:0:
256,192,267596,1,0,0:0:0:0:
256,192,267679,1,8,0:0:0:0:
256,192,267761,1,8,0:0:0:0:
256,192,267844,1,8,0:0:0:0:
256,192,268009,1,8,0:0:0:0:
256,192,268173,1,8,0:0:0:0:
256,192,268256,1,0,0:0:0:0:
256,192,268338,1,0,0:0:0:0:
256,192,268421,1,8,0:0:0:0:
256,192,268503,1,8,0:0:0:0:
256,192,268585,1,0,0:0:0:0:
256,192,268668,1,8,0:0:0:0:
256,192,268833,1,0,0:0:0:0:
256,192,268915,1,0,0:0:0:0:
256,192,268998,1,8,0:0:0:0:
256,192,269080,1,0,0:0:0:0:
256,192,269162,1,8,0:0:0:0:
256,192,269245,1,0,0:0:0:0:
256,192,269327,1,8,0:0:0:0:
256,192,269492,1,8,0:0:0:0:
256,192,269574,1,0,0:0:0:0:
256,192,269657,1,0,0:0:0:0:
256,192,269739,1,8,0:0:0:0:
256,192,269822,1,0,0:0:0:0:
256,192,269987,1,8,0:0:0:0:
256,192,270151,1,0,0:0:0:0:
256,192,270234,1,0,0:0:0:0:
256,192,270316,1,0,0:0:0:0:
256,192,270481,1,0,0:0:0:0:
256,192,270646,1,8,0:0:0:0:
256,192,270811,1,0,0:0:0:0:
256,192,270893,1,0,0:0:0:0:
256,192,270976,1,0,0:0:0:0:
256,192,271140,1,0,0:0:0:0:
256,192,271305,1,8,0:0:0:0:
256,192,271388,1,0,0:0:0:0:
256,192,271470,1,0,0:0:0:0:
256,192,271552,1,0,0:0:0:0:
256,192,271635,1,0,0:0:0:0:
256,192,271800,1,0,0:0:0:0:
256,192,271965,1,8,0:0:0:0:
256,192,272129,1,0,0:0:0:0:
256,192,272212,1,0,0:0:0:0:
256,192,272294,1,0,0:0:0:0:
256,192,272459,1,0,0:0:0:0:
256,192,272624,1,8,0:0:0:0:
256,192,272706,1,0,0:0:0:0:
256,192,272789,1,0,0:0:0:0:
256,192,272871,1,0,0:0:0:0:
256,192,272954,1,0,0:0:0:0:
256,192,273118,1,0,0:0:0:0:
256,192,273283,1,8,0:0:0:0:
256,192,273448,1,0,0:0:0:0:
256,192,273531,1,0,0:0:0:0:
256,192,273613,1,0,0:0:0:0:
256,192,273778,1,0,0:0:0:0:
256,192,273943,1,8,0:0:0:0:
256,192,274025,1,8,0:0:0:0:
256,192,274107,1,0,0:0:0:0:
256,192,274190,1,0,0:0:0:0:
256,192,274272,1,0,0:0:0:0:
256,192,274437,1,0,0:0:0:0:
256,192,274602,1,8,0:0:0:0:
256,192,274767,1,0,0:0:0:0:
256,192,274849,1,8,0:0:0:0:
256,192,274932,1,0,0:0:0:0:
256,192,275096,1,0,0:0:0:0:
256,192,275261,1,8,0:0:0:0:
256,192,275344,1,0,0:0:0:0:
256,192,275426,1,0,0:0:0:0:
256,192,275509,1,8,0:0:0:0:
256,192,275591,1,0,0:0:0:0:
256,192,275756,1,0,0:0:0:0:
256,192,275921,1,8,0:0:0:0:
256,192,276085,1,0,0:0:0:0:
256,192,276250,1,8,0:0:0:0:
256,192,276415,1,8,0:0:0:0:
256,192,276580,1,0,0:0:0:0:
256,192,276745,1,8,0:0:0:0:
256,192,276827,1,8,0:0:0:0:
256,192,276910,1,8,0:0:0:0:
256,192,277074,1,8,0:0:0:0:
256,192,277239,1,0,0:0:0:0:
256,192,277404,1,8,0:0:0:0:
256,192,277487,1,0,0:0:0:0:
256,192,277569,1,0,0:0:0:0:
256,192,277734,1,8,0:0:0:0:
256,192,277899,1,0,0:0:0:0:
256,192,278063,1,0,0:0:0:0:
256,192,278228,1,8,0:0:0:0:
256,192,278393,1,0,0:0:0:0:
256,192,278558,1,0,0:0:0:0:
256,192,278723,1,8,0:0:0:0:
256,192,278805,1,0,0:0:0:0:
256,192,278888,1,0,0:0:0:0:
256,192,279052,1,0,0:0:0:0:
256,192,279217,1,8,0:0:0:0:
256,192,279382,1,0,0:0:0:0:
256,192,279547,1,0,0:0:0:0:
256,192,279629,1,0,0:0:0:0:
256,192,279712,1,8,0:0:0:0:
256,192,279877,1,12,0:0:0:0:
256,192,280042,1,0,0:0:0:0:
256,192,280124,1,0,0:0:0:0:
256,192,280206,1,0,0:0:0:0:
256,192,280289,1,0,0:0:0:0:
256,192,280371,1,0,0:0:0:0:
256,192,280454,1,0,0:0:0:0:
256,192,280536,1,8,0:0:0:0:
256,192,280701,1,0,0:0:0:0:
256,192,280783,1,0,0:0:0:0:
256,192,280866,1,0,0:0:0:0:
256,192,281031,1,0,0:0:0:0:
256,192,281195,1,8,0:0:0:0:
256,192,281360,1,0,0:0:0:0:
256,192,281525,1,8,0:0:0:0:
256,192,281690,1,8,0:0:0:0:
256,192,281855,1,0,0:0:0:0:
256,192,282020,1,8,0:0:0:0:
256,192,282102,1,8,0:0:0:0:
256,192,282184,1,0,0:0:0:0:
256,192,282349,1,8,0:0:0:0:
256,192,282514,1,8,0:0:0:0:
256,192,282679,1,0,0:0:0:0:
256,192,282844,1,8,0:0:0:0:
256,192,282926,1,0,0:0:0:0:
256,192,283009,1,8,0:0:0:0:
256,192,283173,1,0,0:0:0:0:
256,192,283256,1,0,0:0:0:0:
256,192,283338,1,8,0:0:0:0:
256,192,283503,1,4,0:0:0:0:
256,192,283668,1,0,0:0:0:0:
256,192,283833,1,8,0:0:0:0:
256,192,283998,1,0,0:0:0:0:
256,192,284327,1,0,0:0:0:0:
256,192,284492,1,8,0:0:0:0:
256,192,284657,1,0,0:0:0:0:
256,192,284822,1,12,0:0:0:0:
256,192,284987,1,0,0:0:0:0:
256,192,285151,1,12,0:0:0:0:
256,192,285316,1,0,0:0:0:0:
256,192,285399,1,0,0:0:0:0:
256,192,285481,1,0,0:0:0:0:
256,192,285646,1,0,0:0:0:0:
256,192,285811,1,0,0:0:0:0:
256,192,285976,1,0,0:0:0:0:
256,192,286140,1,4,0:0:0:0:
256,192,286470,1,8,0:0:0:0:
256,192,286635,1,0,0:0:0:0:
256,192,286800,1,0,0:0:0:0:
256,192,287047,1,0,0:0:0:0:
256,192,287129,1,8,0:0:0:0:
256,192,287294,1,8,0:0:0:0:
256,192,287459,1,0,0:0:0:0:
256,192,287706,1,0,0:0:0:0:
256,192,287789,1,8,0:0:0:0:
256,192,287954,1,0,0:0:0:0:
256,192,288118,1,8,0:0:0:0:
256,192,288366,1,0,0:0:0:0:
256,192,288448,1,8,0:0:0:0:
256,192,288613,1,8,0:0:0:0:
256,192,288778,1,0,0:0:0:0:
256,192,289025,1,8,0:0:0:0:
256,192,289107,1,0,0:0:0:0:
256,192,289272,1,8,0:0:0:0:
256,192,289437,1,8,0:0:0:0:
256,192,289602,1,8,0:0:0:0:
256,192,289684,1,8,0:0:0:0:
256,192,289767,1,0,0:0:0:0:
256,192,289932,1,8,0:0:0:0:
256,192,290096,1,0,0:0:0:0:
256,192,290261,1,0,0:0:0:0:
256,192,290426,1,8,0:0:0:0:
256,192,290591,1,0,0:0:0:0:
256,192,290756,1,0,0:0:0:0:
256,192,290838,1,0,0:0:0:0:
256,192,290921,1,0,0:0:0:0:
256,192,291085,1,8,0:0:0:0:
256,192,291168,1,0,0:0:0:0:
256,192,291250,1,0,0:0:0:0:
256,192,291415,1,4,0:0:0:0:
256,192,291580,1,0,0:0:0:0:
256,192,291745,1,8,0:0:0:0:
256,192,291910,1,0,0:0:0:0:
256,192,291992,1,0,0:0:0:0:
256,192,292074,1,0,0:0:0:0:
256,192,292157,1,0,0:0:0:0:
256,192,292239,1,0,0:0:0:0:
256,192,292404,1,8,0:0:0:0:
256,192,292487,1,8,0:0:0:0:
256,192,292569,1,0,0:0:0:0:
256,192,292651,1,0,0:0:0:0:
256,192,292734,1,0,0:0:0:0:
256,192,292899,1,0,0:0:0:0:
256,192,293063,1,8,0:0:0:0:
256,192,293228,1,0,0:0:0:0:
256,192,293311,1,0,0:0:0:0:
256,192,293393,1,0,0:0:0:0:
256,192,293558,1,0,0:0:0:0:
256,192,293723,1,8,0:0:0:0:
256,192,293805,1,0,0:0:0:0:
256,192,293970,1,0,0:0:0:0:
256,192,294052,1,0,0:0:0:0:
256,192,294217,1,0,0:0:0:0:
256,192,294382,1,8,0:0:0:0:
256,192,294547,1,0,0:0:0:0:
256,192,294629,1,0,0:0:0:0:
256,192,294712,1,0,0:0:0:0:
256,192,294877,1,0,0:0:0:0:
256,192,295042,1,8,0:0:0:0:
256,192,295124,1,8,0:0:0:0:
256,192,295206,1,0,0:0:0:0:
256,192,295289,1,0,0:0:0:0:
256,192,295371,1,0,0:0:0:0:
256,192,295536,1,0,0:0:0:0:
256,192,295701,1,8,0:0:0:0:
256,192,295866,1,0,0:0:0:0:
256,192,295948,1,8,0:0:0:0:
256,192,296031,1,0,0:0:0:0:
256,192,296195,1,0,0:0:0:0:
256,192,296360,1,8,0:0:0:0:
256,192,296443,1,0,0:0:0:0:
256,192,296525,1,0,0:0:0:0:
256,192,296690,1,4,0:0:0:0:
256,192,296855,1,0,0:0:0:0:
256,192,297020,1,8,0:0:0:0:
256,192,297184,1,0,0:0:0:0:
256,192,297267,1,8,0:0:0:0:
256,192,297349,1,0,0:0:0:0:
256,192,297514,1,8,0:0:0:0:
256,192,297679,1,8,0:0:0:0:
256,192,297844,1,0,0:0:0:0:
256,192,298009,1,0,0:0:0:0:
256,192,298173,1,8,0:0:0:0:
256,192,298338,1,8,0:0:0:0:
256,192,298503,1,0,0:0:0:0:
256,192,298585,1,0,0:0:0:0:
256,192,298668,1,8,0:0:0:0:
256,192,298833,1,8,0:0:0:0:
256,192,298998,1,4,0:0:0:0:
256,192,299162,1,8,0:0:0:0:
256,192,299327,1,4,0:0:0:0:
256,192,299492,1,8,0:0:0:0:
256,192,299657,1,0,0:0:0:0:
256,192,299739,1,0,0:0:0:0:
256,192,299822,1,8,0:0:0:0:
256,192,299987,1,8,0:0:0:0:
256,192,300151,1,0,0:0:0:0:
256,192,300316,1,0,0:0:0:0:
256,192,300399,1,0,0:0:0:0:
256,192,300481,1,8,0:0:0:0:
256,192,300646,1,8,0:0:0:0:
256,192,300811,1,0,0:0:0:0:
256,192,300976,1,8,0:0:0:0:
256,192,301140,1,0,0:0:0:0:
256,192,301223,1,0,0:0:0:0:
256,192,301305,1,8,0:0:0:0:
256,192,301470,1,0,0:0:0:0:
256,192,301635,1,8,0:0:0:0:
256,192,301717,1,0,0:0:0:0:
256,192,301800,1,0,0:0:0:0:
256,192,301965,1,4,0:0:0:0:
256,192,302294,1,8,0:0:0:0:
256,192,302459,1,0,0:0:0:0:
256,192,302789,1,0,0:0:0:0:
256,192,302871,1,0,0:0:0:0:
256,192,302954,1,8,0:0:0:0:
256,192,303118,1,8,0:0:0:0:
256,192,303283,1,4,0:0:0:0:
256,192,303613,1,8,0:0:0:0:
256,192,303778,1,0,0:0:0:0:
256,192,304107,1,0,0:0:0:0:
256,192,304272,1,12,0:0:0:0:
256,192,304437,1,0,0:0:0:0:
256,192,304602,1,12,0:0:0:0:
256,192,304767,1,0,0:0:0:0:
256,192,304932,1,0,0:0:0:0:
256,192,305096,1,0,0:0:0:0:
256,192,305261,1,8,0:0:0:0:
256,192,305426,1,0,0:0:0:0:
256,192,305591,1,8,0:0:0:0:
256,192,305756,1,0,0:0:0:0:
256,192,305921,1,8,0:0:0:0:
256,192,305976,1,8,0:0:0:0:
256,192,306031,1,8,0:0:0:0:
256,192,306085,1,8,0:0:0:0:
256,192,306168,1,8,0:0:0:0:
256,192,306250,1,8,0:0:0:0:
256,192,306360,1,8,0:0:0:0:
256,192,306470,1,8,0:0:0:0:
256,192,306580,1,0,0:0:0:0:
256,192,306800,1,0,0:0:0:0:
256,192,307020,1,0,0:0:0:0:
256,192,307239,1,4,0:0:0:0:
256,192,311031,1,0,0:0:0:0:
256,192,311113,1,0,0:0:0:0:
256,192,311195,1,8,0:0:0:0:
256,192,311855,1,4,0:0:0:0:
256,192,312514,1,4,0:0:0:0:
256,192,315151,1,4,0:0:0:0:
256,192,316305,1,8,0:0:0:0:
256,192,316388,1,8,0:0:0:0:
256,192,316470,1,8,0:0:0:0:
256,192,316965,1,0,0:0:0:0:
256,192,317047,1,0,0:0:0:0:
256,192,317129,1,8,0:0:0:0:
256,192,317294,1,0,0:0:0:0:
256,192,317459,1,0,0:0:0:0:
256,192,317624,1,0,0:0:0:0:
256,192,317789,1,4,0:0:0:0:
256,192,317954,1,0,0:0:0:0:
256,192,318036,1,0,0:0:0:0:
256,192,318118,1,0,0:0:0:0:
256,192,318448,1,8,0:0:0:0:
256,192,318613,1,0,0:0:0:0:
256,192,318695,1,0,0:0:0:0:
256,192,318778,1,0,0:0:0:0:
256,192,318943,1,8,0:0:0:0:
256,192,319107,1,0,0:0:0:0:
256,192,319272,1,0,0:0:0:0:
256,192,319355,1,0,0:0:0:0:
256,192,319437,1,0,0:0:0:0:
256,192,319767,1,8,0:0:0:0:
256,192,319932,1,0,0:0:0:0:
256,192,320014,1,0,0:0:0:0:
256,192,320096,1,0,0:0:0:0:
256,192,320261,1,0,0:0:0:0:
256,192,320426,1,4,0:0:0:0:
256,192,320591,1,0,0:0:0:0:
256,192,320673,1,0,0:0:0:0:
256,192,320756,1,0,0:0:0:0:
256,192,320921,1,0,0:0:0:0:
256,192,321085,1,8,0:0:0:0:
256,192,321250,1,0,0:0:0:0:
256,192,321333,1,0,0:0:0:0:
256,192,321415,1,0,0:0:0:0:
256,192,321580,1,8,0:0:0:0:
256,192,321745,1,0,0:0:0:0:
256,192,321910,1,0,0:0:0:0:
256,192,321992,1,0,0:0:0:0:
256,192,322074,1,0,0:0:0:0:
256,192,322404,1,8,0:0:0:0:
256,192,322569,1,0,0:0:0:0:
256,192,322651,1,0,0:0:0:0:
256,192,322734,1,0,0:0:0:0:
256,192,322899,1,0,0:0:0:0:
256,192,323063,1,4,0:0:0:0:
256,192,323228,1,0,0:0:0:0:
256,192,323311,1,0,0:0:0:0:
256,192,323393,1,0,0:0:0:0:
256,192,323723,1,8,0:0:0:0:
256,192,323805,1,0,0:0:0:0:
256,192,323888,1,0,0:0:0:0:
256,192,323970,1,0,0:0:0:0:
256,192,324052,1,0,0:0:0:0:
256,192,324217,1,8,0:0:0:0:
256,192,324382,1,0,0:0:0:0:
256,192,324465,1,0,0:0:0:0:
256,192,324547,1,0,0:0:0:0:
256,192,324629,1,0,0:0:0:0:
256,192,324712,1,0,0:0:0:0:
256,192,325042,1,8,0:0:0:0:
256,192,325124,1,0,0:0:0:0:
256,192,325206,1,0,0:0:0:0:
256,192,325289,1,0,0:0:0:0:
256,192,325371,1,0,0:0:0:0:
256,192,325701,1,4,0:0:0:0:
256,192,326360,1,0,0:0:0:0:
256,192,326525,1,0,0:0:0:0:
256,192,326690,1,0,0:0:0:0:
256,192,326855,1,0,0:0:0:0:
256,192,327020,1,0,0:0:0:0:
256,192,327184,1,0,0:0:0:0:
256,192,327349,1,0,0:0:0:0:
256,192,327514,1,0,0:0:0:0:
256,192,327679,1,0,0:0:0:0:
256,192,327844,1,0,0:0:0:0:
256,192,328009,1,0,0:0:0:0:
256,192,328091,1,0,0:0:0:0:
256,192,328173,1,0,0:0:0:0:
256,192,328338,1,4,0:0:0:0:
256,192,328585,1,0,0:0:0:0:
256,192,328668,1,8,0:0:0:0:
256,192,328915,1,0,0:0:0:0:
256,192,328998,1,0,0:0:0:0:
256,192,329162,1,8,0:0:0:0:
256,192,329327,1,0,0:0:0:0:
256,192,329410,1,0,0:0:0:0:
256,192,329492,1,0,0:0:0:0:
256,192,329657,1,0,0:0:0:0:
256,192,329739,1,0,0:0:0:0:
256,192,329904,1,0,0:0:0:0:
256,192,329987,1,8,0:0:0:0:
256,192,330234,1,0,0:0:0:0:
256,192,330316,1,0,0:0:0:0:
256,192,330481,1,8,0:0:0:0:
256,192,330646,1,0,0:0:0:0:
256,192,330728,1,0,0:0:0:0:
256,192,330811,1,0,0:0:0:0:
256,192,330893,1,0,0:0:0:0:
256,192,330976,1,0,0:0:0:0:
256,192,331223,1,0,0:0:0:0:
256,192,331305,1,8,0:0:0:0:
256,192,331552,1,0,0:0:0:0:
256,192,331635,1,0,0:0:0:0:
256,192,331800,1,8,0:0:0:0:
256,192,331965,1,0,0:0:0:0:
256,192,332129,1,8,0:0:0:0:
256,192,332294,1,0,0:0:0:0:
256,192,332377,1,0,0:0:0:0:
256,192,332459,1,0,0:0:0:0:
256,192,332542,1,0,0:0:0:0:
256,192,332624,1,8,0:0:0:0:
256,192,332789,1,8,0:0:0:0:
256,192,332954,1,0,0:0:0:0:
256,192,333036,1,0,0:0:0:0:
256,192,333118,1,8,0:0:0:0:
256,192,333283,1,0,0:0:0:0:
256,192,333366,1,0,0:0:0:0:
256,192,333448,1,8,0:0:0:0:
256,192,333613,1,4,0:0:0:0:
256,192,333860,1,0,0:0:0:0:
256,192,333943,1,8,0:0:0:0:
256,192,334190,1,0,0:0:0:0:
256,192,334272,1,0,0:0:0:0:
256,192,334437,1,8,0:0:0:0:
256,192,334602,1,0,0:0:0:0:
256,192,334767,1,8,0:0:0:0:
256,192,334932,1,0,0:0:0:0:
256,192,335096,1,0,0:0:0:0:
256,192,335179,1,0,0:0:0:0:
256,192,335261,1,8,0:0:0:0:
256,192,335426,1,0,0:0:0:0:
256,192,335509,1,0,0:0:0:0:
256,192,335591,1,0,0:0:0:0:
256,192,335673,1,0,0:0:0:0:
256,192,335756,1,8,0:0:0:0:
256,192,335921,1,0,0:0:0:0:
256,192,336003,1,0,0:0:0:0:
256,192,336085,1,0,0:0:0:0:
256,192,336168,1,0,0:0:0:0:
256,192,336250,1,0,0:0:0:0:
256,192,336498,1,0,0:0:0:0:
256,192,336580,1,8,0:0:0:0:
256,192,336827,1,0,0:0:0:0:
256,192,336910,1,0,0:0:0:0:
256,192,337074,1,8,0:0:0:0:
256,192,337239,1,0,0:0:0:0:
256,192,337322,1,0,0:0:0:0:
256,192,337404,1,8,0:0:0:0:
256,192,337569,1,0,0:0:0:0:
256,192,337734,1,0,0:0:0:0:
256,192,337899,1,8,0:0:0:0:
256,192,338063,1,0,0:0:0:0:
256,192,338146,1,0,0:0:0:0:
256,192,338228,1,0,0:0:0:0:
256,192,338311,1,0,0:0:0:0:
256,192,338393,1,0,0:0:0:0:
256,192,338476,1,0,0:0:0:0:
256,192,338558,1,8,0:0:0:0:
256,192,338888,1,4,0:0:0:0:
256,192,339135,1,0,0:0:0:0:
256,192,339217,1,8,0:0:0:0:
256,192,339382,1,0,0:0:0:0:
256,192,339465,1,0,0:0:0:0:
256,192,339547,1,0,0:0:0:0:
256,192,339712,1,8,0:0:0:0:
256,192,339877,1,0,0:0:0:0:
256,192,340042,1,0,0:0:0:0:
256,192,340124,1,0,0:0:0:0:
256,192,340206,1,0,0:0:0:0:
256,192,340289,1,0,0:0:0:0:
256,192,340371,1,0,0:0:0:0:
256,192,340454,1,0,0:0:0:0:
256,192,340536,1,8,0:0:0:0:
256,192,340701,1,0,0:0:0:0:
256,192,340783,1,0,0:0:0:0:
256,192,340866,1,0,0:0:0:0:
256,192,341031,1,8,0:0:0:0:
256,192,341195,1,0,0:0:0:0:
256,192,341278,1,0,0:0:0:0:
256,192,341360,1,0,0:0:0:0:
256,192,341443,1,0,0:0:0:0:
256,192,341525,1,0,0:0:0:0:
256,192,341607,1,0,0:0:0:0:
256,192,341690,1,0,0:0:0:0:
256,192,341772,1,0,0:0:0:0:
256,192,341855,1,8,0:0:0:0:
256,192,342020,1,0,0:0:0:0:
256,192,342102,1,0,0:0:0:0:
256,192,342184,1,0,0:0:0:0:
256,192,342349,1,8,0:0:0:0:
256,192,342514,1,0,0:0:0:0:
256,192,342596,1,0,0:0:0:0:
256,192,342679,1,8,0:0:0:0:
256,192,342844,1,0,0:0:0:0:
256,192,342926,1,0,0:0:0:0:
256,192,343009,1,0,0:0:0:0:
256,192,343091,1,0,0:0:0:0:
256,192,343173,1,8,0:0:0:0:
256,192,343338,1,8,0:0:0:0:
256,192,343503,1,0,0:0:0:0:
256,192,343585,1,0,0:0:0:0:
256,192,343668,1,8,0:0:0:0:
256,192,343833,1,0,0:0:0:0:
256,192,343998,1,12,0:0:0:0:
256,192,344162,1,4,0:0:0:0:
256,192,344410,1,0,0:0:0:0:
256,192,344492,1,8,0:0:0:0:
256,192,344657,1,0,0:0:0:0:
256,192,344739,1,0,0:0:0:0:
256,192,344822,1,0,0:0:0:0:
256,192,344987,1,8,0:0:0:0:
256,192,345151,1,0,0:0:0:0:
256,192,345316,1,0,0:0:0:0:
256,192,345399,1,0,0:0:0:0:
256,192,345481,1,0,0:0:0:0:
256,192,345563,1,0,0:0:0:0:
256,192,345646,1,0,0:0:0:0:
256,192,345728,1,0,0:0:0:0:
256,192,345811,1,8,0:0:0:0:
256,192,345976,1,0,0:0:0:0:
256,192,346058,1,0,0:0:0:0:
256,192,346140,1,0,0:0:0:0:
256,192,346305,1,8,0:0:0:0:
256,192,346388,1,8,0:0:0:0:
256,192,346470,1,0,0:0:0:0:
256,192,346552,1,0,0:0:0:0:
256,192,346635,1,0,0:0:0:0:
256,192,346800,1,12,0:0:0:0:
256,192,346965,1,0,0:0:0:0:
256,192,347047,1,0,0:0:0:0:
256,192,347129,1,0,0:0:0:0:
256,192,347294,1,12,0:0:0:0:
256,192,347459,1,0,0:0:0:0:
256,192,347542,1,0,0:0:0:0:
256,192,347624,1,0,0:0:0:0:
256,192,347789,1,12,0:0:0:0:
256,192,347954,1,0,0:0:0:0:
256,192,348118,1,12,0:0:0:0:
256,192,348778,1,8,0:0:0:0:
256,192,349107,1,8,0:0:0:0:
256,192,349437,1,4,0:0:0:0:
256,192,349602,1,0,0:0:0:0:
256,192,349684,1,0,0:0:0:0:
256,192,349767,1,8,0:0:0:0:
256,192,350096,1,0,0:0:0:0:
256,192,350179,1,0,0:0:0:0:
256,192,350261,1,0,0:0:0:0:
256,192,350591,1,8,0:0:0:0:
256,192,350756,1,0,0:0:0:0:
256,192,350838,1,0,0:0:0:0:
256,192,350921,1,0,0:0:0:0:
256,192,351003,1,0,0:0:0:0:
256,192,351085,1,8,0:0:0:0:
256,192,351415,1,0,0:0:0:0:
256,192,351498,1,0,0:0:0:0:
256,192,351580,1,0,0:0:0:0:
256,192,351910,1,8,0:0:0:0:
256,192,352074,1,0,0:0:0:0:
256,192,352157,1,0,0:0:0:0:
256,192,352239,1,0,0:0:0:0:
256,192,352322,1,0,0:0:0:0:
256,192,352404,1,8,0:0:0:0:
256,192,352734,1,0,0:0:0:0:
256,192,352816,1,0,0:0:0:0:
256,192,352899,1,0,0:0:0:0:
256,192,353228,1,8,0:0:0:0:
256,192,353393,1,0,0:0:0:0:
256,192,353476,1,0,0:0:0:0:
256,192,353558,1,0,0:0:0:0:
256,192,353640,1,0,0:0:0:0:
256,192,353723,1,8,0:0:0:0:
256,192,354052,1,0,0:0:0:0:
256,192,354135,1,0,0:0:0:0:
256,192,354217,1,0,0:0:0:0:
256,192,354300,1,0,0:0:0:0:
256,192,354382,1,8,0:0:0:0:
256,192,354712,1,4,0:0:0:0:
256,192,354877,1,0,0:0:0:0:
256,192,354959,1,0,0:0:0:0:
256,192,355042,1,8,0:0:0:0:
256,192,355371,1,0,0:0:0:0:
256,192,355454,1,0,0:0:0:0:
256,192,355536,1,0,0:0:0:0:
256,192,355866,1,8,0:0:0:0:
256,192,356031,1,0,0:0:0:0:
256,192,356113,1,0,0:0:0:0:
256,192,356195,1,0,0:0:0:0:
256,192,356278,1,0,0:0:0:0:
256,192,356360,1,8,0:0:0:0:
256,192,356690,1,0,0:0:0:0:
256,192,356772,1,0,0:0:0:0:
256,192,356855,1,0,0:0:0:0:
256,192,357184,1,8,0:0:0:0:
256,192,357349,1,0,0:0:0:0:
256,192,357432,1,0,0:0:0:0:
256,192,357514,1,0,0:0:0:0:
256,192,357596,1,0,0:0:0:0:
256,192,357679,1,8,0:0:0:0:
256,192,358009,1,0,0:0:0:0:
256,192,358091,1,0,0:0:0:0:
256,192,358173,1,0,0:0:0:0:
256,192,358503,1,8,0:0:0:0:
256,192,358668,1,0,0:0:0:0:
256,192,358750,1,0,0:0:0:0:
256,192,358833,1,0,0:0:0:0:
256,192,358915,1,0,0:0:0:0:
256,192,358998,1,8,0:0:0:0:
256,192,359327,1,0,0:0:0:0:
256,192,359410,1,0,0:0:0:0:
256,192,359492,1,0,0:0:0:0:
256,192,359574,1,0,0:0:0:0:
256,192,359657,1,8,0:0:0:0:
256,192,359987,1,4,0:0:0:0:
256,192,360151,1,0,0:0:0:0:
256,192,360234,1,0,0:0:0:0:
256,192,360316,1,8,0:0:0:0:
256,192,360646,1,0,0:0:0:0:
256,192,360728,1,0,0:0:0:0:
256,192,360811,1,0,0:0:0:0:
256,192,361140,1,8,0:0:0:0:
256,192,361305,1,0,0:0:0:0:
256,192,361388,1,0,0:0:0:0:
256,192,361470,1,0,0:0:0:0:
256,192,361552,1,0,0:0:0:0:
256,192,361635,1,8,0:0:0:0:
256,192,361965,1,0,0:0:0:0:
256,192,362047,1,0,0:0:0:0:
256,192,362129,1,0,0:0:0:0:
256,192,362212,1,0,0:0:0:0:
256,192,362294,1,0,0:0:0:0:
256,192,362459,1,8,0:0:0:0:
256,192,362624,1,0,0:0:0:0:
256,192,362706,1,0,0:0:0:0:
256,192,362789,1,0,0:0:0:0:
256,192,362871,1,0,0:0:0:0:
256,192,362954,1,8,0:0:0:0:
256,192,363283,1,0,0:0:0:0:
256,192,363366,1,0,0:0:0:0:
256,192,363448,1,0,0:0:0:0:
256,192,363778,1,8,0:0:0:0:
256,192,363943,1,0,0:0:0:0:
256,192,364025,1,0,0:0:0:0:
256,192,364107,1,0,0:0:0:0:
256,192,364190,1,0,0:0:0:0:
256,192,364272,1,8,0:0:0:0:
256,192,364602,1,0,0:0:0:0:
256,192,364684,1,0,0:0:0:0:
256,192,364767,1,0,0:0:0:0:
256,192,364849,1,0,0:0:0:0:
256,192,364932,1,8,0:0:0:0:
256,192,365261,1,4,0:0:0:0:
256,192,365426,1,0,0:0:0:0:
256,192,365509,1,0,0:0:0:0:
256,192,365591,1,8,0:0:0:0:
256,192,365921,1,0,0:0:0:0:
256,192,366003,1,0,0:0:0:0:
256,192,366085,1,0,0:0:0:0:
256,192,366415,1,8,0:0:0:0:
256,192,366580,1,0,0:0:0:0:
256,192,366662,1,0,0:0:0:0:
256,192,366745,1,0,0:0:0:0:
256,192,366827,1,0,0:0:0:0:
256,192,366910,1,8,0:0:0:0:
256,192,367239,1,0,0:0:0:0:
256,192,367322,1,0,0:0:0:0:
256,192,367404,1,0,0:0:0:0:
256,192,367569,1,8,0:0:0:0:
256,192,367734,1,8,0:0:0:0:
256,192,367899,1,0,0:0:0:0:
256,192,367981,1,0,0:0:0:0:
256,192,368063,1,0,0:0:0:0:
256,192,368146,1,0,0:0:0:0:
256,192,368228,1,8,0:0:0:0:
256,192,368558,1,0,0:0:0:0:
256,192,368640,1,0,0:0:0:0:
256,192,368723,1,0,0:0:0:0:
256,192,368888,1,8,0:0:0:0:
256,192,368970,1,8,0:0:0:0:
256,192,369052,1,8,0:0:0:0:
256,192,369135,1,8,0:0:0:0:
256,192,369217,1,0,0:0:0:0:
256,192,369300,1,0,0:0:0:0:
256,192,369382,1,0,0:0:0:0:
256,192,369465,1,0,0:0:0:0:
256,192,369547,1,8,0:0:0:0:
256,192,369629,1,8,0:0:0:0:
256,192,369712,1,0,0:0:0:0:
256,192,369794,1,8,0:0:0:0:
256,192,369877,1,0,0:0:0:0:
256,192,369959,1,8,0:0:0:0:
256,192,370042,1,0,0:0:0:0:
256,192,370124,1,0,0:0:0:0:
256,192,370206,1,8,0:0:0:0:
256,192,370289,1,0,0:0:0:0:
256,192,370371,1,0,0:0:0:0:
256,192,370536,1,4,0:0:0:0:
256,192,370701,1,0,0:0:0:0:
256,192,370783,1,0,0:0:0:0:
256,192,370866,1,8,0:0:0:0:
256,192,371031,1,0,0:0:0:0:
256,192,371113,1,0,0:0:0:0:
256,192,371195,1,0,0:0:0:0:
256,192,371278,1,0,0:0:0:0:
256,192,371360,1,0,0:0:0:0:
256,192,371525,1,8,0:0:0:0:
256,192,371690,1,0,0:0:0:0:
256,192,371772,1,0,0:0:0:0:
256,192,371855,1,0,0:0:0:0:
256,192,372020,1,0,0:0:0:0:
256,192,372102,1,0,0:0:0:0:
256,192,372184,1,8,0:0:0:0:
256,192,372349,1,0,0:0:0:0:
256,192,372432,1,0,0:0:0:0:
256,192,372514,1,0,0:0:0:0:
256,192,372596,1,0,0:0:0:0:
256,192,372679,1,0,0:0:0:0:
256,192,372844,1,8,0:0:0:0:
256,192,373009,1,0,0:0:0:0:
256,192,373091,1,8,0:0:0:0:
256,192,373173,1,0,0:0:0:0:
256,192,373256,1,0,0:0:0:0:
256,192,373338,1,0,0:0:0:0:
256,192,373421,1,0,0:0:0:0:
256,192,373503,1,8,0:0:0:0:
256,192,373668,1,0,0:0:0:0:
256,192,373750,1,0,0:0:0:0:
256,192,373833,1,0,0:0:0:0:
256,192,373915,1,0,0:0:0:0:
256,192,373998,1,0,0:0:0:0:
256,192,374162,1,8,0:0:0:0:
256,192,374327,1,8,0:0:0:0:
256,192,374410,1,8,0:0:0:0:
256,192,374492,1,0,0:0:0:0:
256,192,374657,1,0,0:0:0:0:
256,192,374739,1,0,0:0:0:0:
256,192,374822,1,8,0:0:0:0:
256,192,374987,1,0,0:0:0:0:
256,192,375069,1,0,0:0:0:0:
256,192,375151,1,0,0:0:0:0:
256,192,375234,1,0,0:0:0:0:
256,192,375316,1,0,0:0:0:0:
256,192,375399,1,0,0:0:0:0:
256,192,375481,1,8,0:0:0:0:
256,192,375646,1,0,0:0:0:0:
256,192,375811,1,4,0:0:0:0:
256,192,375976,1,0,0:0:0:0:
256,192,376058,1,0,0:0:0:0:
256,192,376141,1,8,0:0:0:0:
256,192,376306,1,0,0:0:0:0:
256,192,376388,1,0,0:0:0:0:
256,192,376470,1,0,0:0:0:0:
256,192,376553,1,0,0:0:0:0:
256,192,376635,1,0,0:0:0:0:
256,192,376800,1,8,0:0:0:0:
256,192,376965,1,0,0:0:0:0:
256,192,377047,1,0,0:0:0:0:
256,192,377130,1,0,0:0:0:0:
256,192,377295,1,0,0:0:0:0:
256,192,377377,1,0,0:0:0:0:
256,192,377459,1,8,0:0:0:0:
256,192,377624,1,0,0:0:0:0:
256,192,377707,1,0,0:0:0:0:
256,192,377789,1,0,0:0:0:0:
256,192,377871,1,0,0:0:0:0:
256,192,377954,1,0,0:0:0:0:
256,192,378119,1,8,0:0:0:0:
256,192,378284,1,0,0:0:0:0:
256,192,378366,1,8,0:0:0:0:
256,192,378448,1,0,0:0:0:0:
256,192,378531,1,0,0:0:0:0:
256,192,378613,1,0,0:0:0:0:
256,192,378696,1,0,0:0:0:0:
256,192,378778,1,8,0:0:0:0:
256,192,378943,1,0,0:0:0:0:
256,192,379025,1,0,0:0:0:0:
256,192,379108,1,0,0:0:0:0:
256,192,379190,1,0,0:0:0:0:
256,192,379273,1,0,0:0:0:0:
256,192,379437,1,8,0:0:0:0:
256,192,379602,1,0,0:0:0:0:
256,192,379685,1,0,0:0:0:0:
256,192,379767,1,8,0:0:0:0:
256,192,379932,1,8,0:0:0:0:
256,192,380014,1,8,0:0:0:0:
256,192,380096,1,0,0:0:0:0:
256,192,380261,1,8,0:0:0:0:
256,192,380344,1,8,0:0:0:0:
256,192,380426,1,8,0:0:0:0:
256,192,380509,1,8,0:0:0:0:
256,192,380591,1,8,0:0:0:0:
256,192,380673,1,8,0:0:0:0:
256,192,380756,1,0,0:0:0:0:
256,192,380921,1,8,0:0:0:0:
256,192,381085,1,4,0:0:0:0:
256,192,381250,1,0,0:0:0:0:
256,192,381333,1,0,0:0:0:0:
256,192,381415,1,8,0:0:0:0:
256,192,381580,1,0,0:0:0:0:
256,192,381662,1,0,0:0:0:0:
256,192,381745,1,0,0:0:0:0:
256,192,381827,1,0,0:0:0:0:
256,192,381910,1,0,0:0:0:0:
256,192,381992,1,0,0:0:0:0:
256,192,382074,1,8,0:0:0:0:
256,192,382239,1,0,0:0:0:0:
256,192,382322,1,0,0:0:0:0:
256,192,382404,1,0,0:0:0:0:
256,192,382487,1,0,0:0:0:0:
256,192,382569,1,0,0:0:0:0:
256,192,382734,1,8,0:0:0:0:
256,192,382899,1,0,0:0:0:0:
256,192,382981,1,0,0:0:0:0:
256,192,383063,1,0,0:0:0:0:
256,192,383146,1,0,0:0:0:0:
256,192,383228,1,0,0:0:0:0:
256,192,383311,1,0,0:0:0:0:
256,192,383393,1,8,0:0:0:0:
256,192,383558,1,8,0:0:0:0:
256,192,383640,1,0,0:0:0:0:
256,192,383723,1,0,0:0:0:0:
256,192,383805,1,0,0:0:0:0:
256,192,383888,1,0,0:0:0:0:
256,192,384052,1,8,0:0:0:0:
256,192,384217,1,0,0:0:0:0:
256,192,384299,1,0,0:0:0:0:
256,192,384382,1,0,0:0:0:0:
256,192,384464,1,0,0:0:0:0:
256,192,384547,1,0,0:0:0:0:
256,192,384629,1,0,0:0:0:0:
256,192,384711,1,8,0:0:0:0:
256,192,384876,1,0,0:0:0:0:
256,192,384959,1,0,0:0:0:0:
256,192,385041,1,0,0:0:0:0:
256,192,385124,1,0,0:0:0:0:
256,192,385206,1,0,0:0:0:0:
256,192,385289,1,0,0:0:0:0:
256,192,385371,1,8,0:0:0:0:
256,192,385536,1,0,0:0:0:0:
256,192,385618,1,0,0:0:0:0:
256,192,385700,1,0,0:0:0:0:
256,192,385783,1,0,0:0:0:0:
256,192,385865,1,0,0:0:0:0:
256,192,385948,1,0,0:0:0:0:
256,192,386030,1,8,0:0:0:0:
256,192,386113,1,0,0:0:0:0:
256,192,386195,1,8,0:0:0:0:
256,192,386360,1,4,0:0:0:0:
256,192,386525,1,0,0:0:0:0:
256,192,386608,1,0,0:0:0:0:
256,192,386690,1,8,0:0:0:0:
256,192,386855,1,0,0:0:0:0:
256,192,386937,1,0,0:0:0:0:
256,192,387020,1,0,0:0:0:0:
256,192,387102,1,0,0:0:0:0:
256,192,387185,1,0,0:0:0:0:
256,192,387267,1,0,0:0:0:0:
256,192,387349,1,8,0:0:0:0:
256,192,387514,1,0,0:0:0:0:
256,192,387597,1,0,0:0:0:0:
256,192,387679,1,0,0:0:0:0:
256,192,387762,1,0,0:0:0:0:
256,192,387844,1,0,0:0:0:0:
256,192,388009,1,8,0:0:0:0:
256,192,388174,1,0,0:0:0:0:
256,192,388256,1,0,0:0:0:0:
256,192,388338,1,0,0:0:0:0:
256,192,388421,1,0,0:0:0:0:
256,192,388503,1,0,0:0:0:0:
256,192,388586,1,0,0:0:0:0:
256,192,388668,1,8,0:0:0:0:
256,192,388833,1,8,0:0:0:0:
256,192,388915,1,0,0:0:0:0:
256,192,388998,1,0,0:0:0:0:
256,192,389080,1,0,0:0:0:0:
256,192,389163,1,0,0:0:0:0:
256,192,389327,1,8,0:0:0:0:
256,192,389492,1,0,0:0:0:0:
256,192,389574,1,0,0:0:0:0:
256,192,389657,1,0,0:0:0:0:
256,192,389739,1,0,0:0:0:0:
256,192,389822,1,0,0:0:0:0:
256,192,389904,1,0,0:0:0:0:
256,192,389986,1,8,0:0:0:0:
256,192,390069,1,0,0:0:0:0:
256,192,390151,1,0,0:0:0:0:
256,192,390234,1,0,0:0:0:0:
256,192,390316,1,8,0:0:0:0:
256,192,390399,1,0,0:0:0:0:
256,192,390481,1,0,0:0:0:0:
256,192,390564,1,0,0:0:0:0:
256,192,390646,1,0,0:0:0:0:
256,192,390728,1,0,0:0:0:0:
256,192,390811,1,8,0:0:0:0:
256,192,390893,1,0,0:0:0:0:
256,192,390975,1,0,0:0:0:0:
256,192,391058,1,0,0:0:0:0:
256,192,391140,1,0,0:0:0:0:
256,192,391223,1,0,0:0:0:0:
256,192,391305,1,8,0:0:0:0:
256,192,391388,1,0,0:0:0:0:
256,192,391470,1,0,0:0:0:0:
256,192,391635,1,4,0:0:0:0:
256,192,391800,1,0,0:0:0:0:
256,192,391882,1,0,0:0:0:0:
256,192,391965,1,8,0:0:0:0:
256,192,392130,1,0,0:0:0:0:
256,192,392212,1,0,0:0:0:0:
256,192,392294,1,0,0:0:0:0:
256,192,392377,1,0,0:0:0:0:
256,192,392459,1,0,0:0:0:0:
256,192,392624,1,8,0:0:0:0:
256,192,392789,1,0,0:0:0:0:
256,192,392871,1,0,0:0:0:0:
256,192,392954,1,0,0:0:0:0:
256,192,393036,1,8,0:0:0:0:
256,192,393119,1,0,0:0:0:0:
256,192,393201,1,0,0:0:0:0:
256,192,393283,1,8,0:0:0:0:
256,192,393448,1,0,0:0:0:0:
256,192,393531,1,0,0:0:0:0:
256,192,393613,1,0,0:0:0:0:
256,192,393695,1,8,0:0:0:0:
256,192,393778,1,0,0:0:0:0:
256,192,393943,1,8,0:0:0:0:
256,192,394108,1,0,0:0:0:0:
256,192,394190,1,8,0:0:0:0:
256,192,394272,1,0,0:0:0:0:
256,192,394355,1,0,0:0:0:0:
256,192,394437,1,0,0:0:0:0:
256,192,394520,1,0,0:0:0:0:
256,192,394602,1,8,0:0:0:0:
256,192,394767,1,0,0:0:0:0:
256,192,394849,1,0,0:0:0:0:
256,192,394932,1,8,0:0:0:0:
256,192,395014,1,0,0:0:0:0:
256,192,395097,1,0,0:0:0:0:
256,192,395261,1,8,0:0:0:0:
256,192,395426,1,8,0:0:0:0:
256,192,395509,1,8,0:0:0:0:
256,192,395591,1,0,0:0:0:0:
256,192,395756,1,0,0:0:0:0:
256,192,395838,1,0,0:0:0:0:
256,192,395921,1,8,0:0:0:0:
256,192,396086,1,0,0:0:0:0:
256,192,396168,1,8,0:0:0:0:
256,192,396250,1,0,0:0:0:0:
256,192,396415,1,0,0:0:0:0:
256,192,396498,1,0,0:0:0:0:
256,192,396580,1,8,0:0:0:0:
256,192,396745,1,0,0:0:0:0:
256,192,396910,1,4,0:0:0:0:
256,192,397075,1,0,0:0:0:0:
256,192,397157,1,0,0:0:0:0:
256,192,397240,1,8,0:0:0:0:
256,192,397405,1,0,0:0:0:0:
256,192,397487,1,8,0:0:0:0:
256,192,397569,1,0,0:0:0:0:
256,192,397652,1,0,0:0:0:0:
256,192,397734,1,0,0:0:0:0:
256,192,397899,1,8,0:0:0:0:
256,192,398064,1,0,0:0:0:0:
256,192,398146,1,0,0:0:0:0:
256,192,398229,1,0,0:0:0:0:
256,192,398394,1,0,0:0:0:0:
256,192,398476,1,0,0:0:0:0:
256,192,398558,1,8,0:0:0:0:
256,192,398723,1,0,0:0:0:0:
256,192,398806,1,8,0:0:0:0:
256,192,398888,1,0,0:0:0:0:
256,192,398970,1,0,0:0:0:0:
256,192,399053,1,0,0:0:0:0:
256,192,399218,1,8,0:0:0:0:
256,192,399383,1,0,0:0:0:0:
256,192,399465,1,8,0:0:0:0:
256,192,399547,1,0,0:0:0:0:
256,192,399630,1,0,0:0:0:0:
256,192,399712,1,0,0:0:0:0:
256,192,399795,1,0,0:0:0:0:
256,192,399877,1,8,0:0:0:0:
256,192,400042,1,0,0:0:0:0:
256,192,400124,1,0,0:0:0:0:
256,192,400207,1,0,0:0:0:0:
256,192,400289,1,8,0:0:0:0:
256,192,400372,1,0,0:0:0:0:
256,192,400536,1,8,0:0:0:0:
256,192,400701,1,0,0:0:0:0:
256,192,400783,1,8,0:0:0:0:
256,192,400866,1,0,0:0:0:0:
256,192,400948,1,0,0:0:0:0:
256,192,401031,1,0,0:0:0:0:
256,192,401195,1,12,0:0:0:0:
256,192,401360,1,0,0:0:0:0:
256,192,401443,1,8,0:0:0:0:
256,192,401525,1,0,0:0:0:0:
256,192,401607,1,0,0:0:0:0:
256,192,401690,1,8,0:0:0:0:
256,192,401772,1,8,0:0:0:0:
256,192,401855,1,0,0:0:0:0:
256,192,402020,1,8,0:0:0:0:
256,192,402184,1,4,0:0:0:0:
256,192,402349,1,0,0:0:0:0:
256,192,402432,1,0,0:0:0:0:
256,192,402514,1,8,0:0:0:0:
256,192,402679,1,0,0:0:0:0:
256,192,402761,1,0,0:0:0:0:
256,192,402844,1,0,0:0:0:0:
256,192,402926,1,0,0:0:0:0:
256,192,403009,1,0,0:0:0:0:
256,192,403091,1,0,0:0:0:0:
256,192,403173,1,8,0:0:0:0:
256,192,403338,1,0,0:0:0:0:
256,192,403421,1,0,0:0:0:0:
256,192,403503,1,0,0:0:0:0:
256,192,403586,1,0,0:0:0:0:
256,192,403668,1,0,0:0:0:0:
256,192,403750,1,0,0:0:0:0:
256,192,403833,1,8,0:0:0:0:
256,192,403998,1,0,0:0:0:0:
256,192,404080,1,0,0:0:0:0:
256,192,404162,1,0,0:0:0:0:
256,192,404245,1,0,0:0:0:0:
256,192,404327,1,0,0:0:0:0:
256,192,404410,1,0,0:0:0:0:
256,192,404492,1,8,0:0:0:0:
256,192,404657,1,8,0:0:0:0:
256,192,404739,1,0,0:0:0:0:
256,192,404822,1,0,0:0:0:0:
256,192,404904,1,0,0:0:0:0:
256,192,404987,1,0,0:0:0:0:
256,192,405151,1,8,0:0:0:0:
256,192,405316,1,0,0:0:0:0:
256,192,405398,1,0,0:0:0:0:
256,192,405481,1,8,0:0:0:0:
256,192,405563,1,0,0:0:0:0:
256,192,405646,1,0,0:0:0:0:
256,192,405728,1,0,0:0:0:0:
256,192,405810,1,8,0:0:0:0:
256,192,405975,1,0,0:0:0:0:
256,192,406058,1,8,0:0:0:0:
256,192,406140,1,0,0:0:0:0:
256,192,406223,1,0,0:0:0:0:
256,192,406305,1,0,0:0:0:0:
256,192,406388,1,0,0:0:0:0:
256,192,406470,1,8,0:0:0:0:
256,192,406635,1,0,0:0:0:0:
256,192,406717,1,0,0:0:0:0:
256,192,406800,1,8,0:0:0:0:
256,192,406882,1,0,0:0:0:0:
256,192,406964,1,0,0:0:0:0:
256,192,407047,1,0,0:0:0:0:
256,192,407129,1,8,0:0:0:0:
256,192,407212,1,0,0:0:0:0:
256,192,407294,1,0,0:0:0:0:
256,192,407459,1,12,0:0:0:0:
256,192,407624,1,0,0:0:0:0:
256,192,407706,1,0,0:0:0:0:
256,192,407789,1,0,0:0:0:0:
256,192,407954,1,12,0:0:0:0:
256,192,408118,1,0,0:0:0:0:
256,192,408201,1,0,0:0:0:0:
256,192,408283,1,0,0:0:0:0:
256,192,408448,1,12,0:0:0:0:
256,192,408613,1,0,0:0:0:0:
256,192,408695,1,0,0:0:0:0:
256,192,408778,1,0,0:0:0:0:
256,192,408943,1,12,0:0:0:0:
256,192,409107,1,0,0:0:0:0:
256,192,409190,1,8,0:0:0:0:
256,192,409272,1,0,0:0:0:0:
256,192,409437,1,12,0:0:0:0:
256,192,409602,1,0,0:0:0:0:
256,192,409684,1,0,0:0:0:0:
256,192,409767,1,8,0:0:0:0:
256,192,409932,1,0,0:0:0:0:
256,192,410096,1,12,0:0:0:0:
256,192,410261,1,0,0:0:0:0:
256,192,410344,1,0,0:0:0:0:
256,192,410426,1,0,0:0:0:0:
256,192,410509,1,0,0:0:0:0:
256,192,410591,1,8,0:0:0:0:
256,192,410673,1,0,0:0:0:0:
256,192,410756,1,0,0:0:0:0:
256,192,410838,1,0,0:0:0:0:
256,192,410921,1,0,0:0:0:0:
256,192,411003,1,0,0:0:0:0:
256,192,411085,1,8,0:0:0:0:
256,192,411168,1,8,0:0:0:0:
256,192,411250,1,0,0:0:0:0:
256,192,411333,1,0,0:0:0:0:
256,192,411415,1,0,0:0:0:0:
256,192,411498,1,0,0:0:0:0:
256,192,411580,1,8,0:0:0:0:
256,192,411662,1,0,0:0:0:0:
256,192,411745,1,0,0:0:0:0:
256,192,411827,1,0,0:0:0:0:
256,192,411910,1,0,0:0:0:0:
256,192,411992,1,0,0:0:0:0:
256,192,412074,1,8,0:0:0:0:
256,192,412157,1,8,0:0:0:0:
256,192,412239,1,0,0:0:0:0:
256,192,412322,1,0,0:0:0:0:
256,192,412404,1,8,0:0:0:0:
256,192,412487,1,0,0:0:0:0:
256,192,412569,1,0,0:0:0:0:
256,192,412734,1,4,0:0:0:0:
256,192,412898,1,0,0:0:0:0:
256,192,412981,1,0,0:0:0:0:
256,192,413063,1,0,0:0:0:0:
256,192,413146,1,0,0:0:0:0:
256,192,413228,1,8,0:0:0:0:
256,192,413393,1,0,0:0:0:0:
256,192,413475,1,0,0:0:0:0:
256,192,413558,1,0,0:0:0:0:
256,192,413723,1,4,0:0:0:0:
256,192,414052,1,8,0:0:0:0:
256,192,414135,1,8,0:0:0:0:
256,192,414217,1,8,0:0:0:0:
256,192,414299,1,8,0:0:0:0:
256,192,414382,1,8,0:0:0:0:
256,192,414547,1,8,0:0:0:0:
256,192,414712,1,4,0:0:0:0:
256,192,414959,1,8,0:0:0:0:
256,192,415041,1,0,0:0:0:0:
256,192,415206,1,8,0:0:0:0:
256,192,415371,1,0,0:0:0:0:
256,192,415453,1,0,0:0:0:0:
256,192,415536,1,0,0:0:0:0:
256,192,415701,1,8,0:0:0:0:
256,192,415865,1,8,0:0:0:0:
256,192,415948,1,0,0:0:0:0:
256,192,416030,1,0,0:0:0:0:
256,192,416195,1,8,0:0:0:0:
256,192,416360,1,8,0:0:0:0:
256,192,416525,1,0,0:0:0:0:
256,192,416607,1,0,0:0:0:0:
256,192,416690,1,8,0:0:0:0:
256,192,416854,1,0,0:0:0:0:
256,192,417019,1,8,0:0:0:0:
256,192,417349,1,8,0:0:0:0:
256,192,417514,1,8,0:0:0:0:
256,192,417679,1,8,0:0:0:0:
256,192,418173,1,8,0:0:0:0:
256,192,418338,1,8,0:0:0:0:
256,192,418503,1,8,0:0:0:0:
256,192,418997,1,8,0:0:0:0:
256,192,419162,1,0,0:0:0:0:
256,192,419327,1,8,0:0:0:0:
256,192,419492,1,0,0:0:0:0:
256,192,419657,1,8,0:0:0:0:
256,192,419821,1,8,0:0:0:0:
256,192,419904,1,8,0:0:0:0:
256,192,419986,1,0,0:0:0:0:
256,192,420233,1,8,0:0:0:0:
256,192,420315,1,0,0:0:0:0:
256,192,420480,1,8,0:0:0:0:
256,192,420810,1,0,0:0:0:0:
256,192,420892,1,0,0:0:0:0:
256,192,420975,1,8,0:0:0:0:
256,192,421304,1,8,0:0:0:0:
256,192,421469,1,8,0:0:0:0:
256,192,421634,1,8,0:0:0:0:
256,192,421799,1,8,0:0:0:0:
256,192,421964,1,4,0:0:0:0:
256,192,422128,1,8,0:0:0:0:
256,192,422211,1,8,0:0:0:0:
256,192,422293,1,8,0:0:0:0:
256,192,422458,1,8,0:0:0:0:
256,192,422623,1,0,0:0:0:0:
256,192,422705,1,0,0:0:0:0:
256,192,422788,1,0,0:0:0:0:
256,192,422953,1,0,0:0:0:0:
256,192,423117,1,8,0:0:0:0:
256,192,423200,1,8,0:0:0:0:
256,192,423282,1,8,0:0:0:0:
256,192,423365,1,8,0:0:0:0:
256,192,423447,1,0,0:0:0:0:
256,192,423612,1,0,0:0:0:0:
256,192,423694,1,0,0:0:0:0:
256,192,423777,1,0,0:0:0:0:
256,192,423859,1,0,0:0:0:0:
256,192,423942,1,8,0:0:0:0:
256,192,423996,1,0,0:0:0:0:
256,192,424051,1,0,0:0:0:0:
256,192,424106,1,0,0:0:0:0:
256,192,424271,1,0,0:0:0:0:
256,192,424354,1,0,0:0:0:0:
256,192,424436,1,8,0:0:0:0:
256,192,424601,1,4,0:0:0:0:
256,192,424765,1,0,0:0:0:0:
256,192,424848,1,0,0:0:0:0:
256,192,424930,1,0,0:0:0:0:
256,192,425013,1,0,0:0:0:0:
256,192,425095,1,8,0:0:0:0:
256,192,425425,1,8,0:0:0:0:
256,192,425507,1,0,0:0:0:0:
256,192,425590,1,0,0:0:0:0:
256,192,425672,1,0,0:0:0:0:
256,192,425754,1,8,0:0:0:0:
256,192,425837,1,0,0:0:0:0:
256,192,425919,1,0,0:0:0:0:
256,192,426002,1,0,0:0:0:0:
256,192,426084,1,8,0:0:0:0:
256,192,426249,1,0,0:0:0:0:
256,192,426414,1,0,0:0:0:0:
256,192,426579,1,4,0:0:0:0:
256,192,426743,1,0,0:0:0:0:
256,192,426826,1,0,0:0:0:0:
256,192,426908,1,0,0:0:0:0:
256,192,426991,1,0,0:0:0:0:
256,192,427073,1,8,0:0:0:0:
256,192,427238,1,0,0:0:0:0:
256,192,427320,1,0,0:0:0:0:
256,192,427403,1,0,0:0:0:0:
256,192,427485,1,0,0:0:0:0:
256,192,427568,1,8,0:0:0:0:
256,192,427732,1,8,0:0:0:0:
256,192,427897,1,8,0:0:0:0:
256,192,428007,1,0,0:0:0:0:
256,192,428117,1,0,0:0:0:0:
256,192,428227,1,8,0:0:0:0:
256,192,428337,1,0,0:0:0:0:
256,192,428447,1,0,0:0:0:0:
256,192,428557,1,4,0:0:0:0:
256,192,428804,1,8,0:0:0:0:
256,192,428886,1,0,0:0:0:0:
256,192,429051,1,8,0:0:0:0:
256,192,429216,1,0,0:0:0:0:
256,192,429381,1,0,0:0:0:0:
256,192,429463,1,0,0:0:0:0:
256,192,429546,1,8,0:0:0:0:
256,192,429710,1,8,0:0:0:0:
256,192,429875,1,0,0:0:0:0:
256,192,430040,1,8,0:0:0:0:
256,192,430205,1,8,0:0:0:0:
256,192,430370,1,0,0:0:0:0:
256,192,430452,1,0,0:0:0:0:
256,192,430535,1,8,0:0:0:0:
256,192,430699,1,0,0:0:0:0:
256,192,430864,1,8,0:0:0:0:
256,192,431029,1,0,0:0:0:0:
256,192,431194,1,12,0:0:0:0:
256,192,431359,1,0,0:0:0:0:
256,192,431524,1,0,0:0:0:0:
256,192,431688,1,12,0:0:0:0:
256,192,431853,1,0,0:0:0:0:
256,192,432018,1,0,0:0:0:0:
256,192,432183,1,12,0:0:0:0:
256,192,432348,1,0,0:0:0:0:
256,192,432513,1,0,0:0:0:0:
256,192,432677,1,12,0:0:0:0:
256,192,432842,1,0,0:0:0:0:
256,192,433007,1,0,0:0:0:0:
256,192,433172,1,8,0:0:0:0:
256,192,433254,1,8,0:0:0:0:
256,192,433337,1,0,0:0:0:0:
256,192,433419,1,0,0:0:0:0:
256,192,433502,1,8,0:0:0:0:
256,192,433584,1,0,0:0:0:0:
256,192,433666,1,0,0:0:0:0:
256,192,433831,1,4,0:0:0:0:
256,192,434078,1,8,0:0:0:0:
256,192,434161,1,0,0:0:0:0:
256,192,434326,1,8,0:0:0:0:
256,192,434655,1,0,0:0:0:0:
256,192,434738,1,0,0:0:0:0:
256,192,434820,1,8,0:0:0:0:
256,192,434985,1,8,0:0:0:0:
256,192,435315,1,0,0:0:0:0:
256,192,435397,1,0,0:0:0:0:
256,192,435480,1,8,0:0:0:0:
256,192,435589,1,8,0:0:0:0:
256,192,435699,1,8,0:0:0:0:
256,192,435809,1,0,0:0:0:0:
256,192,435919,1,0,0:0:0:0:
256,192,436029,1,0,0:0:0:0:
256,192,436139,1,4,0:0:0:0:
256,192,436634,1,8,0:0:0:0:
256,192,436799,1,0,0:0:0:0:
256,192,436964,1,0,0:0:0:0:
256,192,437046,1,0,0:0:0:0:
256,192,437129,1,0,0:0:0:0:
256,192,437458,1,12,0:0:0:0:
256,192,437788,1,4,0:0:0:0:
256,192,438118,1,0,0:0:0:0:
256,192,438282,1,8,0:0:0:0:
256,192,438612,1,0,0:0:0:0:
256,192,438777,1,0,0:0:0:0:
256,192,439107,1,8,0:0:0:0:
256,192,439271,1,8,0:0:0:0:
256,192,439436,1,4,0:0:0:0:
256,192,439766,1,0,0:0:0:0:
256,192,439931,1,8,0:0:0:0:
256,192,440260,1,0,0:0:0:0:
256,192,440425,1,0,0:0:0:0:
256,192,440755,1,0,0:0:0:0:
256,192,440920,1,8,0:0:0:0:
256,192,441085,1,4,0:0:0:0:
256,192,441414,1,0,0:0:0:0:
256,192,441579,1,8,0:0:0:0:
256,192,441909,1,0,0:0:0:0:
256,192,441991,1,0,0:0:0:0:
256,192,442074,1,8,0:0:0:0:
256,192,442238,1,0,0:0:0:0:
256,192,442403,1,8,0:0:0:0:
256,192,442568,1,0,0:0:0:0:
256,192,442733,1,4,0:0:0:0:
256,192,443063,1,8,0:0:0:0:
256,192,443227,1,8,0:0:0:0:
256,192,443392,1,0,0:0:0:0:
256,192,443557,1,0,0:0:0:0:
256,192,443722,1,0,0:0:0:0:
256,192,444052,1,8,0:0:0:0:
256,192,444381,1,4,0:0:0:0:
256,192,444711,1,8,0:0:0:0:
256,192,444876,1,8,0:0:0:0:
256,192,445041,1,0,0:0:0:0:
256,192,445205,1,0,0:0:0:0:
256,192,445370,1,0,0:0:0:0:
256,192,445700,1,8,0:0:0:0:
256,192,446030,1,4,0:0:0:0:
256,192,446359,1,8,0:0:0:0:
256,192,446524,1,8,0:0:0:0:
256,192,446689,1,0,0:0:0:0:
256,192,446854,1,0,0:0:0:0:
256,192,447019,1,0,0:0:0:0:
256,192,447348,1,8,0:0:0:0:
256,192,447678,1,4,0:0:0:0:
256,192,448172,1,4,0:0:0:0:
256,192,448502,1,0,0:0:0:0:
256,192,448667,1,12,0:0:0:0:
256,192,448831,1,0,0:0:0:0:
256,192,449161,1,0,0:0:0:0:
256,192,449326,1,0,0:0:0:0:
256,192,449491,1,0,0:0:0:0:
256,192,449656,1,4,0:0:0:0:
256,192,449820,12,0,458227,0:0:0:0:
