osu file format v14

[General]
AudioFilename: styx.mp3
AudioLeadIn: 0
PreviewTime: 79114
Countdown: 0
SampleSet: Normal
StackLeniency: 0.7
Mode: 3
LetterboxInBreaks: 1
SpecialStyle: 0
WidescreenStoryboard: 1

[Editor]
Bookmarks: 296695,446035
DistanceSpacing: 0.8
BeatDivisor: 4
GridSize: 4
TimelineZoom: 2.2

[Metadata]
Title:Higan Retour ~ View of The River Styx
TitleUnicode:彼岸帰航 ~ View of The River Styx
Artist:Demetori
ArtistUnicode:Demetori
Creator:JamesHappy
Version:Phantasm
Source:東方Project
Tags:Nada Upasana Pundarika Riverside Phantasmagoria Flower TH09 Kikou 小野塚小町 Komachi Onoduka 東方花映塚 Kaeiduka
BeatmapID:1201299
BeatmapSetID:567160

[Difficulty]
HPDrainRate:8.4
CircleSize:4
OverallDifficulty:8.3
ApproachRate:5
SliderMultiplier:1.4
SliderTickRate:1

[Events]
//Background and Video events
0,0,"Konachan.com - 98484 sample.jpg",0,0
//Break Periods
2,221069,228241
//Storyboard Layer 0 (Background)
//Storyboard Layer 1 (Fail)
//Storyboard Layer 2 (Pass)
//Storyboard Layer 3 (Foreground)
//Storyboard Sound Samples

[TimingPoints]
-5,329.67032967033,4,1,0,80,1,0
51093,329.67032967033,4,1,0,80,1,0
72191,329.67032967033,5,1,0,80,1,0
73839,329.67032967033,6,1,0,80,1,0
75817,329.67032967033,5,1,0,80,1,0
79114,329.67032967033,4,1,0,80,1,0
142410,329.67032967033,6,1,0,80,1,0
144388,329.67032967033,4,1,0,80,1,0
149662,329.67032967033,5,1,0,80,1,0
151310,329.67032967033,4,1,0,80,1,0
161859,329.67032967033,5,1,0,80,1,0
163507,329.67032967033,4,1,0,80,1,0
197792,-100,4,1,0,80,0,1
218891,-100,4,1,0,80,0,0
238015,329.67032967033,4,1,0,80,1,8
243289,329.67032967033,6,1,0,80,1,0
245267,329.67032967033,7,1,0,80,1,0
247575,329.67032967033,6,1,0,80,1,0
249553,329.67032967033,7,1,0,80,1,0
251860,329.67032967033,4,1,0,80,1,0
265046,-100,4,1,0,80,0,1
307244,-100,4,1,0,80,0,0
370541,-100,4,1,0,80,0,1
412739,329.67032967033,6,1,0,80,1,0
414717,329.67032967033,4,1,0,80,1,0
419991,329.67032967033,6,1,0,80,1,0
421969,329.67032967033,4,1,0,80,1,0
424606,329.67032967033,6,1,0,80,1,0
428562,329.67032967033,4,1,0,80,1,0
436145,329.67032967033,5,1,0,80,1,0
447683,329.67032967033,6,1,0,80,1,0
449661,329.67032967033,4,1,0,80,1,0

[HitObjects]
64,192,22412,5,0,0:0:0:0:
320,192,22412,1,0,0:0:0:0:
448,192,22412,1,0,0:0:0:0:
192,192,22495,1,0,0:0:0:0:
64,192,22577,1,0,0:0:0:0:
448,192,22577,1,0,0:0:0:0:
64,192,22742,1,0,0:0:0:0:
192,192,22742,1,0,0:0:0:0:
320,192,22742,1,0,0:0:0:0:
320,192,22907,1,0,0:0:0:0:
448,192,22907,1,0,0:0:0:0:
64,192,22989,1,0,0:0:0:0:
192,192,23071,1,0,0:0:0:0:
448,192,23071,1,0,0:0:0:0:
64,192,23401,1,0,0:0:0:0:
320,192,23401,1,0,0:0:0:0:
448,192,23401,1,0,0:0:0:0:
192,192,23484,1,0,0:0:0:0:
320,192,23566,1,0,0:0:0:0:
448,192,23566,1,0,0:0:0:0:
64,192,23896,1,0,0:0:0:0:
192,192,23896,1,0,0:0:0:0:
64,192,24060,1,0,0:0:0:0:
320,192,24060,1,0,0:0:0:0:
448,192,24060,1,0,0:0:0:0:
192,192,24225,1,0,0:0:0:0:
64,192,24225,1,0,0:0:0:0:
320,192,24308,1,0,0:0:0:0:
192,192,24390,1,0,0:0:0:0:
448,192,24390,1,0,0:0:0:0:
64,192,24473,1,0,0:0:0:0:
320,192,24555,1,0,0:0:0:0:
448,192,24555,1,0,0:0:0:0:
192,192,24637,1,0,0:0:0:0:
64,192,24720,1,0,0:0:0:0:
448,192,24720,128,0,25049:0:0:0:0:
320,192,24720,1,0,0:0:0:0:
192,192,25049,1,0,0:0:0:0:
64,192,25049,1,0,0:0:0:0:
320,192,25132,1,0,0:0:0:0:
448,192,25214,1,0,0:0:0:0:
64,192,25214,1,0,0:0:0:0:
448,192,25379,1,0,0:0:0:0:
320,192,25379,1,0,0:0:0:0:
192,192,25379,1,0,0:0:0:0:
320,192,25544,1,0,0:0:0:0:
64,192,25544,1,0,0:0:0:0:
448,192,25626,1,0,0:0:0:0:
192,192,25709,1,0,0:0:0:0:
64,192,25709,1,0,0:0:0:0:
448,192,26038,1,0,0:0:0:0:
320,192,26038,1,0,0:0:0:0:
64,192,26038,1,0,0:0:0:0:
192,192,26121,1,0,0:0:0:0:
448,192,26203,1,0,0:0:0:0:
64,192,26203,1,0,0:0:0:0:
192,192,26533,1,0,0:0:0:0:
320,192,26533,1,0,0:0:0:0:
448,192,26698,1,0,0:0:0:0:
192,192,26698,1,0,0:0:0:0:
64,192,26698,1,0,0:0:0:0:
192,192,26863,1,0,0:0:0:0:
448,192,26863,1,0,0:0:0:0:
64,192,26945,1,0,0:0:0:0:
320,192,27027,1,0,0:0:0:0:
448,192,27027,1,0,0:0:0:0:
192,192,27110,1,0,0:0:0:0:
320,192,27192,1,0,0:0:0:0:
64,192,27192,1,0,0:0:0:0:
448,192,27275,1,0,0:0:0:0:
320,192,27357,1,0,0:0:0:0:
64,192,27357,128,0,27687:0:0:0:0:
192,192,27357,1,0,0:0:0:0:
320,192,27687,1,0,0:0:0:0:
448,192,27687,1,0,0:0:0:0:
192,192,27769,1,0,0:0:0:0:
64,192,27852,1,0,0:0:0:0:
448,192,27852,1,0,0:0:0:0:
64,192,28016,1,0,0:0:0:0:
320,192,28016,1,0,0:0:0:0:
192,192,28016,1,0,0:0:0:0:
192,192,28181,1,0,0:0:0:0:
448,192,28181,1,0,0:0:0:0:
64,192,28264,1,0,0:0:0:0:
320,192,28346,1,0,0:0:0:0:
448,192,28346,1,0,0:0:0:0:
64,192,28676,1,0,0:0:0:0:
320,192,28676,1,0,0:0:0:0:
192,192,28676,1,0,0:0:0:0:
448,192,28758,1,0,0:0:0:0:
64,192,28841,1,0,0:0:0:0:
192,192,28841,1,0,0:0:0:0:
64,192,29170,1,0,0:0:0:0:
320,192,29170,1,0,0:0:0:0:
64,192,29335,1,0,0:0:0:0:
192,192,29335,1,0,0:0:0:0:
448,192,29335,1,0,0:0:0:0:
320,192,29500,1,0,0:0:0:0:
64,192,29500,1,0,0:0:0:0:
192,192,29582,1,0,0:0:0:0:
320,192,29665,1,0,0:0:0:0:
448,192,29665,1,0,0:0:0:0:
192,192,29747,1,0,0:0:0:0:
320,192,29830,1,0,0:0:0:0:
448,192,29830,1,0,0:0:0:0:
64,192,29912,1,0,0:0:0:0:
192,192,29995,1,0,0:0:0:0:
448,192,29995,128,0,30324:0:0:0:0:
320,192,29995,1,0,0:0:0:0:
320,192,30324,1,0,0:0:0:0:
64,192,30324,1,0,0:0:0:0:
192,192,30407,1,0,0:0:0:0:
448,192,30489,1,0,0:0:0:0:
64,192,30489,1,0,0:0:0:0:
448,192,30654,1,0,0:0:0:0:
320,192,30654,1,0,0:0:0:0:
192,192,30654,1,0,0:0:0:0:
192,192,30819,1,0,0:0:0:0:
64,192,30819,1,0,0:0:0:0:
448,192,30901,1,0,0:0:0:0:
320,192,30984,1,0,0:0:0:0:
64,192,30984,1,0,0:0:0:0:
448,192,31313,1,0,0:0:0:0:
192,192,31313,1,0,0:0:0:0:
64,192,31313,1,0,0:0:0:0:
320,192,31396,1,0,0:0:0:0:
192,192,31478,1,0,0:0:0:0:
64,192,31478,1,0,0:0:0:0:
448,192,31808,1,0,0:0:0:0:
320,192,31808,1,0,0:0:0:0:
448,192,31973,1,0,0:0:0:0:
192,192,31973,1,0,0:0:0:0:
64,192,31973,1,0,0:0:0:0:
320,192,32137,1,0,0:0:0:0:
448,192,32137,1,0,0:0:0:0:
192,192,32220,1,0,0:0:0:0:
320,192,32302,1,0,0:0:0:0:
64,192,32302,1,0,0:0:0:0:
448,192,32385,1,0,0:0:0:0:
192,192,32467,1,0,0:0:0:0:
64,192,32467,1,0,0:0:0:0:
320,192,32549,1,0,0:0:0:0:
64,192,32632,1,0,0:0:0:0:
192,192,32632,128,0,32962:0:0:0:0:
448,192,32632,1,0,0:0:0:0:
320,192,32962,1,0,0:0:0:0:
64,192,32962,1,0,0:0:0:0:
448,192,32962,1,0,0:0:0:0:
192,192,33044,1,0,0:0:0:0:
320,192,33126,1,0,0:0:0:0:
448,192,33126,1,0,0:0:0:0:
64,192,33291,1,0,0:0:0:0:
192,192,33291,1,0,0:0:0:0:
448,192,33291,1,0,0:0:0:0:
192,192,33456,1,0,0:0:0:0:
320,192,33456,1,0,0:0:0:0:
64,192,33538,1,0,0:0:0:0:
192,192,33621,1,0,0:0:0:0:
448,192,33621,1,0,0:0:0:0:
64,192,33951,1,0,0:0:0:0:
320,192,33951,1,0,0:0:0:0:
448,192,33951,1,0,0:0:0:0:
192,192,34033,1,0,0:0:0:0:
64,192,34115,1,0,0:0:0:0:
320,192,34115,1,0,0:0:0:0:
64,192,34445,1,0,0:0:0:0:
192,192,34445,1,0,0:0:0:0:
64,192,34610,1,0,0:0:0:0:
320,192,34610,1,0,0:0:0:0:
448,192,34610,1,0,0:0:0:0:
192,192,34775,1,0,0:0:0:0:
64,192,34775,1,0,0:0:0:0:
320,192,34857,1,0,0:0:0:0:
192,192,34940,1,0,0:0:0:0:
448,192,34940,1,0,0:0:0:0:
64,192,35022,1,0,0:0:0:0:
192,192,35104,1,0,0:0:0:0:
448,192,35104,1,0,0:0:0:0:
320,192,35187,1,0,0:0:0:0:
64,192,35269,1,0,0:0:0:0:
448,192,35269,128,0,35599:0:0:0:0:
192,192,35269,1,0,0:0:0:0:
192,192,35599,1,0,0:0:0:0:
64,192,35599,1,0,0:0:0:0:
320,192,35681,1,0,0:0:0:0:
448,192,35764,1,0,0:0:0:0:
64,192,35764,1,0,0:0:0:0:
448,192,35929,1,0,0:0:0:0:
320,192,35929,1,0,0:0:0:0:
192,192,35929,1,0,0:0:0:0:
192,192,36093,1,0,0:0:0:0:
64,192,36093,1,0,0:0:0:0:
192,192,36423,1,0,0:0:0:0:
448,192,36423,1,0,0:0:0:0:
448,192,36588,1,0,0:0:0:0:
64,192,36588,1,0,0:0:0:0:
192,192,36588,1,0,0:0:0:0:
320,192,36670,1,0,0:0:0:0:
192,192,36753,1,0,0:0:0:0:
64,192,36753,1,0,0:0:0:0:
448,192,37082,1,0,0:0:0:0:
320,192,37082,1,0,0:0:0:0:
448,192,37247,1,0,0:0:0:0:
192,192,37247,1,0,0:0:0:0:
64,192,37247,1,0,0:0:0:0:
320,192,37412,1,0,0:0:0:0:
448,192,37412,1,0,0:0:0:0:
192,192,37495,1,0,0:0:0:0:
320,192,37577,1,0,0:0:0:0:
64,192,37577,1,0,0:0:0:0:
448,192,37659,1,0,0:0:0:0:
192,192,37742,1,0,0:0:0:0:
64,192,37742,1,0,0:0:0:0:
320,192,37824,1,0,0:0:0:0:
448,192,37907,1,0,0:0:0:0:
64,192,37907,1,0,0:0:0:0:
192,192,37989,1,0,0:0:0:0:
320,192,37989,1,0,0:0:0:0:
448,192,38071,1,0,0:0:0:0:
64,192,38071,1,0,0:0:0:0:
320,192,38154,1,0,0:0:0:0:
192,192,38236,1,0,0:0:0:0:
448,192,38236,1,0,0:0:0:0:
64,192,38236,1,0,0:0:0:0:
320,192,38319,1,0,0:0:0:0:
64,192,38401,1,0,0:0:0:0:
192,192,38401,1,0,0:0:0:0:
64,192,38566,1,0,0:0:0:0:
192,192,38566,1,0,0:0:0:0:
448,192,38566,1,0,0:0:0:0:
320,192,38731,1,0,0:0:0:0:
448,192,38731,1,0,0:0:0:0:
64,192,38813,1,0,0:0:0:0:
192,192,38896,1,0,0:0:0:0:
448,192,38896,1,0,0:0:0:0:
64,192,39225,1,0,0:0:0:0:
192,192,39225,1,0,0:0:0:0:
448,192,39225,1,0,0:0:0:0:
320,192,39308,1,0,0:0:0:0:
64,192,39390,1,0,0:0:0:0:
448,192,39390,1,0,0:0:0:0:
64,192,39720,1,0,0:0:0:0:
320,192,39720,1,0,0:0:0:0:
64,192,39885,1,0,0:0:0:0:
192,192,39885,1,0,0:0:0:0:
448,192,39885,1,0,0:0:0:0:
320,192,40049,1,0,0:0:0:0:
64,192,40049,1,0,0:0:0:0:
192,192,40132,1,0,0:0:0:0:
320,192,40214,1,0,0:0:0:0:
448,192,40214,1,0,0:0:0:0:
64,192,40297,1,0,0:0:0:0:
320,192,40379,1,0,0:0:0:0:
448,192,40379,1,0,0:0:0:0:
192,192,40462,1,0,0:0:0:0:
64,192,40544,1,0,0:0:0:0:
448,192,40544,128,0,40874:0:0:0:0:
320,192,40544,1,0,0:0:0:0:
192,192,40874,1,0,0:0:0:0:
64,192,40874,1,0,0:0:0:0:
320,192,40956,1,0,0:0:0:0:
448,192,41038,1,0,0:0:0:0:
64,192,41038,1,0,0:0:0:0:
448,192,41203,1,0,0:0:0:0:
320,192,41203,1,0,0:0:0:0:
64,192,41203,1,0,0:0:0:0:
192,192,41368,1,0,0:0:0:0:
448,192,41368,1,0,0:0:0:0:
64,192,41698,1,0,0:0:0:0:
192,192,41698,1,0,0:0:0:0:
320,192,41780,1,0,0:0:0:0:
448,192,41863,1,0,0:0:0:0:
192,192,41863,1,0,0:0:0:0:
64,192,41863,1,0,0:0:0:0:
320,192,41945,1,0,0:0:0:0:
448,192,42027,1,0,0:0:0:0:
64,192,42027,1,0,0:0:0:0:
448,192,42357,1,0,0:0:0:0:
320,192,42357,1,0,0:0:0:0:
448,192,42522,1,0,0:0:0:0:
192,192,42522,1,0,0:0:0:0:
64,192,42522,1,0,0:0:0:0:
320,192,42687,1,0,0:0:0:0:
448,192,42687,1,0,0:0:0:0:
192,192,42769,1,0,0:0:0:0:
320,192,42852,1,0,0:0:0:0:
64,192,42852,1,0,0:0:0:0:
448,192,42934,1,0,0:0:0:0:
192,192,43016,1,0,0:0:0:0:
64,192,43016,1,0,0:0:0:0:
320,192,43099,1,0,0:0:0:0:
448,192,43181,1,0,0:0:0:0:
192,192,43181,1,0,0:0:0:0:
64,192,43264,1,0,0:0:0:0:
320,192,43264,1,0,0:0:0:0:
192,192,43346,1,0,0:0:0:0:
448,192,43346,1,0,0:0:0:0:
64,192,43429,1,0,0:0:0:0:
448,192,43511,1,0,0:0:0:0:
320,192,43511,1,0,0:0:0:0:
192,192,43511,1,0,0:0:0:0:
64,192,43593,1,0,0:0:0:0:
448,192,43676,1,0,0:0:0:0:
320,192,43841,1,0,0:0:0:0:
64,192,43841,1,0,0:0:0:0:
448,192,44005,1,0,0:0:0:0:
320,192,44005,1,0,0:0:0:0:
64,192,44088,1,0,0:0:0:0:
448,192,44170,1,0,0:0:0:0:
192,192,44170,1,0,0:0:0:0:
320,192,44500,1,0,0:0:0:0:
64,192,44500,1,0,0:0:0:0:
448,192,44500,1,0,0:0:0:0:
192,192,44582,1,0,0:0:0:0:
448,192,44665,1,0,0:0:0:0:
320,192,44665,1,0,0:0:0:0:
192,192,44995,1,0,0:0:0:0:
64,192,44995,1,0,0:0:0:0:
448,192,45159,1,0,0:0:0:0:
320,192,45159,1,0,0:0:0:0:
64,192,45159,1,0,0:0:0:0:
64,192,45324,1,0,0:0:0:0:
320,192,45324,1,0,0:0:0:0:
192,192,45407,1,0,0:0:0:0:
448,192,45489,1,0,0:0:0:0:
320,192,45489,1,0,0:0:0:0:
64,192,45571,1,0,0:0:0:0:
448,192,45654,1,0,0:0:0:0:
192,192,45654,1,0,0:0:0:0:
320,192,45736,1,0,0:0:0:0:
448,192,45819,128,0,46148:0:0:0:0:
64,192,45819,1,0,0:0:0:0:
192,192,45819,1,0,0:0:0:0:
64,192,46148,1,0,0:0:0:0:
192,192,46148,1,0,0:0:0:0:
320,192,46231,1,0,0:0:0:0:
64,192,46313,1,0,0:0:0:0:
448,192,46313,1,0,0:0:0:0:
320,192,46478,1,0,0:0:0:0:
448,192,46478,1,0,0:0:0:0:
192,192,46478,1,0,0:0:0:0:
64,192,46643,1,0,0:0:0:0:
192,192,46643,1,0,0:0:0:0:
448,192,46725,1,0,0:0:0:0:
64,192,46808,1,0,0:0:0:0:
320,192,46808,1,0,0:0:0:0:
320,192,47137,1,0,0:0:0:0:
448,192,47137,1,0,0:0:0:0:
64,192,47137,1,0,0:0:0:0:
192,192,47220,1,0,0:0:0:0:
64,192,47302,1,0,0:0:0:0:
448,192,47302,1,0,0:0:0:0:
320,192,47632,1,0,0:0:0:0:
448,192,47632,1,0,0:0:0:0:
64,192,47797,1,0,0:0:0:0:
192,192,47797,1,0,0:0:0:0:
448,192,47797,1,0,0:0:0:0:
448,192,47962,1,0,0:0:0:0:
320,192,47962,1,0,0:0:0:0:
64,192,48126,1,0,0:0:0:0:
320,192,48126,1,0,0:0:0:0:
192,192,48374,1,0,0:0:0:0:
320,192,48374,1,0,0:0:0:0:
448,192,48621,1,0,0:0:0:0:
192,192,48621,1,0,0:0:0:0:
320,192,48786,128,0,48951:0:0:0:0:
192,192,48951,128,0,49115:0:0:0:0:
320,192,49115,128,0,49610:0:0:0:0:
192,192,49280,128,0,49775:0:0:0:0:
320,192,49775,1,0,0:0:0:0:
448,192,49775,1,0,0:0:0:0:
64,192,49775,1,0,0:0:0:0:
448,192,49940,1,0,0:0:0:0:
192,192,49940,1,0,0:0:0:0:
448,192,50104,1,0,0:0:0:0:
320,192,50104,1,0,0:0:0:0:
64,192,50269,1,0,0:0:0:0:
192,192,50269,1,0,0:0:0:0:
320,192,50269,1,0,0:0:0:0:
448,192,50599,1,0,0:0:0:0:
192,192,50599,1,0,0:0:0:0:
320,192,50681,1,0,0:0:0:0:
192,192,50764,1,0,0:0:0:0:
448,192,50764,1,0,0:0:0:0:
64,192,50764,128,0,51093:0:0:0:0:
320,192,51093,1,0,0:0:0:0:
448,192,51093,1,0,0:0:0:0:
192,192,51093,1,0,0:0:0:0:
320,192,51257,1,0,0:0:0:0:
448,192,51257,1,0,0:0:0:0:
64,192,51422,1,0,0:0:0:0:
192,192,51422,1,0,0:0:0:0:
448,192,51422,1,0,0:0:0:0:
192,192,51587,1,0,0:0:0:0:
320,192,51587,1,0,0:0:0:0:
192,192,51752,1,0,0:0:0:0:
320,192,51752,1,0,0:0:0:0:
192,192,51917,1,0,0:0:0:0:
320,192,51917,1,0,0:0:0:0:
64,192,52082,1,0,0:0:0:0:
320,192,52082,1,0,0:0:0:0:
448,192,52082,1,0,0:0:0:0:
64,192,52246,1,0,0:0:0:0:
192,192,52246,1,0,0:0:0:0:
64,192,52411,1,0,0:0:0:0:
192,192,52411,1,0,0:0:0:0:
64,192,52576,1,0,0:0:0:0:
192,192,52576,1,0,0:0:0:0:
192,192,52741,1,0,0:0:0:0:
320,192,52741,1,0,0:0:0:0:
448,192,52741,1,0,0:0:0:0:
64,192,52906,1,0,0:0:0:0:
320,192,52906,1,0,0:0:0:0:
64,192,53071,1,0,0:0:0:0:
320,192,53071,1,0,0:0:0:0:
64,192,53235,1,0,0:0:0:0:
320,192,53235,1,0,0:0:0:0:
192,192,53400,1,0,0:0:0:0:
64,192,53400,1,0,0:0:0:0:
448,192,53400,1,0,0:0:0:0:
192,192,53565,1,0,0:0:0:0:
448,192,53565,1,0,0:0:0:0:
192,192,53730,1,0,0:0:0:0:
448,192,53730,1,0,0:0:0:0:
192,192,53895,1,0,0:0:0:0:
448,192,53895,1,0,0:0:0:0:
64,192,54060,1,0,0:0:0:0:
320,192,54060,1,0,0:0:0:0:
448,192,54060,1,0,0:0:0:0:
64,192,54224,1,0,0:0:0:0:
192,192,54224,1,0,0:0:0:0:
192,192,54389,1,0,0:0:0:0:
320,192,54389,1,0,0:0:0:0:
320,192,54554,1,0,0:0:0:0:
448,192,54554,1,0,0:0:0:0:
64,192,54719,1,0,0:0:0:0:
192,192,54719,1,0,0:0:0:0:
448,192,54719,1,0,0:0:0:0:
448,192,54884,1,0,0:0:0:0:
320,192,54884,1,0,0:0:0:0:
192,192,55049,1,0,0:0:0:0:
320,192,55049,1,0,0:0:0:0:
64,192,55213,1,0,0:0:0:0:
192,192,55213,1,0,0:0:0:0:
64,192,55378,1,0,0:0:0:0:
320,192,55378,1,0,0:0:0:0:
448,192,55378,1,0,0:0:0:0:
192,192,55543,1,0,0:0:0:0:
320,192,55543,1,0,0:0:0:0:
320,192,55708,1,0,0:0:0:0:
64,192,55708,1,0,0:0:0:0:
64,192,55873,1,0,0:0:0:0:
192,192,55873,1,0,0:0:0:0:
64,192,56038,1,0,0:0:0:0:
320,192,56038,1,0,0:0:0:0:
448,192,56038,1,0,0:0:0:0:
320,192,56202,1,0,0:0:0:0:
192,192,56202,1,0,0:0:0:0:
192,192,56367,1,0,0:0:0:0:
448,192,56367,1,0,0:0:0:0:
320,192,56532,1,0,0:0:0:0:
448,192,56532,1,0,0:0:0:0:
64,192,56697,1,0,0:0:0:0:
192,192,56697,1,0,0:0:0:0:
448,192,56697,1,0,0:0:0:0:
64,192,56862,1,0,0:0:0:0:
320,192,56862,1,0,0:0:0:0:
192,192,57027,1,0,0:0:0:0:
448,192,57027,1,0,0:0:0:0:
64,192,57191,1,0,0:0:0:0:
320,192,57191,1,0,0:0:0:0:
64,192,57356,1,0,0:0:0:0:
320,192,57356,1,0,0:0:0:0:
448,192,57356,1,0,0:0:0:0:
192,192,57521,1,0,0:0:0:0:
448,192,57521,1,0,0:0:0:0:
64,192,57686,1,0,0:0:0:0:
320,192,57686,1,0,0:0:0:0:
192,192,57851,1,0,0:0:0:0:
448,192,57851,1,0,0:0:0:0:
64,192,58016,1,0,0:0:0:0:
192,192,58016,1,0,0:0:0:0:
448,192,58016,1,0,0:0:0:0:
320,192,58180,1,0,0:0:0:0:
448,192,58180,1,0,0:0:0:0:
64,192,58345,1,0,0:0:0:0:
320,192,58345,1,0,0:0:0:0:
64,192,58510,1,0,0:0:0:0:
192,192,58510,1,0,0:0:0:0:
320,192,58675,1,0,0:0:0:0:
448,192,58675,1,0,0:0:0:0:
64,192,58675,1,0,0:0:0:0:
64,192,58840,1,0,0:0:0:0:
192,192,58840,1,0,0:0:0:0:
192,192,59005,1,0,0:0:0:0:
448,192,59005,1,0,0:0:0:0:
320,192,59169,1,0,0:0:0:0:
448,192,59169,1,0,0:0:0:0:
64,192,59334,1,0,0:0:0:0:
192,192,59334,1,0,0:0:0:0:
448,192,59334,1,0,0:0:0:0:
320,192,59499,1,0,0:0:0:0:
64,192,59499,1,0,0:0:0:0:
320,192,59664,1,0,0:0:0:0:
448,192,59664,1,0,0:0:0:0:
64,192,59829,1,0,0:0:0:0:
320,192,59829,1,0,0:0:0:0:
64,192,59994,1,0,0:0:0:0:
320,192,59994,1,0,0:0:0:0:
448,192,59994,1,0,0:0:0:0:
448,192,60158,1,0,0:0:0:0:
192,192,60158,1,0,0:0:0:0:
192,192,60323,1,0,0:0:0:0:
64,192,60323,1,0,0:0:0:0:
192,192,60488,1,0,0:0:0:0:
448,192,60488,1,0,0:0:0:0:
448,192,60653,1,0,0:0:0:0:
64,192,60653,1,0,0:0:0:0:
192,192,60653,1,0,0:0:0:0:
320,192,60818,1,0,0:0:0:0:
64,192,60818,1,0,0:0:0:0:
192,192,60983,1,0,0:0:0:0:
320,192,60983,1,0,0:0:0:0:
64,192,61147,128,0,61312:0:0:0:0:
448,192,61147,1,0,0:0:0:0:
192,192,61312,1,0,0:0:0:0:
320,192,61395,1,0,0:0:0:0:
64,192,61477,1,0,0:0:0:0:
448,192,61560,1,0,0:0:0:0:
192,192,61642,1,0,0:0:0:0:
320,192,61642,1,0,0:0:0:0:
64,192,61642,1,0,0:0:0:0:
192,192,61807,1,0,0:0:0:0:
64,192,61807,1,0,0:0:0:0:
448,192,61972,1,0,0:0:0:0:
320,192,61972,1,0,0:0:0:0:
64,192,61972,1,0,0:0:0:0:
320,192,62136,1,0,0:0:0:0:
192,192,62136,1,0,0:0:0:0:
320,192,62301,1,0,0:0:0:0:
192,192,62301,1,0,0:0:0:0:
320,192,62466,1,0,0:0:0:0:
192,192,62466,1,0,0:0:0:0:
64,192,62631,1,0,0:0:0:0:
448,192,62631,1,0,0:0:0:0:
192,192,62631,1,0,0:0:0:0:
448,192,62796,1,0,0:0:0:0:
320,192,62796,1,0,0:0:0:0:
448,192,62961,1,0,0:0:0:0:
320,192,62961,1,0,0:0:0:0:
320,192,63125,1,0,0:0:0:0:
448,192,63125,1,0,0:0:0:0:
192,192,63290,1,0,0:0:0:0:
64,192,63290,1,0,0:0:0:0:
320,192,63290,1,0,0:0:0:0:
448,192,63455,1,0,0:0:0:0:
192,192,63455,1,0,0:0:0:0:
448,192,63620,1,0,0:0:0:0:
192,192,63620,1,0,0:0:0:0:
448,192,63785,1,0,0:0:0:0:
192,192,63785,1,0,0:0:0:0:
320,192,63950,1,0,0:0:0:0:
64,192,63950,1,0,0:0:0:0:
448,192,63950,1,0,0:0:0:0:
320,192,64114,1,0,0:0:0:0:
64,192,64114,1,0,0:0:0:0:
64,192,64279,1,0,0:0:0:0:
320,192,64279,1,0,0:0:0:0:
320,192,64444,1,0,0:0:0:0:
64,192,64444,1,0,0:0:0:0:
448,192,64609,1,0,0:0:0:0:
192,192,64609,1,0,0:0:0:0:
64,192,64609,1,0,0:0:0:0:
448,192,64774,1,0,0:0:0:0:
320,192,64774,1,0,0:0:0:0:
192,192,64939,1,0,0:0:0:0:
320,192,64939,1,0,0:0:0:0:
64,192,65103,1,0,0:0:0:0:
192,192,65103,1,0,0:0:0:0:
448,192,65268,1,0,0:0:0:0:
320,192,65268,1,0,0:0:0:0:
64,192,65268,1,0,0:0:0:0:
64,192,65433,1,0,0:0:0:0:
192,192,65433,1,0,0:0:0:0:
320,192,65598,1,0,0:0:0:0:
192,192,65598,1,0,0:0:0:0:
320,192,65763,1,0,0:0:0:0:
448,192,65763,1,0,0:0:0:0:
192,192,65928,1,0,0:0:0:0:
448,192,65928,1,0,0:0:0:0:
64,192,65928,1,0,0:0:0:0:
192,192,66093,1,0,0:0:0:0:
320,192,66093,1,0,0:0:0:0:
192,192,66257,1,0,0:0:0:0:
448,192,66257,1,0,0:0:0:0:
320,192,66422,1,0,0:0:0:0:
448,192,66422,1,0,0:0:0:0:
448,192,66587,1,0,0:0:0:0:
192,192,66587,1,0,0:0:0:0:
64,192,66587,1,0,0:0:0:0:
320,192,66669,1,0,0:0:0:0:
192,192,66752,1,0,0:0:0:0:
448,192,66752,1,0,0:0:0:0:
320,192,66834,1,0,0:0:0:0:
448,192,66917,1,0,0:0:0:0:
64,192,66917,1,0,0:0:0:0:
192,192,66917,1,0,0:0:0:0:
64,192,67082,1,0,0:0:0:0:
192,192,67082,1,0,0:0:0:0:
320,192,67246,1,0,0:0:0:0:
448,192,67246,1,0,0:0:0:0:
64,192,67246,1,0,0:0:0:0:
448,192,67411,1,0,0:0:0:0:
192,192,67411,1,0,0:0:0:0:
320,192,67576,1,0,0:0:0:0:
64,192,67576,1,0,0:0:0:0:
448,192,67741,1,0,0:0:0:0:
192,192,67741,1,0,0:0:0:0:
448,192,67906,1,0,0:0:0:0:
192,192,67906,1,0,0:0:0:0:
64,192,67906,1,0,0:0:0:0:
320,192,68071,1,0,0:0:0:0:
64,192,68071,1,0,0:0:0:0:
448,192,68235,1,0,0:0:0:0:
192,192,68235,1,0,0:0:0:0:
320,192,68400,1,0,0:0:0:0:
64,192,68400,1,0,0:0:0:0:
448,192,68565,1,0,0:0:0:0:
320,192,68565,1,0,0:0:0:0:
64,192,68565,1,0,0:0:0:0:
192,192,68730,1,0,0:0:0:0:
64,192,68730,1,0,0:0:0:0:
448,192,68895,1,0,0:0:0:0:
192,192,68895,1,0,0:0:0:0:
320,192,69060,1,0,0:0:0:0:
448,192,69060,1,0,0:0:0:0:
192,192,69224,1,0,0:0:0:0:
64,192,69224,1,0,0:0:0:0:
448,192,69224,1,0,0:0:0:0:
448,192,69389,1,0,0:0:0:0:
320,192,69389,1,0,0:0:0:0:
320,192,69554,1,0,0:0:0:0:
64,192,69554,1,0,0:0:0:0:
192,192,69719,1,0,0:0:0:0:
64,192,69719,1,0,0:0:0:0:
64,192,69884,1,0,0:0:0:0:
448,192,69884,1,0,0:0:0:0:
320,192,69884,1,0,0:0:0:0:
448,192,70049,1,0,0:0:0:0:
192,192,70049,1,0,0:0:0:0:
192,192,70213,1,0,0:0:0:0:
64,192,70213,1,0,0:0:0:0:
192,192,70378,1,0,0:0:0:0:
448,192,70378,1,0,0:0:0:0:
192,192,70543,1,0,0:0:0:0:
448,192,70543,1,0,0:0:0:0:
64,192,70543,1,0,0:0:0:0:
64,192,70708,1,0,0:0:0:0:
320,192,70708,1,0,0:0:0:0:
320,192,70873,1,0,0:0:0:0:
448,192,70873,1,0,0:0:0:0:
192,192,70873,1,0,0:0:0:0:
192,192,71038,1,0,0:0:0:0:
320,192,71202,1,0,0:0:0:0:
64,192,71202,1,0,0:0:0:0:
448,192,71202,1,0,0:0:0:0:
448,192,71367,1,0,0:0:0:0:
192,192,71367,1,0,0:0:0:0:
320,192,71532,1,0,0:0:0:0:
192,192,71532,1,0,0:0:0:0:
64,192,71697,1,0,0:0:0:0:
448,192,71697,1,0,0:0:0:0:
320,192,71862,1,0,0:0:0:0:
192,192,71862,1,0,0:0:0:0:
320,192,72027,1,0,0:0:0:0:
192,192,72027,1,0,0:0:0:0:
192,192,72191,1,0,0:0:0:0:
448,192,72191,1,0,0:0:0:0:
320,192,72191,1,0,0:0:0:0:
64,192,72520,1,0,0:0:0:0:
192,192,72685,1,0,0:0:0:0:
320,192,72685,1,0,0:0:0:0:
448,192,72685,1,0,0:0:0:0:
448,192,73015,1,0,0:0:0:0:
64,192,73180,1,0,0:0:0:0:
192,192,73180,1,0,0:0:0:0:
320,192,73180,1,0,0:0:0:0:
192,192,73509,1,0,0:0:0:0:
320,192,73509,1,0,0:0:0:0:
64,192,73839,1,0,0:0:0:0:
320,192,73839,1,0,0:0:0:0:
448,192,73839,1,0,0:0:0:0:
192,192,74168,1,0,0:0:0:0:
64,192,74333,1,0,0:0:0:0:
320,192,74333,1,0,0:0:0:0:
448,192,74333,1,0,0:0:0:0:
320,192,74663,1,0,0:0:0:0:
64,192,74828,1,0,0:0:0:0:
192,192,74828,1,0,0:0:0:0:
448,192,74828,1,0,0:0:0:0:
320,192,74910,1,0,0:0:0:0:
64,192,74992,1,0,0:0:0:0:
320,192,75075,1,0,0:0:0:0:
64,192,75157,1,0,0:0:0:0:
448,192,75157,1,0,0:0:0:0:
192,192,75322,1,0,0:0:0:0:
320,192,75487,1,0,0:0:0:0:
448,192,75487,1,0,0:0:0:0:
192,192,75652,1,0,0:0:0:0:
64,192,75817,1,0,0:0:0:0:
448,192,75817,1,0,0:0:0:0:
320,192,75817,1,0,0:0:0:0:
192,192,75899,1,0,0:0:0:0:
320,192,75981,1,0,0:0:0:0:
448,192,76064,1,0,0:0:0:0:
192,192,76146,1,0,0:0:0:0:
320,192,76229,1,0,0:0:0:0:
64,192,76311,1,0,0:0:0:0:
192,192,76311,1,0,0:0:0:0:
448,192,76311,1,0,0:0:0:0:
320,192,76393,1,0,0:0:0:0:
192,192,76476,1,0,0:0:0:0:
64,192,76558,1,0,0:0:0:0:
320,192,76641,1,0,0:0:0:0:
192,192,76723,1,0,0:0:0:0:
64,192,76806,1,0,0:0:0:0:
320,192,76806,1,0,0:0:0:0:
448,192,76806,1,0,0:0:0:0:
192,192,77135,1,0,0:0:0:0:
320,192,77135,1,0,0:0:0:0:
192,192,77465,128,0,77877:0:0:0:0:
64,192,77465,1,0,0:0:0:0:
448,192,77465,1,0,0:0:0:0:
192,192,77959,128,0,78371:0:0:0:0:
192,192,78454,128,0,78784:0:0:0:0:
64,192,78619,1,0,0:0:0:0:
448,192,78674,1,0,0:0:0:0:
320,192,78729,1,0,0:0:0:0:
64,192,78784,1,0,0:0:0:0:
448,192,78784,1,0,0:0:0:0:
64,192,79114,1,0,0:0:0:0:
192,192,79114,1,0,0:0:0:0:
448,192,79114,128,0,79608:0:0:0:0:
320,192,79278,1,0,0:0:0:0:
192,192,79361,1,0,0:0:0:0:
64,192,79443,1,0,0:0:0:0:
192,192,79608,128,0,80103:0:0:0:0:
320,192,79773,1,0,0:0:0:0:
64,192,79938,1,0,0:0:0:0:
320,192,80103,128,0,80432:0:0:0:0:
448,192,80103,1,0,0:0:0:0:
64,192,80103,1,0,0:0:0:0:
448,192,80267,128,0,80432:0:0:0:0:
192,192,80432,128,0,80927:0:0:0:0:
64,192,80597,1,0,0:0:0:0:
320,192,80762,1,0,0:0:0:0:
448,192,80762,1,0,0:0:0:0:
64,192,80927,128,0,81421:0:0:0:0:
448,192,80927,1,0,0:0:0:0:
320,192,81092,1,0,0:0:0:0:
192,192,81256,1,0,0:0:0:0:
448,192,81421,128,0,81751:0:0:0:0:
320,192,81421,1,0,0:0:0:0:
192,192,81421,1,0,0:0:0:0:
320,192,81586,1,0,0:0:0:0:
192,192,81751,128,0,82081:0:0:0:0:
64,192,81751,1,0,0:0:0:0:
320,192,81916,1,0,0:0:0:0:
448,192,81998,1,0,0:0:0:0:
320,192,82081,128,0,82575:0:0:0:0:
64,192,82081,1,0,0:0:0:0:
192,192,82245,128,0,82575:0:0:0:0:
64,192,82410,1,0,0:0:0:0:
448,192,82575,128,0,82905:0:0:0:0:
64,192,82575,1,0,0:0:0:0:
192,192,82740,1,0,0:0:0:0:
320,192,82740,1,0,0:0:0:0:
64,192,82905,128,0,83399:0:0:0:0:
320,192,82905,1,0,0:0:0:0:
192,192,83070,1,0,0:0:0:0:
320,192,83234,1,0,0:0:0:0:
320,192,83399,1,0,0:0:0:0:
448,192,83399,1,0,0:0:0:0:
192,192,83564,128,0,83729:0:0:0:0:
320,192,83729,128,0,83894:0:0:0:0:
64,192,83729,1,0,0:0:0:0:
448,192,83894,128,0,84059:0:0:0:0:
64,192,83894,1,0,0:0:0:0:
192,192,83976,1,0,0:0:0:0:
64,192,84059,128,0,84223:0:0:0:0:
320,192,84059,1,0,0:0:0:0:
192,192,84223,128,0,84388:0:0:0:0:
448,192,84223,1,0,0:0:0:0:
320,192,84388,128,0,84883:0:0:0:0:
448,192,84388,1,0,0:0:0:0:
64,192,84388,1,0,0:0:0:0:
64,192,84718,1,0,0:0:0:0:
448,192,84718,1,0,0:0:0:0:
192,192,84883,128,0,85377:0:0:0:0:
448,192,85048,1,0,0:0:0:0:
64,192,85212,1,0,0:0:0:0:
320,192,85377,128,0,85707:0:0:0:0:
448,192,85377,1,0,0:0:0:0:
448,192,85542,1,0,0:0:0:0:
64,192,85707,128,0,86201:0:0:0:0:
192,192,85707,1,0,0:0:0:0:
320,192,85872,1,0,0:0:0:0:
192,192,85954,1,0,0:0:0:0:
320,192,86037,1,0,0:0:0:0:
448,192,86037,1,0,0:0:0:0:
448,192,86201,128,0,86696:0:0:0:0:
192,192,86366,1,0,0:0:0:0:
320,192,86531,1,0,0:0:0:0:
192,192,86696,128,0,87026:0:0:0:0:
64,192,86696,1,0,0:0:0:0:
448,192,87026,128,0,87520:0:0:0:0:
320,192,87026,1,0,0:0:0:0:
64,192,87190,1,0,0:0:0:0:
320,192,87273,1,0,0:0:0:0:
192,192,87355,1,0,0:0:0:0:
64,192,87355,1,0,0:0:0:0:
320,192,87520,128,0,87850:0:0:0:0:
192,192,87520,1,0,0:0:0:0:
64,192,87685,1,0,0:0:0:0:
64,192,87850,128,0,88179:0:0:0:0:
448,192,87850,1,0,0:0:0:0:
320,192,88015,1,0,0:0:0:0:
448,192,88015,1,0,0:0:0:0:
192,192,88179,128,0,88839:0:0:0:0:
448,192,88344,1,0,0:0:0:0:
448,192,88509,1,0,0:0:0:0:
64,192,88674,1,0,0:0:0:0:
320,192,88674,1,0,0:0:0:0:
448,192,88839,128,0,89663:0:0:0:0:
64,192,88921,1,0,0:0:0:0:
320,192,89004,1,0,0:0:0:0:
192,192,89086,1,0,0:0:0:0:
64,192,89168,1,0,0:0:0:0:
320,192,89251,1,0,0:0:0:0:
64,192,89333,1,0,0:0:0:0:
192,192,89333,1,0,0:0:0:0:
320,192,89416,1,0,0:0:0:0:
64,192,89498,1,0,0:0:0:0:
192,192,89498,1,0,0:0:0:0:
320,192,89581,1,0,0:0:0:0:
64,192,89663,128,0,90157:0:0:0:0:
192,192,89663,1,0,0:0:0:0:
192,192,89828,1,0,0:0:0:0:
320,192,89910,1,0,0:0:0:0:
448,192,89993,1,0,0:0:0:0:
320,192,90157,128,0,90652:0:0:0:0:
192,192,90322,1,0,0:0:0:0:
448,192,90487,1,0,0:0:0:0:
192,192,90652,128,0,90982:0:0:0:0:
448,192,90652,1,0,0:0:0:0:
64,192,90652,1,0,0:0:0:0:
64,192,90817,1,0,0:0:0:0:
320,192,90982,128,0,91476:0:0:0:0:
448,192,91146,1,0,0:0:0:0:
192,192,91311,1,0,0:0:0:0:
64,192,91311,1,0,0:0:0:0:
64,192,91476,1,0,0:0:0:0:
448,192,91476,128,0,91971:0:0:0:0:
192,192,91641,1,0,0:0:0:0:
320,192,91806,1,0,0:0:0:0:
320,192,91971,1,0,0:0:0:0:
64,192,91971,128,0,92300:0:0:0:0:
192,192,91971,1,0,0:0:0:0:
192,192,92135,1,0,0:0:0:0:
448,192,92300,1,0,0:0:0:0:
320,192,92300,128,0,92630:0:0:0:0:
192,192,92465,1,0,0:0:0:0:
64,192,92548,1,0,0:0:0:0:
448,192,92630,1,0,0:0:0:0:
192,192,92630,128,0,93124:0:0:0:0:
320,192,92795,128,0,93124:0:0:0:0:
448,192,92960,1,0,0:0:0:0:
448,192,93124,1,0,0:0:0:0:
64,192,93124,128,0,93454:0:0:0:0:
320,192,93289,1,0,0:0:0:0:
192,192,93289,1,0,0:0:0:0:
448,192,93454,128,0,93949:0:0:0:0:
192,192,93454,1,0,0:0:0:0:
320,192,93619,1,0,0:0:0:0:
192,192,93784,1,0,0:0:0:0:
192,192,93949,1,0,0:0:0:0:
64,192,93949,1,0,0:0:0:0:
320,192,94114,128,0,94278:0:0:0:0:
192,192,94278,128,0,94443:0:0:0:0:
448,192,94278,1,0,0:0:0:0:
64,192,94443,128,0,94608:0:0:0:0:
320,192,94443,1,0,0:0:0:0:
448,192,94526,1,0,0:0:0:0:
320,192,94608,128,0,94773:0:0:0:0:
192,192,94608,1,0,0:0:0:0:
64,192,94773,1,0,0:0:0:0:
448,192,94773,128,0,94938:0:0:0:0:
192,192,94938,128,0,95432:0:0:0:0:
320,192,94938,1,0,0:0:0:0:
64,192,94938,1,0,0:0:0:0:
448,192,95267,1,0,0:0:0:0:
64,192,95267,1,0,0:0:0:0:
320,192,95432,128,0,95927:0:0:0:0:
64,192,95597,1,0,0:0:0:0:
448,192,95762,1,0,0:0:0:0:
64,192,95927,1,0,0:0:0:0:
192,192,95927,128,0,96256:0:0:0:0:
64,192,96092,1,0,0:0:0:0:
320,192,96256,1,0,0:0:0:0:
448,192,96256,128,0,96751:0:0:0:0:
192,192,96421,1,0,0:0:0:0:
320,192,96504,1,0,0:0:0:0:
64,192,96586,1,0,0:0:0:0:
192,192,96586,1,0,0:0:0:0:
64,192,96751,128,0,97245:0:0:0:0:
320,192,96916,1,0,0:0:0:0:
192,192,96998,1,0,0:0:0:0:
448,192,97081,1,0,0:0:0:0:
192,192,97163,1,0,0:0:0:0:
320,192,97245,128,0,97575:0:0:0:0:
448,192,97245,1,0,0:0:0:0:
192,192,97328,1,0,0:0:0:0:
64,192,97410,1,0,0:0:0:0:
448,192,97410,1,0,0:0:0:0:
192,192,97493,1,0,0:0:0:0:
64,192,97575,128,0,98070:0:0:0:0:
448,192,97575,1,0,0:0:0:0:
320,192,97740,1,0,0:0:0:0:
192,192,97822,1,0,0:0:0:0:
448,192,97905,1,0,0:0:0:0:
320,192,97905,1,0,0:0:0:0:
192,192,98070,128,0,98399:0:0:0:0:
320,192,98070,1,0,0:0:0:0:
448,192,98234,1,0,0:0:0:0:
320,192,98317,1,0,0:0:0:0:
448,192,98399,128,0,98729:0:0:0:0:
64,192,98399,1,0,0:0:0:0:
192,192,98564,1,0,0:0:0:0:
64,192,98564,1,0,0:0:0:0:
320,192,98729,128,0,99388:0:0:0:0:
192,192,98811,1,0,0:0:0:0:
64,192,98894,1,0,0:0:0:0:
64,192,99059,1,0,0:0:0:0:
192,192,99223,1,0,0:0:0:0:
448,192,99223,1,0,0:0:0:0:
64,192,99388,128,0,100212:0:0:0:0:
448,192,99471,1,0,0:0:0:0:
192,192,99553,1,0,0:0:0:0:
320,192,99635,1,0,0:0:0:0:
448,192,99718,1,0,0:0:0:0:
192,192,99800,1,0,0:0:0:0:
320,192,99883,1,0,0:0:0:0:
448,192,99883,1,0,0:0:0:0:
192,192,99965,1,0,0:0:0:0:
448,192,100048,1,0,0:0:0:0:
192,192,100130,1,0,0:0:0:0:
448,192,100212,1,0,0:0:0:0:
320,192,100212,1,0,0:0:0:0:
192,192,100295,1,0,0:0:0:0:
448,192,100377,1,0,0:0:0:0:
64,192,100377,1,0,0:0:0:0:
192,192,100542,1,0,0:0:0:0:
320,192,100542,1,0,0:0:0:0:
64,192,100542,1,0,0:0:0:0:
320,192,100707,1,0,0:0:0:0:
448,192,100707,1,0,0:0:0:0:
64,192,100789,1,0,0:0:0:0:
192,192,100872,1,0,0:0:0:0:
448,192,100872,1,0,0:0:0:0:
320,192,101201,1,0,0:0:0:0:
448,192,101201,1,0,0:0:0:0:
64,192,101201,1,0,0:0:0:0:
192,192,101284,1,0,0:0:0:0:
448,192,101366,1,0,0:0:0:0:
320,192,101366,1,0,0:0:0:0:
192,192,101696,1,0,0:0:0:0:
64,192,101696,1,0,0:0:0:0:
64,192,101861,1,0,0:0:0:0:
320,192,101861,1,0,0:0:0:0:
448,192,101861,1,0,0:0:0:0:
64,192,102026,1,0,0:0:0:0:
192,192,102026,1,0,0:0:0:0:
320,192,102108,1,0,0:0:0:0:
192,192,102190,1,0,0:0:0:0:
448,192,102190,1,0,0:0:0:0:
64,192,102273,1,0,0:0:0:0:
320,192,102355,1,0,0:0:0:0:
448,192,102355,1,0,0:0:0:0:
192,192,102438,1,0,0:0:0:0:
64,192,102520,1,0,0:0:0:0:
320,192,102520,1,0,0:0:0:0:
448,192,102520,128,0,102850:0:0:0:0:
192,192,102850,1,0,0:0:0:0:
64,192,102850,1,0,0:0:0:0:
320,192,102932,1,0,0:0:0:0:
448,192,103015,1,0,0:0:0:0:
64,192,103015,1,0,0:0:0:0:
448,192,103179,1,0,0:0:0:0:
320,192,103179,1,0,0:0:0:0:
192,192,103179,1,0,0:0:0:0:
320,192,103344,1,0,0:0:0:0:
64,192,103344,1,0,0:0:0:0:
448,192,103427,1,0,0:0:0:0:
192,192,103509,1,0,0:0:0:0:
64,192,103509,1,0,0:0:0:0:
448,192,103839,1,0,0:0:0:0:
320,192,103839,1,0,0:0:0:0:
64,192,103839,1,0,0:0:0:0:
192,192,103921,1,0,0:0:0:0:
448,192,104004,1,0,0:0:0:0:
64,192,104004,1,0,0:0:0:0:
320,192,104333,1,0,0:0:0:0:
192,192,104333,1,0,0:0:0:0:
448,192,104498,1,0,0:0:0:0:
192,192,104498,1,0,0:0:0:0:
64,192,104498,1,0,0:0:0:0:
192,192,104663,1,0,0:0:0:0:
448,192,104663,1,0,0:0:0:0:
64,192,104745,1,0,0:0:0:0:
320,192,104828,1,0,0:0:0:0:
448,192,104828,1,0,0:0:0:0:
192,192,104910,1,0,0:0:0:0:
320,192,104993,1,0,0:0:0:0:
64,192,104993,1,0,0:0:0:0:
448,192,105075,1,0,0:0:0:0:
320,192,105157,1,0,0:0:0:0:
192,192,105157,1,0,0:0:0:0:
64,192,105157,128,0,105487:0:0:0:0:
448,192,105487,1,0,0:0:0:0:
320,192,105487,1,0,0:0:0:0:
192,192,105570,1,0,0:0:0:0:
64,192,105652,1,0,0:0:0:0:
448,192,105652,1,0,0:0:0:0:
320,192,105817,1,0,0:0:0:0:
192,192,105817,1,0,0:0:0:0:
64,192,105817,1,0,0:0:0:0:
448,192,105982,1,0,0:0:0:0:
192,192,105982,1,0,0:0:0:0:
64,192,106064,1,0,0:0:0:0:
320,192,106146,1,0,0:0:0:0:
448,192,106146,1,0,0:0:0:0:
192,192,106476,1,0,0:0:0:0:
64,192,106476,1,0,0:0:0:0:
320,192,106476,1,0,0:0:0:0:
448,192,106559,1,0,0:0:0:0:
192,192,106641,1,0,0:0:0:0:
64,192,106641,1,0,0:0:0:0:
64,192,106971,1,0,0:0:0:0:
320,192,106971,1,0,0:0:0:0:
192,192,107135,1,0,0:0:0:0:
448,192,107135,1,0,0:0:0:0:
64,192,107135,1,0,0:0:0:0:
64,192,107300,1,0,0:0:0:0:
320,192,107300,1,0,0:0:0:0:
192,192,107383,1,0,0:0:0:0:
320,192,107465,1,0,0:0:0:0:
448,192,107465,1,0,0:0:0:0:
192,192,107548,1,0,0:0:0:0:
448,192,107630,1,0,0:0:0:0:
320,192,107630,1,0,0:0:0:0:
64,192,107712,1,0,0:0:0:0:
448,192,107795,128,0,108124:0:0:0:0:
320,192,107795,1,0,0:0:0:0:
192,192,107795,1,0,0:0:0:0:
320,192,108124,1,0,0:0:0:0:
64,192,108124,1,0,0:0:0:0:
192,192,108207,1,0,0:0:0:0:
448,192,108289,1,0,0:0:0:0:
64,192,108289,1,0,0:0:0:0:
320,192,108454,1,0,0:0:0:0:
448,192,108454,1,0,0:0:0:0:
192,192,108454,1,0,0:0:0:0:
192,192,108619,1,0,0:0:0:0:
64,192,108619,1,0,0:0:0:0:
192,192,108949,1,0,0:0:0:0:
448,192,108949,1,0,0:0:0:0:
320,192,109031,1,0,0:0:0:0:
64,192,109114,1,0,0:0:0:0:
192,192,109114,1,0,0:0:0:0:
448,192,109114,1,0,0:0:0:0:
320,192,109196,1,0,0:0:0:0:
64,192,109278,1,0,0:0:0:0:
192,192,109278,1,0,0:0:0:0:
448,192,109608,1,0,0:0:0:0:
320,192,109608,1,0,0:0:0:0:
64,192,109773,1,0,0:0:0:0:
448,192,109773,1,0,0:0:0:0:
192,192,109773,1,0,0:0:0:0:
320,192,109938,1,0,0:0:0:0:
448,192,109938,1,0,0:0:0:0:
192,192,110020,1,0,0:0:0:0:
64,192,110103,1,0,0:0:0:0:
320,192,110103,1,0,0:0:0:0:
448,192,110185,1,0,0:0:0:0:
64,192,110267,1,0,0:0:0:0:
192,192,110267,1,0,0:0:0:0:
320,192,110350,1,0,0:0:0:0:
64,192,110432,1,0,0:0:0:0:
448,192,110432,1,0,0:0:0:0:
192,192,110432,128,0,110762:0:0:0:0:
448,192,110762,1,0,0:0:0:0:
320,192,110762,1,0,0:0:0:0:
64,192,110762,1,0,0:0:0:0:
192,192,110844,1,0,0:0:0:0:
448,192,110927,1,0,0:0:0:0:
320,192,110927,1,0,0:0:0:0:
448,192,111092,1,0,0:0:0:0:
192,192,111092,1,0,0:0:0:0:
64,192,111092,1,0,0:0:0:0:
192,192,111256,1,0,0:0:0:0:
320,192,111256,1,0,0:0:0:0:
64,192,111339,1,0,0:0:0:0:
448,192,111421,1,0,0:0:0:0:
192,192,111421,1,0,0:0:0:0:
64,192,111751,1,0,0:0:0:0:
448,192,111751,1,0,0:0:0:0:
320,192,111751,1,0,0:0:0:0:
192,192,111833,1,0,0:0:0:0:
64,192,111916,1,0,0:0:0:0:
320,192,111916,1,0,0:0:0:0:
64,192,112245,1,0,0:0:0:0:
192,192,112245,1,0,0:0:0:0:
64,192,112410,1,0,0:0:0:0:
320,192,112410,1,0,0:0:0:0:
448,192,112410,1,0,0:0:0:0:
192,192,112575,1,0,0:0:0:0:
64,192,112575,1,0,0:0:0:0:
320,192,112657,1,0,0:0:0:0:
448,192,112740,1,0,0:0:0:0:
192,192,112740,1,0,0:0:0:0:
64,192,112822,1,0,0:0:0:0:
448,192,112905,1,0,0:0:0:0:
192,192,112905,1,0,0:0:0:0:
320,192,112987,1,0,0:0:0:0:
192,192,113070,1,0,0:0:0:0:
448,192,113070,128,0,113399:0:0:0:0:
64,192,113070,1,0,0:0:0:0:
64,192,113399,1,0,0:0:0:0:
192,192,113399,1,0,0:0:0:0:
320,192,113482,1,0,0:0:0:0:
448,192,113564,1,0,0:0:0:0:
64,192,113564,1,0,0:0:0:0:
320,192,113729,1,0,0:0:0:0:
192,192,113729,1,0,0:0:0:0:
448,192,113729,1,0,0:0:0:0:
64,192,113894,1,0,0:0:0:0:
192,192,113894,1,0,0:0:0:0:
448,192,114223,1,0,0:0:0:0:
192,192,114223,1,0,0:0:0:0:
320,192,114306,1,0,0:0:0:0:
64,192,114388,1,0,0:0:0:0:
448,192,114388,1,0,0:0:0:0:
192,192,114388,1,0,0:0:0:0:
320,192,114471,1,0,0:0:0:0:
64,192,114553,1,0,0:0:0:0:
192,192,114553,1,0,0:0:0:0:
448,192,114883,1,0,0:0:0:0:
320,192,114883,1,0,0:0:0:0:
448,192,115048,1,0,0:0:0:0:
64,192,115048,1,0,0:0:0:0:
192,192,115048,1,0,0:0:0:0:
320,192,115212,1,0,0:0:0:0:
448,192,115212,1,0,0:0:0:0:
192,192,115295,1,0,0:0:0:0:
320,192,115377,1,0,0:0:0:0:
64,192,115377,1,0,0:0:0:0:
448,192,115460,1,0,0:0:0:0:
192,192,115542,1,0,0:0:0:0:
64,192,115542,1,0,0:0:0:0:
320,192,115624,1,0,0:0:0:0:
448,192,115707,1,0,0:0:0:0:
64,192,115707,1,0,0:0:0:0:
192,192,115789,1,0,0:0:0:0:
64,192,115872,1,0,0:0:0:0:
448,192,115872,1,0,0:0:0:0:
320,192,115954,1,0,0:0:0:0:
64,192,116037,1,0,0:0:0:0:
448,192,116037,1,0,0:0:0:0:
192,192,116037,1,0,0:0:0:0:
320,192,116119,1,0,0:0:0:0:
64,192,116201,1,0,0:0:0:0:
192,192,116201,1,0,0:0:0:0:
448,192,116366,1,0,0:0:0:0:
192,192,116366,1,0,0:0:0:0:
64,192,116366,1,0,0:0:0:0:
320,192,116531,1,0,0:0:0:0:
448,192,116531,1,0,0:0:0:0:
64,192,116614,1,0,0:0:0:0:
192,192,116696,1,0,0:0:0:0:
448,192,116696,1,0,0:0:0:0:
64,192,117026,1,0,0:0:0:0:
192,192,117026,1,0,0:0:0:0:
448,192,117026,1,0,0:0:0:0:
320,192,117108,1,0,0:0:0:0:
64,192,117190,1,0,0:0:0:0:
448,192,117190,1,0,0:0:0:0:
64,192,117520,1,0,0:0:0:0:
320,192,117520,1,0,0:0:0:0:
192,192,117685,1,0,0:0:0:0:
64,192,117685,1,0,0:0:0:0:
448,192,117685,1,0,0:0:0:0:
320,192,117850,1,0,0:0:0:0:
64,192,117850,1,0,0:0:0:0:
192,192,117932,1,0,0:0:0:0:
448,192,118015,1,0,0:0:0:0:
320,192,118015,1,0,0:0:0:0:
64,192,118097,1,0,0:0:0:0:
448,192,118179,1,0,0:0:0:0:
320,192,118179,1,0,0:0:0:0:
192,192,118262,1,0,0:0:0:0:
320,192,118344,1,0,0:0:0:0:
64,192,118344,1,0,0:0:0:0:
448,192,118344,128,0,118674:0:0:0:0:
64,192,118674,1,0,0:0:0:0:
192,192,118674,1,0,0:0:0:0:
320,192,118756,1,0,0:0:0:0:
448,192,118839,1,0,0:0:0:0:
64,192,118839,1,0,0:0:0:0:
64,192,119004,1,0,0:0:0:0:
320,192,119004,1,0,0:0:0:0:
448,192,119004,1,0,0:0:0:0:
448,192,119168,1,0,0:0:0:0:
192,192,119168,1,0,0:0:0:0:
64,192,119333,1,0,0:0:0:0:
320,192,119333,1,0,0:0:0:0:
64,192,119498,1,0,0:0:0:0:
192,192,119498,1,0,0:0:0:0:
192,192,119663,1,0,0:0:0:0:
448,192,119663,1,0,0:0:0:0:
64,192,119663,1,0,0:0:0:0:
448,192,119828,1,0,0:0:0:0:
64,192,119828,128,0,120652:0:0:0:0:
192,192,119828,128,0,120487:0:0:0:0:
448,192,120157,1,0,0:0:0:0:
320,192,120240,1,0,0:0:0:0:
448,192,120322,1,0,0:0:0:0:
320,192,120405,1,0,0:0:0:0:
448,192,120487,1,0,0:0:0:0:
320,192,120570,1,0,0:0:0:0:
192,192,120652,1,0,0:0:0:0:
448,192,120652,1,0,0:0:0:0:
320,192,120817,1,0,0:0:0:0:
64,192,120817,1,0,0:0:0:0:
192,192,120982,1,0,0:0:0:0:
448,192,120982,1,0,0:0:0:0:
320,192,121146,1,0,0:0:0:0:
448,192,121146,1,0,0:0:0:0:
64,192,121311,128,0,121806:0:0:0:0:
320,192,121311,1,0,0:0:0:0:
448,192,121311,1,0,0:0:0:0:
192,192,121476,1,0,0:0:0:0:
320,192,121559,1,0,0:0:0:0:
448,192,121641,1,0,0:0:0:0:
320,192,121806,128,0,122300:0:0:0:0:
192,192,121971,1,0,0:0:0:0:
448,192,122135,1,0,0:0:0:0:
448,192,122300,1,0,0:0:0:0:
64,192,122300,1,0,0:0:0:0:
192,192,122300,128,0,122630:0:0:0:0:
64,192,122465,128,0,122630:0:0:0:0:
320,192,122630,128,0,123124:0:0:0:0:
448,192,122795,1,0,0:0:0:0:
64,192,122960,1,0,0:0:0:0:
192,192,122960,1,0,0:0:0:0:
448,192,123124,128,0,123619:0:0:0:0:
64,192,123124,1,0,0:0:0:0:
192,192,123289,1,0,0:0:0:0:
320,192,123454,1,0,0:0:0:0:
320,192,123619,1,0,0:0:0:0:
192,192,123619,1,0,0:0:0:0:
64,192,123619,128,0,123949:0:0:0:0:
192,192,123784,1,0,0:0:0:0:
448,192,123949,1,0,0:0:0:0:
320,192,123949,128,0,124278:0:0:0:0:
192,192,124114,1,0,0:0:0:0:
64,192,124196,1,0,0:0:0:0:
448,192,124278,1,0,0:0:0:0:
192,192,124278,128,0,124773:0:0:0:0:
320,192,124443,128,0,124773:0:0:0:0:
448,192,124608,1,0,0:0:0:0:
64,192,124773,128,0,125103:0:0:0:0:
448,192,124773,1,0,0:0:0:0:
192,192,124938,1,0,0:0:0:0:
320,192,124938,1,0,0:0:0:0:
448,192,125103,128,0,125597:0:0:0:0:
320,192,125103,1,0,0:0:0:0:
64,192,125267,1,0,0:0:0:0:
192,192,125432,1,0,0:0:0:0:
64,192,125597,1,0,0:0:0:0:
320,192,125597,1,0,0:0:0:0:
320,192,125762,128,0,125927:0:0:0:0:
448,192,125927,1,0,0:0:0:0:
192,192,125927,128,0,126092:0:0:0:0:
64,192,126092,128,0,126256:0:0:0:0:
448,192,126092,1,0,0:0:0:0:
320,192,126174,1,0,0:0:0:0:
448,192,126256,128,0,126421:0:0:0:0:
192,192,126256,1,0,0:0:0:0:
320,192,126421,128,0,126586:0:0:0:0:
64,192,126421,1,0,0:0:0:0:
192,192,126586,128,0,127081:0:0:0:0:
64,192,126586,1,0,0:0:0:0:
448,192,126586,1,0,0:0:0:0:
448,192,126916,1,0,0:0:0:0:
64,192,126916,1,0,0:0:0:0:
320,192,127081,128,0,127575:0:0:0:0:
64,192,127245,1,0,0:0:0:0:
448,192,127410,1,0,0:0:0:0:
192,192,127575,128,0,127905:0:0:0:0:
64,192,127575,1,0,0:0:0:0:
64,192,127740,1,0,0:0:0:0:
448,192,127905,128,0,128399:0:0:0:0:
320,192,127905,1,0,0:0:0:0:
192,192,128070,1,0,0:0:0:0:
320,192,128152,1,0,0:0:0:0:
192,192,128234,1,0,0:0:0:0:
64,192,128234,1,0,0:0:0:0:
64,192,128399,128,0,128894:0:0:0:0:
320,192,128564,1,0,0:0:0:0:
192,192,128729,1,0,0:0:0:0:
448,192,128894,1,0,0:0:0:0:
320,192,128894,128,0,129223:0:0:0:0:
64,192,129223,128,0,129718:0:0:0:0:
192,192,129223,1,0,0:0:0:0:
448,192,129388,1,0,0:0:0:0:
192,192,129471,1,0,0:0:0:0:
448,192,129553,1,0,0:0:0:0:
320,192,129553,1,0,0:0:0:0:
320,192,129718,1,0,0:0:0:0:
192,192,129718,128,0,130048:0:0:0:0:
448,192,129883,1,0,0:0:0:0:
64,192,130048,1,0,0:0:0:0:
448,192,130048,128,0,130377:0:0:0:0:
64,192,130212,1,0,0:0:0:0:
192,192,130212,1,0,0:0:0:0:
320,192,130377,128,0,131037:0:0:0:0:
64,192,130542,1,0,0:0:0:0:
64,192,130707,1,0,0:0:0:0:
448,192,130872,1,0,0:0:0:0:
192,192,130872,1,0,0:0:0:0:
64,192,131037,128,0,131861:0:0:0:0:
448,192,131119,1,0,0:0:0:0:
320,192,131201,1,0,0:0:0:0:
192,192,131284,1,0,0:0:0:0:
448,192,131366,1,0,0:0:0:0:
320,192,131366,1,0,0:0:0:0:
192,192,131531,1,0,0:0:0:0:
320,192,131696,1,0,0:0:0:0:
192,192,131696,1,0,0:0:0:0:
448,192,131696,1,0,0:0:0:0:
192,192,131861,1,0,0:0:0:0:
448,192,131861,128,0,132355:0:0:0:0:
320,192,132026,1,0,0:0:0:0:
192,192,132108,1,0,0:0:0:0:
64,192,132190,1,0,0:0:0:0:
192,192,132355,128,0,132850:0:0:0:0:
320,192,132520,1,0,0:0:0:0:
64,192,132685,1,0,0:0:0:0:
64,192,132850,1,0,0:0:0:0:
320,192,132850,128,0,133179:0:0:0:0:
448,192,132850,1,0,0:0:0:0:
448,192,133015,1,0,0:0:0:0:
192,192,133179,128,0,133674:0:0:0:0:
64,192,133344,1,0,0:0:0:0:
320,192,133509,1,0,0:0:0:0:
448,192,133509,1,0,0:0:0:0:
448,192,133674,1,0,0:0:0:0:
64,192,133674,128,0,134168:0:0:0:0:
320,192,133839,1,0,0:0:0:0:
192,192,134004,1,0,0:0:0:0:
192,192,134168,1,0,0:0:0:0:
320,192,134168,1,0,0:0:0:0:
448,192,134168,128,0,134498:0:0:0:0:
320,192,134333,1,0,0:0:0:0:
192,192,134498,128,0,134828:0:0:0:0:
64,192,134498,1,0,0:0:0:0:
320,192,134663,1,0,0:0:0:0:
448,192,134745,1,0,0:0:0:0:
64,192,134828,1,0,0:0:0:0:
320,192,134828,128,0,135322:0:0:0:0:
192,192,134993,128,0,135322:0:0:0:0:
64,192,135157,1,0,0:0:0:0:
448,192,135322,128,0,135652:0:0:0:0:
64,192,135322,1,0,0:0:0:0:
192,192,135487,1,0,0:0:0:0:
320,192,135487,1,0,0:0:0:0:
64,192,135652,128,0,136146:0:0:0:0:
320,192,135652,1,0,0:0:0:0:
192,192,135817,1,0,0:0:0:0:
320,192,135982,1,0,0:0:0:0:
192,192,136146,1,0,0:0:0:0:
320,192,136146,1,0,0:0:0:0:
192,192,136311,128,0,136476:0:0:0:0:
448,192,136394,1,0,0:0:0:0:
320,192,136476,128,0,136641:0:0:0:0:
64,192,136476,1,0,0:0:0:0:
192,192,136641,1,0,0:0:0:0:
448,192,136641,128,0,136806:0:0:0:0:
64,192,136723,1,0,0:0:0:0:
192,192,136806,128,0,136971:0:0:0:0:
320,192,136806,1,0,0:0:0:0:
448,192,136888,1,0,0:0:0:0:
320,192,136971,1,0,0:0:0:0:
64,192,136971,128,0,137135:0:0:0:0:
448,192,137053,1,0,0:0:0:0:
192,192,137135,1,0,0:0:0:0:
320,192,137135,128,0,137630:0:0:0:0:
64,192,137465,1,0,0:0:0:0:
448,192,137465,1,0,0:0:0:0:
192,192,137630,128,0,138124:0:0:0:0:
448,192,137795,1,0,0:0:0:0:
64,192,137960,1,0,0:0:0:0:
320,192,138124,128,0,138454:0:0:0:0:
448,192,138124,1,0,0:0:0:0:
448,192,138289,1,0,0:0:0:0:
192,192,138454,1,0,0:0:0:0:
64,192,138454,128,0,138949:0:0:0:0:
320,192,138619,1,0,0:0:0:0:
192,192,138701,1,0,0:0:0:0:
320,192,138784,1,0,0:0:0:0:
448,192,138784,1,0,0:0:0:0:
448,192,138949,128,0,139443:0:0:0:0:
192,192,139114,1,0,0:0:0:0:
320,192,139114,1,0,0:0:0:0:
64,192,139278,1,0,0:0:0:0:
320,192,139278,1,0,0:0:0:0:
192,192,139443,128,0,139773:0:0:0:0:
64,192,139443,1,0,0:0:0:0:
320,192,139443,1,0,0:0:0:0:
320,192,139608,1,0,0:0:0:0:
64,192,139608,1,0,0:0:0:0:
448,192,139773,128,0,140267:0:0:0:0:
64,192,139773,1,0,0:0:0:0:
320,192,139773,1,0,0:0:0:0:
192,192,139855,1,0,0:0:0:0:
64,192,139938,1,0,0:0:0:0:
192,192,140103,1,0,0:0:0:0:
64,192,140267,1,0,0:0:0:0:
320,192,140267,128,0,140597:0:0:0:0:
192,192,140432,1,0,0:0:0:0:
448,192,140597,1,0,0:0:0:0:
64,192,140597,128,0,140927:0:0:0:0:
192,192,140597,1,0,0:0:0:0:
192,192,140927,128,0,141586:0:0:0:0:
320,192,140927,128,0,141586:0:0:0:0:
448,192,140927,1,0,0:0:0:0:
448,192,141256,1,0,0:0:0:0:
64,192,141421,1,0,0:0:0:0:
448,192,141586,128,0,142410:0:0:0:0:
64,192,141668,1,0,0:0:0:0:
320,192,141751,1,0,0:0:0:0:
192,192,141833,1,0,0:0:0:0:
64,192,141916,1,0,0:0:0:0:
320,192,141998,1,0,0:0:0:0:
192,192,142081,1,0,0:0:0:0:
64,192,142081,1,0,0:0:0:0:
320,192,142163,1,0,0:0:0:0:
64,192,142245,1,0,0:0:0:0:
320,192,142328,1,0,0:0:0:0:
192,192,142410,1,0,0:0:0:0:
64,192,142410,1,0,0:0:0:0:
320,192,142739,1,0,0:0:0:0:
192,192,142904,1,0,0:0:0:0:
64,192,142904,1,0,0:0:0:0:
192,192,143234,1,0,0:0:0:0:
448,192,143234,1,0,0:0:0:0:
320,192,143316,1,0,0:0:0:0:
192,192,143399,128,0,143440:0:0:0:0:
64,192,143399,128,0,143440:0:0:0:0:
448,192,143399,128,0,143440:0:0:0:0:
64,192,143728,1,0,0:0:0:0:
448,192,143811,1,0,0:0:0:0:
64,192,143893,1,0,0:0:0:0:
320,192,143975,1,0,0:0:0:0:
64,192,144058,1,0,0:0:0:0:
192,192,144140,1,0,0:0:0:0:
448,192,144140,1,0,0:0:0:0:
64,192,144388,1,0,0:0:0:0:
320,192,144388,1,0,0:0:0:0:
448,192,144388,1,0,0:0:0:0:
192,192,144470,1,0,0:0:0:0:
320,192,144552,1,0,0:0:0:0:
448,192,144635,1,0,0:0:0:0:
192,192,144717,1,0,0:0:0:0:
320,192,144800,1,0,0:0:0:0:
64,192,144882,1,0,0:0:0:0:
192,192,144882,1,0,0:0:0:0:
448,192,144882,1,0,0:0:0:0:
320,192,144964,1,0,0:0:0:0:
192,192,145047,1,0,0:0:0:0:
64,192,145129,1,0,0:0:0:0:
320,192,145212,1,0,0:0:0:0:
192,192,145294,1,0,0:0:0:0:
64,192,145377,1,0,0:0:0:0:
320,192,145377,1,0,0:0:0:0:
448,192,145377,1,0,0:0:0:0:
192,192,145459,1,0,0:0:0:0:
320,192,145541,1,0,0:0:0:0:
448,192,145624,1,0,0:0:0:0:
192,192,145706,1,0,0:0:0:0:
320,192,145789,1,0,0:0:0:0:
448,192,145871,1,0,0:0:0:0:
64,192,145871,1,0,0:0:0:0:
192,192,145871,1,0,0:0:0:0:
320,192,145953,1,0,0:0:0:0:
64,192,146036,1,0,0:0:0:0:
320,192,146118,1,0,0:0:0:0:
192,192,146201,1,0,0:0:0:0:
320,192,146283,1,0,0:0:0:0:
448,192,146366,1,0,0:0:0:0:
64,192,146366,1,0,0:0:0:0:
192,192,146366,1,0,0:0:0:0:
320,192,146420,1,0,0:0:0:0:
192,192,146475,1,0,0:0:0:0:
64,192,146530,1,0,0:0:0:0:
448,192,146530,1,0,0:0:0:0:
320,192,146585,1,0,0:0:0:0:
192,192,146640,1,0,0:0:0:0:
64,192,146695,1,0,0:0:0:0:
320,192,146695,1,0,0:0:0:0:
448,192,146695,1,0,0:0:0:0:
192,192,147025,1,0,0:0:0:0:
320,192,147025,1,0,0:0:0:0:
64,192,147025,1,0,0:0:0:0:
192,192,147190,1,0,0:0:0:0:
320,192,147190,1,0,0:0:0:0:
448,192,147190,1,0,0:0:0:0:
320,192,147355,1,0,0:0:0:0:
448,192,147355,1,0,0:0:0:0:
64,192,147355,1,0,0:0:0:0:
64,192,147519,1,0,0:0:0:0:
192,192,147519,1,0,0:0:0:0:
448,192,147519,1,0,0:0:0:0:
320,192,147849,1,0,0:0:0:0:
192,192,147849,1,0,0:0:0:0:
64,192,148014,1,0,0:0:0:0:
448,192,148014,1,0,0:0:0:0:
320,192,148014,1,0,0:0:0:0:
64,192,148179,1,0,0:0:0:0:
192,192,148179,1,0,0:0:0:0:
448,192,148179,1,0,0:0:0:0:
192,192,148344,1,0,0:0:0:0:
320,192,148344,1,0,0:0:0:0:
448,192,148344,1,0,0:0:0:0:
64,192,148508,1,0,0:0:0:0:
192,192,148508,1,0,0:0:0:0:
320,192,148508,1,0,0:0:0:0:
448,192,148508,1,0,0:0:0:0:
448,192,148783,1,0,0:0:0:0:
320,192,148838,1,0,0:0:0:0:
64,192,148838,1,0,0:0:0:0:
192,192,149003,1,0,0:0:0:0:
448,192,149003,128,0,149168:0:0:0:0:
64,192,149168,1,0,0:0:0:0:
192,192,149223,1,0,0:0:0:0:
320,192,149278,1,0,0:0:0:0:
448,192,149333,1,0,0:0:0:0:
64,192,149333,1,0,0:0:0:0:
64,192,149497,1,0,0:0:0:0:
448,192,149497,1,0,0:0:0:0:
192,192,149662,1,0,0:0:0:0:
448,192,149662,1,0,0:0:0:0:
64,192,149662,1,0,0:0:0:0:
320,192,149662,1,0,0:0:0:0:
320,192,149826,1,0,0:0:0:0:
192,192,149991,1,0,0:0:0:0:
64,192,150156,1,0,0:0:0:0:
320,192,150156,1,0,0:0:0:0:
448,192,150156,1,0,0:0:0:0:
192,192,150321,1,0,0:0:0:0:
320,192,150486,1,0,0:0:0:0:
64,192,150651,1,0,0:0:0:0:
192,192,150651,1,0,0:0:0:0:
448,192,150651,1,0,0:0:0:0:
64,192,150980,1,0,0:0:0:0:
448,192,150980,1,0,0:0:0:0:
64,192,151310,1,0,0:0:0:0:
192,192,151310,1,0,0:0:0:0:
448,192,151310,1,0,0:0:0:0:
320,192,151392,1,0,0:0:0:0:
192,192,151474,1,0,0:0:0:0:
64,192,151557,1,0,0:0:0:0:
320,192,151639,1,0,0:0:0:0:
192,192,151722,1,0,0:0:0:0:
64,192,151804,1,0,0:0:0:0:
320,192,151804,1,0,0:0:0:0:
448,192,151804,1,0,0:0:0:0:
192,192,151886,1,0,0:0:0:0:
320,192,151969,1,0,0:0:0:0:
448,192,152051,1,0,0:0:0:0:
192,192,152134,1,0,0:0:0:0:
320,192,152216,1,0,0:0:0:0:
448,192,152299,1,0,0:0:0:0:
192,192,152299,1,0,0:0:0:0:
64,192,152299,1,0,0:0:0:0:
320,192,152381,1,0,0:0:0:0:
192,192,152463,1,0,0:0:0:0:
64,192,152546,1,0,0:0:0:0:
320,192,152628,1,0,0:0:0:0:
192,192,152711,1,0,0:0:0:0:
448,192,152793,1,0,0:0:0:0:
320,192,152793,1,0,0:0:0:0:
64,192,152793,1,0,0:0:0:0:
192,192,152875,1,0,0:0:0:0:
448,192,152958,1,0,0:0:0:0:
192,192,153040,1,0,0:0:0:0:
320,192,153123,1,0,0:0:0:0:
192,192,153205,1,0,0:0:0:0:
448,192,153288,1,0,0:0:0:0:
320,192,153288,1,0,0:0:0:0:
64,192,153288,1,0,0:0:0:0:
192,192,153370,1,0,0:0:0:0:
448,192,153452,1,0,0:0:0:0:
64,192,153452,1,0,0:0:0:0:
320,192,153514,1,0,0:0:0:0:
192,192,153562,1,0,0:0:0:0:
64,192,153617,1,0,0:0:0:0:
448,192,153617,1,0,0:0:0:0:
320,192,153679,1,0,0:0:0:0:
192,192,153727,1,0,0:0:0:0:
64,192,153782,1,0,0:0:0:0:
448,192,153782,1,0,0:0:0:0:
320,192,153864,1,0,0:0:0:0:
192,192,153947,1,0,0:0:0:0:
64,192,153947,1,0,0:0:0:0:
320,192,154029,1,0,0:0:0:0:
448,192,154029,1,0,0:0:0:0:
192,192,154112,1,0,0:0:0:0:
64,192,154112,1,0,0:0:0:0:
320,192,154194,1,0,0:0:0:0:
448,192,154194,1,0,0:0:0:0:
192,192,154277,1,0,0:0:0:0:
64,192,154277,1,0,0:0:0:0:
320,192,154359,1,0,0:0:0:0:
64,192,154441,1,0,0:0:0:0:
448,192,154441,1,0,0:0:0:0:
192,192,154524,1,0,0:0:0:0:
320,192,154606,1,0,0:0:0:0:
448,192,154606,1,0,0:0:0:0:
64,192,154606,1,0,0:0:0:0:
192,192,154936,1,0,0:0:0:0:
448,192,154936,1,0,0:0:0:0:
64,192,155101,1,0,0:0:0:0:
320,192,155101,1,0,0:0:0:0:
448,192,155101,1,0,0:0:0:0:
192,192,155430,1,0,0:0:0:0:
64,192,155513,1,0,0:0:0:0:
320,192,155595,1,0,0:0:0:0:
448,192,155595,1,0,0:0:0:0:
192,192,155595,1,0,0:0:0:0:
320,192,155925,1,0,0:0:0:0:
448,192,155925,1,0,0:0:0:0:
64,192,155925,1,0,0:0:0:0:
64,192,156255,1,0,0:0:0:0:
192,192,156255,1,0,0:0:0:0:
448,192,156584,1,0,0:0:0:0:
192,192,156584,1,0,0:0:0:0:
64,192,156584,1,0,0:0:0:0:
320,192,156667,1,0,0:0:0:0:
192,192,156749,1,0,0:0:0:0:
64,192,156831,1,0,0:0:0:0:
448,192,156914,1,0,0:0:0:0:
320,192,156996,1,0,0:0:0:0:
448,192,157079,1,0,0:0:0:0:
192,192,157079,1,0,0:0:0:0:
64,192,157079,1,0,0:0:0:0:
320,192,157161,1,0,0:0:0:0:
192,192,157244,1,0,0:0:0:0:
64,192,157326,1,0,0:0:0:0:
192,192,157408,1,0,0:0:0:0:
320,192,157491,1,0,0:0:0:0:
64,192,157573,1,0,0:0:0:0:
192,192,157573,1,0,0:0:0:0:
448,192,157573,1,0,0:0:0:0:
320,192,157656,1,0,0:0:0:0:
448,192,157738,1,0,0:0:0:0:
64,192,157820,1,0,0:0:0:0:
192,192,157903,1,0,0:0:0:0:
320,192,157985,1,0,0:0:0:0:
64,192,158068,1,0,0:0:0:0:
192,192,158068,1,0,0:0:0:0:
448,192,158068,1,0,0:0:0:0:
320,192,158150,1,0,0:0:0:0:
448,192,158233,1,0,0:0:0:0:
192,192,158315,1,0,0:0:0:0:
320,192,158397,1,0,0:0:0:0:
192,192,158480,1,0,0:0:0:0:
64,192,158562,1,0,0:0:0:0:
320,192,158562,1,0,0:0:0:0:
448,192,158562,1,0,0:0:0:0:
192,192,158624,1,0,0:0:0:0:
320,192,158672,1,0,0:0:0:0:
64,192,158727,1,0,0:0:0:0:
448,192,158727,1,0,0:0:0:0:
192,192,158789,1,0,0:0:0:0:
320,192,158837,1,0,0:0:0:0:
192,192,158892,1,0,0:0:0:0:
448,192,158892,1,0,0:0:0:0:
64,192,158892,1,0,0:0:0:0:
320,192,158974,1,0,0:0:0:0:
64,192,159057,1,0,0:0:0:0:
192,192,159057,1,0,0:0:0:0:
320,192,159222,1,0,0:0:0:0:
448,192,159222,1,0,0:0:0:0:
64,192,159222,1,0,0:0:0:0:
192,192,159386,1,0,0:0:0:0:
64,192,159386,1,0,0:0:0:0:
192,192,159551,1,0,0:0:0:0:
448,192,159551,1,0,0:0:0:0:
320,192,159716,1,0,0:0:0:0:
448,192,159716,1,0,0:0:0:0:
64,192,159716,1,0,0:0:0:0:
192,192,159963,1,0,0:0:0:0:
448,192,160046,1,0,0:0:0:0:
320,192,160046,1,0,0:0:0:0:
192,192,160128,1,0,0:0:0:0:
64,192,160211,1,0,0:0:0:0:
320,192,160211,1,0,0:0:0:0:
448,192,160375,1,0,0:0:0:0:
192,192,160375,1,0,0:0:0:0:
64,192,160540,1,0,0:0:0:0:
320,192,160540,1,0,0:0:0:0:
64,192,160705,1,0,0:0:0:0:
192,192,160705,1,0,0:0:0:0:
448,192,160705,1,0,0:0:0:0:
320,192,160870,1,0,0:0:0:0:
192,192,160952,1,0,0:0:0:0:
64,192,161035,1,0,0:0:0:0:
320,192,161117,1,0,0:0:0:0:
192,192,161200,1,0,0:0:0:0:
64,192,161200,1,0,0:0:0:0:
320,192,161310,1,0,0:0:0:0:
448,192,161310,1,0,0:0:0:0:
192,192,161426,1,0,0:0:0:0:
64,192,161426,1,0,0:0:0:0:
320,192,161529,1,0,0:0:0:0:
448,192,161529,1,0,0:0:0:0:
192,192,161694,1,0,0:0:0:0:
64,192,161694,1,0,0:0:0:0:
192,192,161859,1,0,0:0:0:0:
320,192,161859,1,0,0:0:0:0:
448,192,161859,1,0,0:0:0:0:
64,192,161859,1,0,0:0:0:0:
64,192,162188,1,0,0:0:0:0:
192,192,162353,1,0,0:0:0:0:
448,192,162353,1,0,0:0:0:0:
64,192,162683,1,0,0:0:0:0:
320,192,162683,1,0,0:0:0:0:
64,192,162848,1,0,0:0:0:0:
192,192,162848,1,0,0:0:0:0:
448,192,162848,1,0,0:0:0:0:
320,192,163012,1,0,0:0:0:0:
192,192,163012,1,0,0:0:0:0:
320,192,163260,1,0,0:0:0:0:
192,192,163260,1,0,0:0:0:0:
64,192,163507,1,0,0:0:0:0:
192,192,163507,1,0,0:0:0:0:
448,192,163507,1,0,0:0:0:0:
320,192,163589,1,0,0:0:0:0:
192,192,163671,1,0,0:0:0:0:
64,192,163754,1,0,0:0:0:0:
320,192,163836,1,0,0:0:0:0:
192,192,163919,1,0,0:0:0:0:
64,192,164001,1,0,0:0:0:0:
320,192,164001,1,0,0:0:0:0:
448,192,164001,1,0,0:0:0:0:
192,192,164083,1,0,0:0:0:0:
320,192,164166,1,0,0:0:0:0:
448,192,164248,1,0,0:0:0:0:
192,192,164331,1,0,0:0:0:0:
320,192,164413,1,0,0:0:0:0:
448,192,164496,1,0,0:0:0:0:
192,192,164496,1,0,0:0:0:0:
64,192,164496,1,0,0:0:0:0:
320,192,164578,1,0,0:0:0:0:
192,192,164660,1,0,0:0:0:0:
64,192,164743,1,0,0:0:0:0:
320,192,164825,1,0,0:0:0:0:
192,192,164908,1,0,0:0:0:0:
448,192,164990,1,0,0:0:0:0:
320,192,164990,1,0,0:0:0:0:
64,192,164990,1,0,0:0:0:0:
192,192,165072,1,0,0:0:0:0:
448,192,165155,1,0,0:0:0:0:
192,192,165237,1,0,0:0:0:0:
320,192,165320,1,0,0:0:0:0:
192,192,165402,1,0,0:0:0:0:
448,192,165485,1,0,0:0:0:0:
320,192,165485,1,0,0:0:0:0:
64,192,165485,1,0,0:0:0:0:
448,192,165649,1,0,0:0:0:0:
64,192,165649,1,0,0:0:0:0:
64,192,165814,1,0,0:0:0:0:
448,192,165814,1,0,0:0:0:0:
64,192,165979,1,0,0:0:0:0:
448,192,165979,1,0,0:0:0:0:
448,192,166144,1,0,0:0:0:0:
192,192,166144,1,0,0:0:0:0:
64,192,166144,1,0,0:0:0:0:
320,192,166226,1,0,0:0:0:0:
192,192,166309,1,0,0:0:0:0:
64,192,166391,1,0,0:0:0:0:
320,192,166474,1,0,0:0:0:0:
192,192,166556,1,0,0:0:0:0:
448,192,166638,1,0,0:0:0:0:
320,192,166638,1,0,0:0:0:0:
64,192,166638,1,0,0:0:0:0:
192,192,166721,1,0,0:0:0:0:
320,192,166803,1,0,0:0:0:0:
192,192,166886,1,0,0:0:0:0:
320,192,166968,1,0,0:0:0:0:
192,192,167050,1,0,0:0:0:0:
320,192,167133,1,0,0:0:0:0:
64,192,167133,1,0,0:0:0:0:
448,192,167133,1,0,0:0:0:0:
192,192,167215,1,0,0:0:0:0:
64,192,167298,1,0,0:0:0:0:
320,192,167380,1,0,0:0:0:0:
192,192,167463,1,0,0:0:0:0:
448,192,167545,1,0,0:0:0:0:
64,192,167627,1,0,0:0:0:0:
320,192,167627,1,0,0:0:0:0:
192,192,167627,1,0,0:0:0:0:
448,192,167710,1,0,0:0:0:0:
320,192,167792,1,0,0:0:0:0:
192,192,167875,1,0,0:0:0:0:
320,192,167957,1,0,0:0:0:0:
192,192,168039,1,0,0:0:0:0:
64,192,168122,1,0,0:0:0:0:
448,192,168122,1,0,0:0:0:0:
320,192,168184,1,0,0:0:0:0:
192,192,168232,1,0,0:0:0:0:
320,192,168287,1,0,0:0:0:0:
192,192,168349,1,0,0:0:0:0:
64,192,168397,1,0,0:0:0:0:
192,192,168452,1,0,0:0:0:0:
320,192,168452,1,0,0:0:0:0:
448,192,168452,1,0,0:0:0:0:
64,192,168781,1,0,0:0:0:0:
192,192,168781,1,0,0:0:0:0:
448,192,168781,1,0,0:0:0:0:
320,192,168781,1,0,0:0:0:0:
192,192,168946,1,0,0:0:0:0:
448,192,168946,1,0,0:0:0:0:
320,192,169111,1,0,0:0:0:0:
64,192,169111,1,0,0:0:0:0:
64,192,169276,1,0,0:0:0:0:
320,192,169276,1,0,0:0:0:0:
448,192,169276,1,0,0:0:0:0:
320,192,169441,1,0,0:0:0:0:
192,192,169441,1,0,0:0:0:0:
448,192,169605,1,0,0:0:0:0:
192,192,169605,1,0,0:0:0:0:
64,192,169605,1,0,0:0:0:0:
320,192,169605,1,0,0:0:0:0:
448,192,169770,1,0,0:0:0:0:
192,192,169770,1,0,0:0:0:0:
64,192,169935,1,0,0:0:0:0:
320,192,169935,1,0,0:0:0:0:
320,192,170100,1,0,0:0:0:0:
192,192,170100,1,0,0:0:0:0:
448,192,170100,1,0,0:0:0:0:
64,192,170100,1,0,0:0:0:0:
320,192,170265,1,0,0:0:0:0:
64,192,170265,1,0,0:0:0:0:
192,192,170430,1,0,0:0:0:0:
448,192,170430,1,0,0:0:0:0:
64,192,170430,1,0,0:0:0:0:
320,192,170430,1,0,0:0:0:0:
320,192,170594,1,0,0:0:0:0:
192,192,170594,1,0,0:0:0:0:
448,192,170759,1,0,0:0:0:0:
64,192,170759,1,0,0:0:0:0:
320,192,170759,1,0,0:0:0:0:
192,192,170842,1,0,0:0:0:0:
320,192,170924,1,0,0:0:0:0:
192,192,171007,1,0,0:0:0:0:
64,192,171007,1,0,0:0:0:0:
320,192,171089,1,0,0:0:0:0:
448,192,171089,1,0,0:0:0:0:
192,192,171171,1,0,0:0:0:0:
64,192,171254,1,0,0:0:0:0:
448,192,171254,1,0,0:0:0:0:
448,192,171419,1,0,0:0:0:0:
192,192,171419,1,0,0:0:0:0:
64,192,171419,1,0,0:0:0:0:
320,192,171501,1,0,0:0:0:0:
192,192,171583,1,0,0:0:0:0:
64,192,171666,1,0,0:0:0:0:
320,192,171748,1,0,0:0:0:0:
192,192,171831,1,0,0:0:0:0:
448,192,171913,1,0,0:0:0:0:
320,192,171913,1,0,0:0:0:0:
64,192,171913,1,0,0:0:0:0:
192,192,171996,1,0,0:0:0:0:
64,192,172078,1,0,0:0:0:0:
320,192,172160,1,0,0:0:0:0:
192,192,172243,1,0,0:0:0:0:
320,192,172325,1,0,0:0:0:0:
192,192,172408,1,0,0:0:0:0:
64,192,172408,1,0,0:0:0:0:
448,192,172408,1,0,0:0:0:0:
320,192,172490,1,0,0:0:0:0:
192,192,172572,1,0,0:0:0:0:
448,192,172655,1,0,0:0:0:0:
320,192,172737,1,0,0:0:0:0:
192,192,172820,1,0,0:0:0:0:
64,192,172902,1,0,0:0:0:0:
320,192,172902,1,0,0:0:0:0:
448,192,172902,1,0,0:0:0:0:
192,192,172985,1,0,0:0:0:0:
64,192,173067,1,0,0:0:0:0:
448,192,173149,1,0,0:0:0:0:
320,192,173232,1,0,0:0:0:0:
192,192,173314,1,0,0:0:0:0:
320,192,173397,1,0,0:0:0:0:
64,192,173397,1,0,0:0:0:0:
448,192,173397,1,0,0:0:0:0:
192,192,173479,1,0,0:0:0:0:
448,192,173561,1,0,0:0:0:0:
192,192,173644,1,0,0:0:0:0:
64,192,173726,1,0,0:0:0:0:
320,192,173726,1,0,0:0:0:0:
448,192,173726,1,0,0:0:0:0:
192,192,173809,1,0,0:0:0:0:
448,192,173891,1,0,0:0:0:0:
192,192,173974,1,0,0:0:0:0:
320,192,174056,1,0,0:0:0:0:
64,192,174056,1,0,0:0:0:0:
448,192,174056,1,0,0:0:0:0:
192,192,174138,1,0,0:0:0:0:
64,192,174221,1,0,0:0:0:0:
320,192,174303,1,0,0:0:0:0:
64,192,174386,1,0,0:0:0:0:
320,192,174468,1,0,0:0:0:0:
64,192,174550,1,0,0:0:0:0:
192,192,174550,1,0,0:0:0:0:
448,192,174550,1,0,0:0:0:0:
320,192,174633,1,0,0:0:0:0:
64,192,174715,1,0,0:0:0:0:
320,192,174798,1,0,0:0:0:0:
64,192,174880,1,0,0:0:0:0:
320,192,174963,1,0,0:0:0:0:
448,192,175045,1,0,0:0:0:0:
64,192,175045,1,0,0:0:0:0:
192,192,175107,1,0,0:0:0:0:
320,192,175155,1,0,0:0:0:0:
448,192,175210,1,0,0:0:0:0:
320,192,175272,1,0,0:0:0:0:
192,192,175320,1,0,0:0:0:0:
448,192,175375,1,0,0:0:0:0:
64,192,175375,1,0,0:0:0:0:
320,192,175375,1,0,0:0:0:0:
192,192,176034,128,0,176693:0:0:0:0:
320,192,176364,128,0,176693:0:0:0:0:
448,192,176693,128,0,178012:0:0:0:0:
64,192,176693,1,0,0:0:0:0:
320,192,176776,1,0,0:0:0:0:
64,192,176858,1,0,0:0:0:0:
320,192,176941,1,0,0:0:0:0:
192,192,177023,1,0,0:0:0:0:
64,192,177023,1,0,0:0:0:0:
320,192,177353,1,0,0:0:0:0:
64,192,177435,1,0,0:0:0:0:
192,192,177517,1,0,0:0:0:0:
320,192,177517,1,0,0:0:0:0:
64,192,177847,1,0,0:0:0:0:
320,192,177847,1,0,0:0:0:0:
192,192,178012,128,0,179331:0:0:0:0:
320,192,178012,1,0,0:0:0:0:
448,192,178094,1,0,0:0:0:0:
64,192,178177,1,0,0:0:0:0:
448,192,178259,1,0,0:0:0:0:
320,192,178342,1,0,0:0:0:0:
64,192,178342,1,0,0:0:0:0:
448,192,178671,1,0,0:0:0:0:
64,192,178754,1,0,0:0:0:0:
320,192,178836,1,0,0:0:0:0:
448,192,178836,1,0,0:0:0:0:
448,192,179166,1,0,0:0:0:0:
64,192,179166,1,0,0:0:0:0:
320,192,179331,128,0,180649:0:0:0:0:
64,192,179331,1,0,0:0:0:0:
192,192,179413,1,0,0:0:0:0:
448,192,179496,1,0,0:0:0:0:
64,192,179578,1,0,0:0:0:0:
192,192,179660,1,0,0:0:0:0:
448,192,179660,1,0,0:0:0:0:
448,192,179990,1,0,0:0:0:0:
64,192,180072,1,0,0:0:0:0:
192,192,180155,1,0,0:0:0:0:
448,192,180155,1,0,0:0:0:0:
448,192,180485,1,0,0:0:0:0:
192,192,180485,1,0,0:0:0:0:
64,192,180649,128,0,181968:0:0:0:0:
448,192,180649,1,0,0:0:0:0:
192,192,180732,1,0,0:0:0:0:
448,192,180814,1,0,0:0:0:0:
320,192,180897,1,0,0:0:0:0:
192,192,180979,1,0,0:0:0:0:
448,192,180979,1,0,0:0:0:0:
320,192,181309,1,0,0:0:0:0:
448,192,181391,1,0,0:0:0:0:
192,192,181474,1,0,0:0:0:0:
448,192,181556,1,0,0:0:0:0:
192,192,181638,1,0,0:0:0:0:
320,192,181638,1,0,0:0:0:0:
448,192,181968,128,0,183287:0:0:0:0:
192,192,181968,1,0,0:0:0:0:
320,192,181968,1,0,0:0:0:0:
64,192,182050,1,0,0:0:0:0:
320,192,182133,1,0,0:0:0:0:
192,192,182215,1,0,0:0:0:0:
64,192,182298,1,0,0:0:0:0:
320,192,182298,1,0,0:0:0:0:
64,192,182627,1,0,0:0:0:0:
320,192,182710,1,0,0:0:0:0:
64,192,182792,1,0,0:0:0:0:
192,192,182792,1,0,0:0:0:0:
192,192,183122,1,0,0:0:0:0:
320,192,183122,1,0,0:0:0:0:
64,192,183287,128,0,184605:0:0:0:0:
192,192,183287,1,0,0:0:0:0:
320,192,183369,1,0,0:0:0:0:
448,192,183452,1,0,0:0:0:0:
192,192,183534,1,0,0:0:0:0:
320,192,183616,1,0,0:0:0:0:
448,192,183616,1,0,0:0:0:0:
320,192,183946,1,0,0:0:0:0:
192,192,184028,1,0,0:0:0:0:
320,192,184111,1,0,0:0:0:0:
448,192,184111,1,0,0:0:0:0:
192,192,184441,1,0,0:0:0:0:
448,192,184441,1,0,0:0:0:0:
320,192,184605,128,0,185924:0:0:0:0:
448,192,184605,1,0,0:0:0:0:
192,192,184688,1,0,0:0:0:0:
64,192,184770,1,0,0:0:0:0:
448,192,184853,1,0,0:0:0:0:
64,192,184935,1,0,0:0:0:0:
192,192,184935,1,0,0:0:0:0:
448,192,185265,1,0,0:0:0:0:
64,192,185347,1,0,0:0:0:0:
192,192,185430,1,0,0:0:0:0:
448,192,185430,1,0,0:0:0:0:
64,192,185759,1,0,0:0:0:0:
192,192,185759,1,0,0:0:0:0:
192,192,185924,1,0,0:0:0:0:
448,192,185924,128,0,187243:0:0:0:0:
64,192,186007,1,0,0:0:0:0:
320,192,186089,1,0,0:0:0:0:
64,192,186171,1,0,0:0:0:0:
320,192,186254,1,0,0:0:0:0:
192,192,186254,1,0,0:0:0:0:
64,192,186583,1,0,0:0:0:0:
320,192,186666,1,0,0:0:0:0:
64,192,186748,1,0,0:0:0:0:
320,192,186831,1,0,0:0:0:0:
192,192,186913,1,0,0:0:0:0:
64,192,186913,1,0,0:0:0:0:
64,192,187243,128,0,188561:0:0:0:0:
320,192,187243,1,0,0:0:0:0:
192,192,187325,1,0,0:0:0:0:
448,192,187408,1,0,0:0:0:0:
192,192,187490,1,0,0:0:0:0:
448,192,187572,1,0,0:0:0:0:
320,192,187572,1,0,0:0:0:0:
192,192,187902,1,0,0:0:0:0:
448,192,187985,1,0,0:0:0:0:
192,192,188067,1,0,0:0:0:0:
320,192,188067,1,0,0:0:0:0:
448,192,188397,1,0,0:0:0:0:
192,192,188397,1,0,0:0:0:0:
320,192,188561,128,0,189880:0:0:0:0:
192,192,188561,1,0,0:0:0:0:
64,192,188644,1,0,0:0:0:0:
448,192,188726,1,0,0:0:0:0:
64,192,188809,1,0,0:0:0:0:
448,192,188891,1,0,0:0:0:0:
192,192,188891,1,0,0:0:0:0:
64,192,189221,1,0,0:0:0:0:
448,192,189303,1,0,0:0:0:0:
192,192,189386,1,0,0:0:0:0:
64,192,189386,1,0,0:0:0:0:
64,192,189715,1,0,0:0:0:0:
448,192,189715,1,0,0:0:0:0:
448,192,189880,1,0,0:0:0:0:
192,192,189880,128,0,191199:0:0:0:0:
320,192,189963,1,0,0:0:0:0:
64,192,190045,1,0,0:0:0:0:
448,192,190127,1,0,0:0:0:0:
64,192,190210,1,0,0:0:0:0:
320,192,190210,1,0,0:0:0:0:
64,192,190539,1,0,0:0:0:0:
448,192,190622,1,0,0:0:0:0:
64,192,190704,1,0,0:0:0:0:
320,192,190704,1,0,0:0:0:0:
320,192,191034,1,0,0:0:0:0:
64,192,191034,1,0,0:0:0:0:
64,192,191199,1,0,0:0:0:0:
448,192,191199,128,0,192517:0:0:0:0:
320,192,191281,1,0,0:0:0:0:
64,192,191364,1,0,0:0:0:0:
192,192,191446,1,0,0:0:0:0:
320,192,191528,1,0,0:0:0:0:
64,192,191528,1,0,0:0:0:0:
192,192,191858,1,0,0:0:0:0:
64,192,191941,1,0,0:0:0:0:
320,192,192023,1,0,0:0:0:0:
64,192,192105,1,0,0:0:0:0:
320,192,192188,1,0,0:0:0:0:
192,192,192188,1,0,0:0:0:0:
320,192,192517,1,0,0:0:0:0:
64,192,192517,128,0,193836:0:0:0:0:
192,192,192517,1,0,0:0:0:0:
448,192,192600,1,0,0:0:0:0:
192,192,192682,1,0,0:0:0:0:
320,192,192765,1,0,0:0:0:0:
448,192,192847,1,0,0:0:0:0:
192,192,192847,1,0,0:0:0:0:
448,192,193177,1,0,0:0:0:0:
192,192,193259,1,0,0:0:0:0:
320,192,193342,1,0,0:0:0:0:
448,192,193342,1,0,0:0:0:0:
320,192,193671,1,0,0:0:0:0:
192,192,193671,1,0,0:0:0:0:
448,192,193836,128,0,195155:0:0:0:0:
192,192,193836,1,0,0:0:0:0:
64,192,193919,1,0,0:0:0:0:
192,192,194001,1,0,0:0:0:0:
64,192,194083,1,0,0:0:0:0:
192,192,194166,1,0,0:0:0:0:
320,192,194166,1,0,0:0:0:0:
192,192,194496,1,0,0:0:0:0:
320,192,194578,1,0,0:0:0:0:
64,192,194660,1,0,0:0:0:0:
192,192,194660,1,0,0:0:0:0:
64,192,194990,1,0,0:0:0:0:
320,192,194990,1,0,0:0:0:0:
192,192,195155,128,0,196474:0:0:0:0:
64,192,195155,1,0,0:0:0:0:
320,192,195237,1,0,0:0:0:0:
448,192,195320,1,0,0:0:0:0:
64,192,195402,1,0,0:0:0:0:
448,192,195485,1,0,0:0:0:0:
320,192,195485,1,0,0:0:0:0:
64,192,195814,1,0,0:0:0:0:
448,192,195897,1,0,0:0:0:0:
64,192,195979,1,0,0:0:0:0:
320,192,195979,1,0,0:0:0:0:
320,192,196144,1,0,0:0:0:0:
448,192,196144,1,0,0:0:0:0:
64,192,196226,1,0,0:0:0:0:
448,192,196309,1,0,0:0:0:0:
320,192,196309,1,0,0:0:0:0:
448,192,196391,1,0,0:0:0:0:
320,192,196474,1,0,0:0:0:0:
64,192,196474,128,0,197133:0:0:0:0:
448,192,196556,1,0,0:0:0:0:
192,192,196638,1,0,0:0:0:0:
448,192,196721,1,0,0:0:0:0:
192,192,196803,1,0,0:0:0:0:
320,192,196803,1,0,0:0:0:0:
448,192,196886,1,0,0:0:0:0:
320,192,196968,1,0,0:0:0:0:
192,192,197050,1,0,0:0:0:0:
448,192,197133,1,0,0:0:0:0:
320,192,197133,1,0,0:0:0:0:
192,192,197215,1,0,0:0:0:0:
448,192,197298,1,0,0:0:0:0:
64,192,197298,1,0,0:0:0:0:
192,192,197380,1,0,0:0:0:0:
320,192,197463,1,0,0:0:0:0:
448,192,197463,1,0,0:0:0:0:
64,192,197545,1,0,0:0:0:0:
320,192,197627,1,0,0:0:0:0:
448,192,197627,1,0,0:0:0:0:
192,192,197710,1,0,0:0:0:0:
64,192,197792,1,0,0:0:0:0:
320,192,197792,128,0,197833:0:0:0:0:
448,192,197792,128,0,197833:0:0:0:0:
192,192,197875,1,0,0:0:0:0:
320,192,197957,1,0,0:0:0:0:
448,192,197957,1,0,0:0:0:0:
192,192,198039,1,0,0:0:0:0:
448,192,198122,1,0,0:0:0:0:
320,192,198122,1,0,0:0:0:0:
64,192,198122,1,0,0:0:0:0:
192,192,198204,1,0,0:0:0:0:
64,192,198287,1,0,0:0:0:0:
448,192,198287,1,0,0:0:0:0:
320,192,198369,1,0,0:0:0:0:
64,192,198452,1,0,0:0:0:0:
192,192,198452,1,0,0:0:0:0:
320,192,198534,1,0,0:0:0:0:
64,192,198616,1,0,0:0:0:0:
192,192,198616,1,0,0:0:0:0:
320,192,198699,1,0,0:0:0:0:
64,192,198781,1,0,0:0:0:0:
448,192,198781,1,0,0:0:0:0:
192,192,198781,1,0,0:0:0:0:
320,192,198864,1,0,0:0:0:0:
64,192,198946,1,0,0:0:0:0:
448,192,198946,1,0,0:0:0:0:
320,192,199028,1,0,0:0:0:0:
448,192,199111,1,0,0:0:0:0:
64,192,199111,128,0,199152:0:0:0:0:
192,192,199111,128,0,199152:0:0:0:0:
320,192,199193,1,0,0:0:0:0:
448,192,199276,1,0,0:0:0:0:
192,192,199276,1,0,0:0:0:0:
64,192,199358,1,0,0:0:0:0:
320,192,199441,1,0,0:0:0:0:
448,192,199441,1,0,0:0:0:0:
192,192,199441,1,0,0:0:0:0:
64,192,199523,1,0,0:0:0:0:
448,192,199605,1,0,0:0:0:0:
320,192,199605,1,0,0:0:0:0:
192,192,199688,1,0,0:0:0:0:
64,192,199770,1,0,0:0:0:0:
448,192,199770,1,0,0:0:0:0:
320,192,199853,1,0,0:0:0:0:
448,192,199935,1,0,0:0:0:0:
192,192,199935,1,0,0:0:0:0:
320,192,200017,1,0,0:0:0:0:
192,192,200100,1,0,0:0:0:0:
448,192,200100,1,0,0:0:0:0:
64,192,200100,1,0,0:0:0:0:
320,192,200182,1,0,0:0:0:0:
64,192,200265,1,0,0:0:0:0:
192,192,200265,1,0,0:0:0:0:
320,192,200347,1,0,0:0:0:0:
448,192,200430,1,0,0:0:0:0:
64,192,200430,128,0,200471:0:0:0:0:
192,192,200430,128,0,200471:0:0:0:0:
320,192,200512,1,0,0:0:0:0:
192,192,200594,1,0,0:0:0:0:
448,192,200594,1,0,0:0:0:0:
320,192,200677,1,0,0:0:0:0:
192,192,200759,1,0,0:0:0:0:
448,192,200759,1,0,0:0:0:0:
64,192,200759,1,0,0:0:0:0:
320,192,200842,1,0,0:0:0:0:
64,192,200924,1,0,0:0:0:0:
192,192,200924,1,0,0:0:0:0:
448,192,201007,1,0,0:0:0:0:
320,192,201089,1,0,0:0:0:0:
64,192,201089,1,0,0:0:0:0:
192,192,201171,1,0,0:0:0:0:
320,192,201254,1,0,0:0:0:0:
448,192,201254,1,0,0:0:0:0:
192,192,201336,1,0,0:0:0:0:
320,192,201419,1,0,0:0:0:0:
448,192,201419,1,0,0:0:0:0:
64,192,201419,1,0,0:0:0:0:
192,192,201501,1,0,0:0:0:0:
64,192,201583,1,0,0:0:0:0:
448,192,201583,1,0,0:0:0:0:
320,192,201666,1,0,0:0:0:0:
64,192,201748,1,0,0:0:0:0:
192,192,201748,128,0,201789:0:0:0:0:
448,192,201748,128,0,201789:0:0:0:0:
320,192,201831,1,0,0:0:0:0:
64,192,201913,1,0,0:0:0:0:
192,192,201913,1,0,0:0:0:0:
320,192,201996,1,0,0:0:0:0:
64,192,202078,1,0,0:0:0:0:
192,192,202078,1,0,0:0:0:0:
448,192,202078,1,0,0:0:0:0:
320,192,202160,1,0,0:0:0:0:
448,192,202243,1,0,0:0:0:0:
64,192,202243,1,0,0:0:0:0:
192,192,202325,1,0,0:0:0:0:
320,192,202408,1,0,0:0:0:0:
448,192,202408,1,0,0:0:0:0:
192,192,202490,1,0,0:0:0:0:
64,192,202572,1,0,0:0:0:0:
448,192,202572,1,0,0:0:0:0:
320,192,202655,1,0,0:0:0:0:
64,192,202737,1,0,0:0:0:0:
192,192,202737,1,0,0:0:0:0:
448,192,202737,1,0,0:0:0:0:
320,192,202820,1,0,0:0:0:0:
448,192,202902,1,0,0:0:0:0:
64,192,202902,1,0,0:0:0:0:
192,192,202985,1,0,0:0:0:0:
64,192,203067,1,0,0:0:0:0:
320,192,203067,128,0,203108:0:0:0:0:
448,192,203067,128,0,203108:0:0:0:0:
192,192,203149,1,0,0:0:0:0:
320,192,203232,1,0,0:0:0:0:
448,192,203232,1,0,0:0:0:0:
64,192,203314,1,0,0:0:0:0:
320,192,203397,1,0,0:0:0:0:
448,192,203397,1,0,0:0:0:0:
192,192,203397,1,0,0:0:0:0:
64,192,203479,1,0,0:0:0:0:
320,192,203561,1,0,0:0:0:0:
448,192,203561,1,0,0:0:0:0:
64,192,203644,1,0,0:0:0:0:
320,192,203726,1,0,0:0:0:0:
448,192,203726,1,0,0:0:0:0:
192,192,203809,1,0,0:0:0:0:
320,192,203891,1,0,0:0:0:0:
448,192,203891,1,0,0:0:0:0:
192,192,203974,1,0,0:0:0:0:
320,192,204056,1,0,0:0:0:0:
448,192,204056,1,0,0:0:0:0:
64,192,204056,1,0,0:0:0:0:
192,192,204138,1,0,0:0:0:0:
320,192,204221,1,0,0:0:0:0:
448,192,204221,1,0,0:0:0:0:
192,192,204303,1,0,0:0:0:0:
448,192,204386,1,0,0:0:0:0:
320,192,204386,128,0,204427:0:0:0:0:
64,192,204386,128,0,204427:0:0:0:0:
192,192,204468,1,0,0:0:0:0:
64,192,204550,1,0,0:0:0:0:
448,192,204550,1,0,0:0:0:0:
320,192,204633,1,0,0:0:0:0:
192,192,204715,1,0,0:0:0:0:
64,192,204715,1,0,0:0:0:0:
448,192,204715,1,0,0:0:0:0:
320,192,204798,1,0,0:0:0:0:
192,192,204880,1,0,0:0:0:0:
64,192,204880,1,0,0:0:0:0:
448,192,204963,1,0,0:0:0:0:
192,192,205045,1,0,0:0:0:0:
64,192,205045,1,0,0:0:0:0:
320,192,205127,1,0,0:0:0:0:
64,192,205210,1,0,0:0:0:0:
192,192,205210,1,0,0:0:0:0:
320,192,205292,1,0,0:0:0:0:
64,192,205375,1,0,0:0:0:0:
192,192,205375,1,0,0:0:0:0:
448,192,205375,1,0,0:0:0:0:
320,192,205457,1,0,0:0:0:0:
64,192,205539,1,0,0:0:0:0:
192,192,205539,1,0,0:0:0:0:
320,192,205622,1,0,0:0:0:0:
448,192,205704,1,0,0:0:0:0:
64,192,205704,128,0,205746:0:0:0:0:
192,192,205704,128,0,205746:0:0:0:0:
320,192,205787,1,0,0:0:0:0:
64,192,205869,1,0,0:0:0:0:
448,192,205869,1,0,0:0:0:0:
192,192,205952,1,0,0:0:0:0:
320,192,206034,1,0,0:0:0:0:
448,192,206034,1,0,0:0:0:0:
64,192,206034,1,0,0:0:0:0:
192,192,206116,1,0,0:0:0:0:
320,192,206199,1,0,0:0:0:0:
448,192,206199,1,0,0:0:0:0:
64,192,206281,1,0,0:0:0:0:
192,192,206364,1,0,0:0:0:0:
448,192,206364,1,0,0:0:0:0:
64,192,206446,1,0,0:0:0:0:
320,192,206528,1,0,0:0:0:0:
448,192,206528,1,0,0:0:0:0:
64,192,206611,1,0,0:0:0:0:
192,192,206693,1,0,0:0:0:0:
448,192,206693,1,0,0:0:0:0:
320,192,206693,1,0,0:0:0:0:
64,192,206776,1,0,0:0:0:0:
320,192,206858,1,0,0:0:0:0:
448,192,206858,1,0,0:0:0:0:
192,192,206941,1,0,0:0:0:0:
64,192,207023,1,0,0:0:0:0:
320,192,207023,128,0,207064:0:0:0:0:
448,192,207023,128,0,207064:0:0:0:0:
192,192,207105,1,0,0:0:0:0:
64,192,207188,1,0,0:0:0:0:
448,192,207188,1,0,0:0:0:0:
320,192,207270,1,0,0:0:0:0:
192,192,207353,1,0,0:0:0:0:
64,192,207353,1,0,0:0:0:0:
448,192,207353,1,0,0:0:0:0:
320,192,207435,1,0,0:0:0:0:
64,192,207517,1,0,0:0:0:0:
192,192,207517,1,0,0:0:0:0:
448,192,207600,1,0,0:0:0:0:
320,192,207682,1,0,0:0:0:0:
64,192,207682,1,0,0:0:0:0:
448,192,207765,1,0,0:0:0:0:
64,192,207847,1,0,0:0:0:0:
192,192,207847,1,0,0:0:0:0:
448,192,207930,1,0,0:0:0:0:
320,192,208012,1,0,0:0:0:0:
64,192,208012,1,0,0:0:0:0:
192,192,208012,1,0,0:0:0:0:
448,192,208094,1,0,0:0:0:0:
64,192,208177,1,0,0:0:0:0:
192,192,208177,1,0,0:0:0:0:
448,192,208259,1,0,0:0:0:0:
64,192,208342,1,0,0:0:0:0:
320,192,208342,128,0,208383:0:0:0:0:
192,192,208342,128,0,208383:0:0:0:0:
448,192,208424,1,0,0:0:0:0:
64,192,208507,1,0,0:0:0:0:
192,192,208507,1,0,0:0:0:0:
448,192,208589,1,0,0:0:0:0:
192,192,208671,1,0,0:0:0:0:
320,192,208671,1,0,0:0:0:0:
64,192,208671,1,0,0:0:0:0:
448,192,208754,1,0,0:0:0:0:
192,192,208836,1,0,0:0:0:0:
320,192,208836,1,0,0:0:0:0:
64,192,208919,1,0,0:0:0:0:
448,192,209001,1,0,0:0:0:0:
320,192,209001,1,0,0:0:0:0:
192,192,209083,1,0,0:0:0:0:
320,192,209166,1,0,0:0:0:0:
448,192,209166,1,0,0:0:0:0:
192,192,209248,1,0,0:0:0:0:
64,192,209331,1,0,0:0:0:0:
448,192,209331,1,0,0:0:0:0:
320,192,209331,1,0,0:0:0:0:
192,192,209413,1,0,0:0:0:0:
64,192,209496,1,0,0:0:0:0:
448,192,209496,1,0,0:0:0:0:
320,192,209578,1,0,0:0:0:0:
448,192,209660,1,0,0:0:0:0:
192,192,209660,128,0,209702:0:0:0:0:
64,192,209660,128,0,209702:0:0:0:0:
320,192,209743,1,0,0:0:0:0:
64,192,209825,1,0,0:0:0:0:
192,192,209825,1,0,0:0:0:0:
320,192,209908,1,0,0:0:0:0:
64,192,209990,1,0,0:0:0:0:
192,192,209990,1,0,0:0:0:0:
448,192,209990,1,0,0:0:0:0:
320,192,210072,1,0,0:0:0:0:
192,192,210155,1,0,0:0:0:0:
448,192,210155,1,0,0:0:0:0:
64,192,210237,1,0,0:0:0:0:
320,192,210320,1,0,0:0:0:0:
448,192,210320,1,0,0:0:0:0:
192,192,210402,1,0,0:0:0:0:
320,192,210485,1,0,0:0:0:0:
64,192,210485,1,0,0:0:0:0:
192,192,210567,1,0,0:0:0:0:
448,192,210649,1,0,0:0:0:0:
64,192,210649,1,0,0:0:0:0:
320,192,210649,1,0,0:0:0:0:
192,192,210732,1,0,0:0:0:0:
448,192,210814,1,0,0:0:0:0:
320,192,210814,1,0,0:0:0:0:
192,192,210897,1,0,0:0:0:0:
64,192,210979,1,0,0:0:0:0:
320,192,210979,128,0,211020:0:0:0:0:
448,192,210979,128,0,211020:0:0:0:0:
192,192,211061,1,0,0:0:0:0:
64,192,211144,1,0,0:0:0:0:
448,192,211144,1,0,0:0:0:0:
320,192,211226,1,0,0:0:0:0:
64,192,211309,1,0,0:0:0:0:
448,192,211309,1,0,0:0:0:0:
192,192,211309,1,0,0:0:0:0:
320,192,211391,1,0,0:0:0:0:
448,192,211474,1,0,0:0:0:0:
192,192,211474,1,0,0:0:0:0:
64,192,211556,1,0,0:0:0:0:
192,192,211638,1,0,0:0:0:0:
448,192,211638,1,0,0:0:0:0:
320,192,211721,1,0,0:0:0:0:
192,192,211803,1,0,0:0:0:0:
64,192,211803,1,0,0:0:0:0:
320,192,211886,1,0,0:0:0:0:
64,192,211968,1,0,0:0:0:0:
192,192,211968,1,0,0:0:0:0:
448,192,211968,1,0,0:0:0:0:
320,192,212050,1,0,0:0:0:0:
192,192,212133,1,0,0:0:0:0:
448,192,212133,1,0,0:0:0:0:
320,192,212215,1,0,0:0:0:0:
448,192,212298,1,0,0:0:0:0:
192,192,212298,128,0,212339:0:0:0:0:
64,192,212298,128,0,212339:0:0:0:0:
320,192,212380,1,0,0:0:0:0:
64,192,212463,1,0,0:0:0:0:
448,192,212463,1,0,0:0:0:0:
192,192,212545,1,0,0:0:0:0:
448,192,212627,1,0,0:0:0:0:
320,192,212627,1,0,0:0:0:0:
64,192,212627,1,0,0:0:0:0:
192,192,212710,1,0,0:0:0:0:
64,192,212792,1,0,0:0:0:0:
448,192,212792,1,0,0:0:0:0:
320,192,212875,1,0,0:0:0:0:
192,192,212957,1,0,0:0:0:0:
64,192,212957,1,0,0:0:0:0:
320,192,213039,1,0,0:0:0:0:
448,192,213122,1,0,0:0:0:0:
64,192,213122,1,0,0:0:0:0:
192,192,213204,1,0,0:0:0:0:
320,192,213287,1,0,0:0:0:0:
448,192,213287,1,0,0:0:0:0:
64,192,213287,1,0,0:0:0:0:
192,192,213616,1,0,0:0:0:0:
64,192,213616,1,0,0:0:0:0:
448,192,213616,1,0,0:0:0:0:
320,192,213699,1,0,0:0:0:0:
64,192,213781,1,0,0:0:0:0:
192,192,213781,1,0,0:0:0:0:
448,192,213864,1,0,0:0:0:0:
64,192,213946,1,0,0:0:0:0:
192,192,213946,1,0,0:0:0:0:
320,192,214028,1,0,0:0:0:0:
64,192,214111,1,0,0:0:0:0:
192,192,214111,1,0,0:0:0:0:
448,192,214111,1,0,0:0:0:0:
320,192,214193,1,0,0:0:0:0:
192,192,214276,1,0,0:0:0:0:
64,192,214276,1,0,0:0:0:0:
320,192,214358,1,0,0:0:0:0:
64,192,214441,1,0,0:0:0:0:
192,192,214441,1,0,0:0:0:0:
320,192,214523,1,0,0:0:0:0:
192,192,214605,1,0,0:0:0:0:
64,192,214605,1,0,0:0:0:0:
448,192,214605,1,0,0:0:0:0:
320,192,214688,1,0,0:0:0:0:
64,192,214770,1,0,0:0:0:0:
192,192,214770,1,0,0:0:0:0:
448,192,214853,1,0,0:0:0:0:
320,192,214935,1,0,0:0:0:0:
64,192,214935,1,0,0:0:0:0:
192,192,215017,1,0,0:0:0:0:
448,192,215100,1,0,0:0:0:0:
320,192,215100,1,0,0:0:0:0:
64,192,215100,1,0,0:0:0:0:
192,192,215182,1,0,0:0:0:0:
448,192,215265,1,0,0:0:0:0:
320,192,215265,1,0,0:0:0:0:
192,192,215347,1,0,0:0:0:0:
448,192,215430,1,0,0:0:0:0:
320,192,215430,1,0,0:0:0:0:
64,192,215512,1,0,0:0:0:0:
320,192,215594,1,0,0:0:0:0:
448,192,215594,1,0,0:0:0:0:
192,192,215594,1,0,0:0:0:0:
64,192,215677,1,0,0:0:0:0:
320,192,215759,1,0,0:0:0:0:
448,192,215759,1,0,0:0:0:0:
64,192,215842,1,0,0:0:0:0:
448,192,215924,1,0,0:0:0:0:
320,192,215924,1,0,0:0:0:0:
192,192,215924,1,0,0:0:0:0:
64,192,216007,1,0,0:0:0:0:
448,192,216089,1,0,0:0:0:0:
320,192,216089,1,0,0:0:0:0:
192,192,216171,1,0,0:0:0:0:
64,192,216254,1,0,0:0:0:0:
448,192,216254,1,0,0:0:0:0:
320,192,216254,1,0,0:0:0:0:
192,192,216336,1,0,0:0:0:0:
64,192,216419,1,0,0:0:0:0:
320,192,216419,1,0,0:0:0:0:
448,192,216501,1,0,0:0:0:0:
64,192,216583,1,0,0:0:0:0:
320,192,216583,1,0,0:0:0:0:
448,192,216666,1,0,0:0:0:0:
64,192,216748,1,0,0:0:0:0:
192,192,216748,1,0,0:0:0:0:
320,192,216748,1,0,0:0:0:0:
448,192,216831,1,0,0:0:0:0:
320,192,216913,1,0,0:0:0:0:
64,192,216913,1,0,0:0:0:0:
448,192,216996,1,0,0:0:0:0:
64,192,217078,1,0,0:0:0:0:
192,192,217078,1,0,0:0:0:0:
448,192,217160,1,0,0:0:0:0:
320,192,217243,1,0,0:0:0:0:
64,192,217243,1,0,0:0:0:0:
192,192,217243,1,0,0:0:0:0:
448,192,217325,1,0,0:0:0:0:
192,192,217408,1,0,0:0:0:0:
64,192,217408,1,0,0:0:0:0:
448,192,217490,1,0,0:0:0:0:
320,192,217572,1,0,0:0:0:0:
64,192,217572,1,0,0:0:0:0:
192,192,217655,1,0,0:0:0:0:
448,192,217737,1,0,0:0:0:0:
320,192,217737,1,0,0:0:0:0:
64,192,217737,1,0,0:0:0:0:
192,192,217820,1,0,0:0:0:0:
64,192,217902,1,0,0:0:0:0:
448,192,217902,1,0,0:0:0:0:
192,192,217985,1,0,0:0:0:0:
320,192,218067,1,0,0:0:0:0:
448,192,218067,1,0,0:0:0:0:
64,192,218149,1,0,0:0:0:0:
192,192,218232,1,0,0:0:0:0:
448,192,218232,1,0,0:0:0:0:
320,192,218232,1,0,0:0:0:0:
64,192,218314,1,0,0:0:0:0:
320,192,218397,1,0,0:0:0:0:
448,192,218397,1,0,0:0:0:0:
64,192,218479,1,0,0:0:0:0:
448,192,218561,1,0,0:0:0:0:
192,192,218561,1,0,0:0:0:0:
320,192,218561,1,0,0:0:0:0:
64,192,218644,1,0,0:0:0:0:
448,192,218726,1,0,0:0:0:0:
320,192,218726,1,0,0:0:0:0:
192,192,218809,1,0,0:0:0:0:
64,192,218891,1,0,0:0:0:0:
320,192,218891,1,0,0:0:0:0:
448,192,218891,1,0,0:0:0:0:
192,192,219056,1,0,0:0:0:0:
320,192,219138,1,0,0:0:0:0:
192,192,219221,1,0,0:0:0:0:
320,192,219303,1,0,0:0:0:0:
64,192,219386,1,0,0:0:0:0:
448,192,219468,1,0,0:0:0:0:
64,192,219550,1,0,0:0:0:0:
448,192,219633,1,0,0:0:0:0:
64,192,219715,1,0,0:0:0:0:
192,192,219798,1,0,0:0:0:0:
320,192,219798,1,0,0:0:0:0:
64,192,219880,1,0,0:0:0:0:
320,192,219880,1,0,0:0:0:0:
448,192,219880,128,0,220375:0:0:0:0:
64,192,220869,1,0,0:0:0:0:
192,192,220869,1,0,0:0:0:0:
448,192,220869,1,0,0:0:0:0:
64,192,229441,5,0,0:0:0:0:
192,192,229441,1,0,0:0:0:0:
320,192,229441,1,0,0:0:0:0:
448,192,229441,1,0,0:0:0:0:
64,192,231419,1,0,0:0:0:0:
192,192,231419,1,0,0:0:0:0:
320,192,231501,1,0,0:0:0:0:
448,192,231501,1,0,0:0:0:0:
192,192,231583,1,0,0:0:0:0:
64,192,231583,1,0,0:0:0:0:
320,192,231666,1,0,0:0:0:0:
448,192,231666,1,0,0:0:0:0:
192,192,231748,1,0,0:0:0:0:
64,192,231748,1,0,0:0:0:0:
64,192,233726,128,0,233767:0:0:0:0:
192,192,233726,128,0,233767:0:0:0:0:
320,192,233726,128,0,233767:0:0:0:0:
448,192,233726,128,0,233767:0:0:0:0:
192,192,234221,128,0,234262:0:0:0:0:
448,192,234221,128,0,234262:0:0:0:0:
320,192,234221,128,0,234262:0:0:0:0:
64,192,234221,128,0,234262:0:0:0:0:
64,192,236364,1,0,0:0:0:0:
64,192,236858,1,0,0:0:0:0:
192,192,236858,1,0,0:0:0:0:
320,192,236941,1,0,0:0:0:0:
448,192,237023,1,0,0:0:0:0:
64,192,237023,128,0,237188:0:0:0:0:
320,192,237188,1,0,0:0:0:0:
192,192,237188,128,0,237353:0:0:0:0:
64,192,237353,1,0,0:0:0:0:
448,192,237353,128,0,237517:0:0:0:0:
192,192,237517,1,0,0:0:0:0:
320,192,237517,128,0,237682:0:0:0:0:
448,192,237682,1,0,0:0:0:0:
64,192,237682,128,0,237847:0:0:0:0:
320,192,237847,1,0,0:0:0:0:
192,192,237847,128,0,238015:0:0:0:0:
320,192,238015,1,0,0:0:0:0:
64,192,238015,1,0,0:0:0:0:
448,192,238015,1,0,0:0:0:0:
192,192,238179,1,0,0:0:0:0:
320,192,238262,1,0,0:0:0:0:
64,192,238344,1,0,0:0:0:0:
192,192,238509,1,0,0:0:0:0:
192,192,238674,1,0,0:0:0:0:
320,192,238674,1,0,0:0:0:0:
448,192,238674,1,0,0:0:0:0:
64,192,238839,1,0,0:0:0:0:
448,192,238921,1,0,0:0:0:0:
192,192,239004,1,0,0:0:0:0:
320,192,239168,1,0,0:0:0:0:
64,192,239168,1,0,0:0:0:0:
448,192,239168,1,0,0:0:0:0:
192,192,239333,1,0,0:0:0:0:
320,192,239498,1,0,0:0:0:0:
64,192,239580,1,0,0:0:0:0:
448,192,239663,1,0,0:0:0:0:
448,192,239828,1,0,0:0:0:0:
192,192,239993,1,0,0:0:0:0:
320,192,239993,1,0,0:0:0:0:
64,192,239993,1,0,0:0:0:0:
448,192,240157,1,0,0:0:0:0:
192,192,240240,1,0,0:0:0:0:
320,192,240322,1,0,0:0:0:0:
64,192,240487,1,0,0:0:0:0:
192,192,240652,1,0,0:0:0:0:
320,192,240652,1,0,0:0:0:0:
448,192,240652,1,0,0:0:0:0:
320,192,240817,1,0,0:0:0:0:
192,192,240899,1,0,0:0:0:0:
448,192,240982,1,0,0:0:0:0:
320,192,241146,1,0,0:0:0:0:
192,192,241311,1,0,0:0:0:0:
64,192,241311,1,0,0:0:0:0:
320,192,241311,1,0,0:0:0:0:
448,192,241476,1,0,0:0:0:0:
64,192,241558,1,0,0:0:0:0:
320,192,241641,1,0,0:0:0:0:
64,192,241806,1,0,0:0:0:0:
192,192,241806,1,0,0:0:0:0:
448,192,241806,1,0,0:0:0:0:
320,192,241971,1,0,0:0:0:0:
192,192,242135,1,0,0:0:0:0:
448,192,242218,1,0,0:0:0:0:
64,192,242300,1,0,0:0:0:0:
448,192,242465,1,0,0:0:0:0:
192,192,242465,1,0,0:0:0:0:
320,192,242547,1,0,0:0:0:0:
64,192,242547,1,0,0:0:0:0:
192,192,242630,1,0,0:0:0:0:
448,192,242630,1,0,0:0:0:0:
64,192,242795,1,0,0:0:0:0:
320,192,242795,1,0,0:0:0:0:
448,192,242960,1,0,0:0:0:0:
192,192,242960,1,0,0:0:0:0:
448,192,243124,1,0,0:0:0:0:
192,192,243124,1,0,0:0:0:0:
64,192,243289,1,0,0:0:0:0:
320,192,243289,1,0,0:0:0:0:
192,192,243289,1,0,0:0:0:0:
448,192,243289,1,0,0:0:0:0:
64,192,243453,1,0,0:0:0:0:
320,192,243453,1,0,0:0:0:0:
192,192,243618,1,0,0:0:0:0:
320,192,243618,1,0,0:0:0:0:
448,192,243618,1,0,0:0:0:0:
192,192,243783,1,0,0:0:0:0:
448,192,243783,1,0,0:0:0:0:
64,192,243948,1,0,0:0:0:0:
320,192,243948,128,0,244113:0:0:0:0:
448,192,244113,1,0,0:0:0:0:
192,192,244113,128,0,244278:0:0:0:0:
64,192,244278,1,0,0:0:0:0:
448,192,244278,1,0,0:0:0:0:
320,192,244278,1,0,0:0:0:0:
192,192,244442,1,0,0:0:0:0:
448,192,244442,1,0,0:0:0:0:
192,192,244607,1,0,0:0:0:0:
320,192,244607,1,0,0:0:0:0:
64,192,244772,1,0,0:0:0:0:
320,192,244772,128,0,244937:0:0:0:0:
64,192,244937,1,0,0:0:0:0:
192,192,244937,1,0,0:0:0:0:
448,192,244937,1,0,0:0:0:0:
192,192,245102,1,0,0:0:0:0:
448,192,245102,1,0,0:0:0:0:
192,192,245267,1,0,0:0:0:0:
448,192,245267,1,0,0:0:0:0:
64,192,245431,1,0,0:0:0:0:
192,192,245431,1,0,0:0:0:0:
64,192,245596,1,0,0:0:0:0:
192,192,245596,1,0,0:0:0:0:
448,192,245596,1,0,0:0:0:0:
320,192,245761,1,0,0:0:0:0:
192,192,245761,1,0,0:0:0:0:
448,192,245926,1,0,0:0:0:0:
192,192,245926,128,0,246091:0:0:0:0:
320,192,246091,1,0,0:0:0:0:
64,192,246091,128,0,246256:0:0:0:0:
192,192,246256,1,0,0:0:0:0:
320,192,246256,1,0,0:0:0:0:
448,192,246256,1,0,0:0:0:0:
192,192,246420,1,0,0:0:0:0:
320,192,246420,1,0,0:0:0:0:
64,192,246585,1,0,0:0:0:0:
448,192,246585,1,0,0:0:0:0:
64,192,246750,1,0,0:0:0:0:
192,192,246750,128,0,246915:0:0:0:0:
320,192,246915,1,0,0:0:0:0:
448,192,246915,1,0,0:0:0:0:
64,192,246915,1,0,0:0:0:0:
192,192,247080,1,0,0:0:0:0:
448,192,247080,128,0,247245:0:0:0:0:
192,192,247245,1,0,0:0:0:0:
320,192,247245,1,0,0:0:0:0:
64,192,247409,1,0,0:0:0:0:
320,192,247409,128,0,247575:0:0:0:0:
448,192,247574,1,0,0:0:0:0:
64,192,247575,1,0,0:0:0:0:
192,192,247575,1,0,0:0:0:0:
448,192,247739,1,0,0:0:0:0:
192,192,247739,1,0,0:0:0:0:
64,192,247904,1,0,0:0:0:0:
192,192,247904,1,0,0:0:0:0:
320,192,247904,1,0,0:0:0:0:
64,192,248069,1,0,0:0:0:0:
320,192,248069,1,0,0:0:0:0:
448,192,248234,1,0,0:0:0:0:
192,192,248234,128,0,248399:0:0:0:0:
448,192,248399,1,0,0:0:0:0:
64,192,248399,128,0,248564:0:0:0:0:
448,192,248564,1,0,0:0:0:0:
192,192,248564,1,0,0:0:0:0:
320,192,248564,1,0,0:0:0:0:
320,192,248728,1,0,0:0:0:0:
64,192,248728,1,0,0:0:0:0:
320,192,248893,1,0,0:0:0:0:
192,192,248893,1,0,0:0:0:0:
448,192,249058,1,0,0:0:0:0:
192,192,249058,128,0,249223:0:0:0:0:
448,192,249223,1,0,0:0:0:0:
320,192,249223,1,0,0:0:0:0:
64,192,249223,1,0,0:0:0:0:
64,192,249388,1,0,0:0:0:0:
320,192,249388,1,0,0:0:0:0:
64,192,249553,1,0,0:0:0:0:
320,192,249553,1,0,0:0:0:0:
320,192,249717,1,0,0:0:0:0:
448,192,249717,1,0,0:0:0:0:
320,192,249882,1,0,0:0:0:0:
64,192,249882,1,0,0:0:0:0:
448,192,249882,128,0,250047:0:0:0:0:
320,192,250047,1,0,0:0:0:0:
192,192,250047,1,0,0:0:0:0:
64,192,250212,1,0,0:0:0:0:
320,192,250212,128,0,250377:0:0:0:0:
448,192,250377,1,0,0:0:0:0:
192,192,250377,128,0,250542:0:0:0:0:
320,192,250542,1,0,0:0:0:0:
448,192,250542,1,0,0:0:0:0:
64,192,250542,128,0,250706:0:0:0:0:
320,192,250706,1,0,0:0:0:0:
192,192,250706,1,0,0:0:0:0:
64,192,250871,1,0,0:0:0:0:
448,192,250871,1,0,0:0:0:0:
448,192,251036,1,0,0:0:0:0:
320,192,251036,1,0,0:0:0:0:
448,192,251201,1,0,0:0:0:0:
64,192,251201,1,0,0:0:0:0:
192,192,251201,1,0,0:0:0:0:
320,192,251283,1,0,0:0:0:0:
192,192,251366,1,0,0:0:0:0:
64,192,251366,128,0,251531:0:0:0:0:
448,192,251448,1,0,0:0:0:0:
320,192,251531,1,0,0:0:0:0:
192,192,251531,1,0,0:0:0:0:
192,192,251695,1,0,0:0:0:0:
320,192,251695,1,0,0:0:0:0:
448,192,251695,128,0,252024:0:0:0:0:
320,192,251860,1,0,0:0:0:0:
192,192,251860,1,0,0:0:0:0:
192,192,252024,1,0,0:0:0:0:
320,192,252024,1,0,0:0:0:0:
192,192,252189,1,0,0:0:0:0:
320,192,252189,1,0,0:0:0:0:
64,192,252354,1,0,0:0:0:0:
192,192,252354,1,0,0:0:0:0:
320,192,252354,1,0,0:0:0:0:
448,192,252354,1,0,0:0:0:0:
64,192,252684,1,0,0:0:0:0:
320,192,252684,1,0,0:0:0:0:
64,192,252849,1,0,0:0:0:0:
192,192,252849,1,0,0:0:0:0:
448,192,252849,1,0,0:0:0:0:
320,192,253178,1,0,0:0:0:0:
192,192,253178,1,0,0:0:0:0:
448,192,253343,1,0,0:0:0:0:
192,192,253343,1,0,0:0:0:0:
64,192,253508,1,0,0:0:0:0:
320,192,253508,1,0,0:0:0:0:
448,192,253508,1,0,0:0:0:0:
192,192,253838,1,0,0:0:0:0:
448,192,253838,1,0,0:0:0:0:
64,192,254002,1,0,0:0:0:0:
320,192,254002,1,0,0:0:0:0:
192,192,254167,1,0,0:0:0:0:
64,192,254167,1,0,0:0:0:0:
448,192,254167,1,0,0:0:0:0:
320,192,254497,1,0,0:0:0:0:
448,192,254497,1,0,0:0:0:0:
64,192,254662,1,0,0:0:0:0:
320,192,254662,1,0,0:0:0:0:
64,192,254827,1,0,0:0:0:0:
192,192,254827,1,0,0:0:0:0:
448,192,254827,1,0,0:0:0:0:
320,192,254991,1,0,0:0:0:0:
192,192,255321,1,0,0:0:0:0:
64,192,255486,1,0,0:0:0:0:
320,192,255486,1,0,0:0:0:0:
448,192,255486,1,0,0:0:0:0:
448,192,255816,128,0,256475:0:0:0:0:
64,192,255816,1,0,0:0:0:0:
192,192,255816,1,0,0:0:0:0:
192,192,255980,1,0,0:0:0:0:
320,192,255980,1,0,0:0:0:0:
64,192,256145,1,0,0:0:0:0:
192,192,256145,1,0,0:0:0:0:
320,192,256145,1,0,0:0:0:0:
64,192,256475,128,0,257134:0:0:0:0:
320,192,256475,1,0,0:0:0:0:
192,192,256475,1,0,0:0:0:0:
192,192,256640,1,0,0:0:0:0:
448,192,256640,1,0,0:0:0:0:
192,192,256805,1,0,0:0:0:0:
320,192,256805,1,0,0:0:0:0:
448,192,256805,1,0,0:0:0:0:
192,192,257134,1,0,0:0:0:0:
320,192,257134,1,0,0:0:0:0:
448,192,257134,1,0,0:0:0:0:
192,192,257299,1,0,0:0:0:0:
320,192,257299,1,0,0:0:0:0:
448,192,257299,1,0,0:0:0:0:
64,192,257464,1,0,0:0:0:0:
192,192,257464,1,0,0:0:0:0:
320,192,257464,1,0,0:0:0:0:
64,192,257629,1,0,0:0:0:0:
192,192,257629,1,0,0:0:0:0:
320,192,257629,1,0,0:0:0:0:
448,192,257629,1,0,0:0:0:0:
448,192,257958,1,0,0:0:0:0:
192,192,257958,1,0,0:0:0:0:
448,192,258123,1,0,0:0:0:0:
320,192,258123,1,0,0:0:0:0:
64,192,258123,1,0,0:0:0:0:
192,192,258453,1,0,0:0:0:0:
320,192,258453,1,0,0:0:0:0:
64,192,258618,1,0,0:0:0:0:
320,192,258618,1,0,0:0:0:0:
448,192,258783,1,0,0:0:0:0:
64,192,258783,1,0,0:0:0:0:
192,192,258783,1,0,0:0:0:0:
320,192,259112,1,0,0:0:0:0:
64,192,259112,1,0,0:0:0:0:
192,192,259277,1,0,0:0:0:0:
448,192,259277,1,0,0:0:0:0:
64,192,259442,1,0,0:0:0:0:
448,192,259442,1,0,0:0:0:0:
320,192,259442,1,0,0:0:0:0:
64,192,259772,1,0,0:0:0:0:
192,192,259772,1,0,0:0:0:0:
448,192,259772,1,0,0:0:0:0:
320,192,259772,1,0,0:0:0:0:
448,192,259936,1,0,0:0:0:0:
192,192,259936,1,0,0:0:0:0:
64,192,260101,1,0,0:0:0:0:
320,192,260101,1,0,0:0:0:0:
448,192,260101,1,0,0:0:0:0:
192,192,260266,1,0,0:0:0:0:
320,192,260596,1,0,0:0:0:0:
192,192,260761,1,0,0:0:0:0:
64,192,260761,1,0,0:0:0:0:
448,192,260761,1,0,0:0:0:0:
448,192,261090,1,0,0:0:0:0:
64,192,261090,128,0,261750:0:0:0:0:
320,192,261090,1,0,0:0:0:0:
192,192,261255,1,0,0:0:0:0:
320,192,261255,1,0,0:0:0:0:
448,192,261420,1,0,0:0:0:0:
320,192,261420,1,0,0:0:0:0:
192,192,261502,1,0,0:0:0:0:
448,192,261585,1,0,0:0:0:0:
192,192,261667,1,0,0:0:0:0:
448,192,261750,128,0,262409:0:0:0:0:
320,192,261750,1,0,0:0:0:0:
320,192,261914,1,0,0:0:0:0:
64,192,261914,1,0,0:0:0:0:
64,192,262079,1,0,0:0:0:0:
192,192,262079,1,0,0:0:0:0:
64,192,262409,1,0,0:0:0:0:
192,192,262409,128,0,262821:0:0:0:0:
320,192,262409,128,0,262821:0:0:0:0:
448,192,262903,1,0,0:0:0:0:
64,192,262903,1,0,0:0:0:0:
192,192,262903,128,0,263316:0:0:0:0:
320,192,262903,128,0,263316:0:0:0:0:
448,192,263233,1,0,0:0:0:0:
64,192,263316,1,0,0:0:0:0:
448,192,263398,128,0,264387:0:0:0:0:
320,192,263398,128,0,264305:0:0:0:0:
192,192,263398,128,0,264222:0:0:0:0:
64,192,264222,5,0,0:0:0:0:
192,192,264305,1,0,0:0:0:0:
320,192,264387,1,0,0:0:0:0:
64,192,264387,1,0,0:0:0:0:
192,192,264469,1,0,0:0:0:0:
64,192,264552,1,0,0:0:0:0:
448,192,264552,1,0,0:0:0:0:
320,192,264634,1,0,0:0:0:0:
192,192,264717,1,0,0:0:0:0:
64,192,264717,1,0,0:0:0:0:
448,192,264799,1,0,0:0:0:0:
320,192,264881,5,0,0:0:0:0:
192,192,264964,1,0,0:0:0:0:
64,192,265046,1,0,0:0:0:0:
448,192,265046,1,0,0:0:0:0:
320,192,265046,128,0,265129:0:0:0:0:
192,192,265129,128,0,265211:0:0:0:0:
64,192,265211,128,0,265294:0:0:0:0:
320,192,265294,128,0,265376:0:0:0:0:
64,192,265376,1,0,0:0:0:0:
192,192,265376,1,0,0:0:0:0:
448,192,265376,128,0,265458:0:0:0:0:
320,192,265458,1,0,0:0:0:0:
192,192,265541,1,0,0:0:0:0:
64,192,265623,1,0,0:0:0:0:
448,192,265706,1,0,0:0:0:0:
192,192,265706,128,0,265788:0:0:0:0:
320,192,265788,128,0,265870:0:0:0:0:
192,192,265870,128,0,265953:0:0:0:0:
320,192,265953,128,0,266035:0:0:0:0:
64,192,266035,1,0,0:0:0:0:
192,192,266035,1,0,0:0:0:0:
448,192,266035,128,0,266118:0:0:0:0:
320,192,266118,128,0,266200:0:0:0:0:
192,192,266200,128,0,266283:0:0:0:0:
448,192,266283,128,0,266365:0:0:0:0:
320,192,266365,1,0,0:0:0:0:
64,192,266365,128,0,266447:0:0:0:0:
192,192,266447,128,0,266530:0:0:0:0:
320,192,266530,128,0,266612:0:0:0:0:
192,192,266612,128,0,266695:0:0:0:0:
64,192,266695,1,0,0:0:0:0:
320,192,266695,1,0,0:0:0:0:
448,192,266695,128,0,266777:0:0:0:0:
192,192,266777,128,0,266860:0:0:0:0:
64,192,266860,128,0,266942:0:0:0:0:
448,192,266942,128,0,267024:0:0:0:0:
192,192,267024,1,0,0:0:0:0:
320,192,267024,128,0,267107:0:0:0:0:
64,192,267107,128,0,267189:0:0:0:0:
320,192,267189,128,0,267272:0:0:0:0:
192,192,267272,128,0,267354:0:0:0:0:
448,192,267354,1,0,0:0:0:0:
64,192,267354,1,0,0:0:0:0:
320,192,267354,128,0,267436:0:0:0:0:
192,192,267436,128,0,267519:0:0:0:0:
64,192,267519,128,0,267601:0:0:0:0:
320,192,267601,128,0,267684:0:0:0:0:
448,192,267684,1,0,0:0:0:0:
192,192,267684,128,0,267766:0:0:0:0:
64,192,267766,128,0,267849:0:0:0:0:
320,192,267849,128,0,267931:0:0:0:0:
192,192,267931,128,0,268013:0:0:0:0:
320,192,268013,1,0,0:0:0:0:
64,192,268013,1,0,0:0:0:0:
448,192,268013,1,0,0:0:0:0:
192,192,268096,1,0,0:0:0:0:
448,192,268178,1,0,0:0:0:0:
192,192,268261,1,0,0:0:0:0:
64,192,268343,1,0,0:0:0:0:
320,192,268343,128,0,268425:0:0:0:0:
448,192,268425,128,0,268508:0:0:0:0:
320,192,268508,128,0,268590:0:0:0:0:
192,192,268590,128,0,268673:0:0:0:0:
448,192,268673,1,0,0:0:0:0:
64,192,268673,1,0,0:0:0:0:
320,192,268673,1,0,0:0:0:0:
192,192,268755,1,0,0:0:0:0:
64,192,268838,1,0,0:0:0:0:
320,192,268920,1,0,0:0:0:0:
448,192,269002,1,0,0:0:0:0:
192,192,269002,128,0,269085:0:0:0:0:
64,192,269085,128,0,269167:0:0:0:0:
320,192,269167,128,0,269250:0:0:0:0:
192,192,269250,128,0,269332:0:0:0:0:
64,192,269332,1,0,0:0:0:0:
448,192,269332,1,0,0:0:0:0:
320,192,269332,128,0,269414:0:0:0:0:
192,192,269414,128,0,269497:0:0:0:0:
448,192,269497,128,0,269579:0:0:0:0:
320,192,269579,128,0,269662:0:0:0:0:
64,192,269662,1,0,0:0:0:0:
192,192,269662,128,0,269744:0:0:0:0:
448,192,269744,128,0,269827:0:0:0:0:
192,192,269827,128,0,269909:0:0:0:0:
320,192,269909,128,0,269991:0:0:0:0:
192,192,269991,1,0,0:0:0:0:
64,192,269991,1,0,0:0:0:0:
448,192,269991,1,0,0:0:0:0:
320,192,270074,1,0,0:0:0:0:
64,192,270156,1,0,0:0:0:0:
448,192,270239,1,0,0:0:0:0:
192,192,270321,1,0,0:0:0:0:
320,192,270321,1,0,0:0:0:0:
64,192,270321,128,0,271310:0:0:0:0:
448,192,270486,1,0,0:0:0:0:
192,192,270486,1,0,0:0:0:0:
320,192,270651,1,0,0:0:0:0:
448,192,270651,1,0,0:0:0:0:
192,192,270651,1,0,0:0:0:0:
320,192,270816,1,0,0:0:0:0:
448,192,270816,1,0,0:0:0:0:
448,192,270980,1,0,0:0:0:0:
192,192,270980,1,0,0:0:0:0:
448,192,271145,1,0,0:0:0:0:
192,192,271145,1,0,0:0:0:0:
192,192,271310,1,0,0:0:0:0:
320,192,271310,1,0,0:0:0:0:
448,192,271310,1,0,0:0:0:0:
64,192,271475,1,0,0:0:0:0:
320,192,271475,1,0,0:0:0:0:
448,192,271557,1,0,0:0:0:0:
192,192,271640,1,0,0:0:0:0:
320,192,271640,128,0,271969:0:0:0:0:
192,192,271805,1,0,0:0:0:0:
448,192,271805,1,0,0:0:0:0:
448,192,271969,1,0,0:0:0:0:
64,192,271969,1,0,0:0:0:0:
192,192,271969,128,0,272299:0:0:0:0:
448,192,272134,1,0,0:0:0:0:
320,192,272134,1,0,0:0:0:0:
320,192,272299,1,0,0:0:0:0:
64,192,272299,128,0,272629:0:0:0:0:
448,192,272464,1,0,0:0:0:0:
320,192,272464,1,0,0:0:0:0:
192,192,272629,1,0,0:0:0:0:
320,192,272629,1,0,0:0:0:0:
448,192,272629,128,0,272958:0:0:0:0:
192,192,272794,1,0,0:0:0:0:
320,192,272794,1,0,0:0:0:0:
64,192,272958,1,0,0:0:0:0:
320,192,272958,128,0,273206:0:0:0:0:
448,192,273123,1,0,0:0:0:0:
64,192,273123,1,0,0:0:0:0:
192,192,273206,128,0,273453:0:0:0:0:
448,192,273288,1,0,0:0:0:0:
320,192,273288,1,0,0:0:0:0:
64,192,273288,1,0,0:0:0:0:
448,192,273453,1,0,0:0:0:0:
64,192,273453,128,0,273618:0:0:0:0:
320,192,273618,1,0,0:0:0:0:
448,192,273618,1,0,0:0:0:0:
192,192,273618,128,0,273947:0:0:0:0:
64,192,273783,1,0,0:0:0:0:
320,192,273783,1,0,0:0:0:0:
448,192,273947,1,0,0:0:0:0:
64,192,273947,1,0,0:0:0:0:
320,192,273947,128,0,274277:0:0:0:0:
448,192,274112,1,0,0:0:0:0:
192,192,274112,128,0,274277:0:0:0:0:
448,192,274277,1,0,0:0:0:0:
64,192,274277,128,0,274772:0:0:0:0:
448,192,274442,1,0,0:0:0:0:
192,192,274442,1,0,0:0:0:0:
448,192,274607,1,0,0:0:0:0:
192,192,274607,1,0,0:0:0:0:
320,192,274607,1,0,0:0:0:0:
320,192,274772,1,0,0:0:0:0:
448,192,274772,128,0,275266:0:0:0:0:
64,192,274936,1,0,0:0:0:0:
192,192,274936,1,0,0:0:0:0:
192,192,275101,1,0,0:0:0:0:
320,192,275101,1,0,0:0:0:0:
64,192,275266,1,0,0:0:0:0:
320,192,275266,1,0,0:0:0:0:
192,192,275349,1,0,0:0:0:0:
320,192,275431,1,0,0:0:0:0:
192,192,275513,1,0,0:0:0:0:
320,192,275596,1,0,0:0:0:0:
448,192,275596,1,0,0:0:0:0:
64,192,275596,128,0,275761:0:0:0:0:
320,192,275761,128,0,275925:0:0:0:0:
448,192,275761,1,0,0:0:0:0:
192,192,275925,128,0,276090:0:0:0:0:
64,192,275925,1,0,0:0:0:0:
448,192,275925,1,0,0:0:0:0:
448,192,276090,128,0,276255:0:0:0:0:
320,192,276090,1,0,0:0:0:0:
192,192,276255,128,0,276420:0:0:0:0:
64,192,276255,1,0,0:0:0:0:
448,192,276420,1,0,0:0:0:0:
320,192,276420,128,0,276585:0:0:0:0:
64,192,276585,128,0,277079:0:0:0:0:
192,192,276585,1,0,0:0:0:0:
448,192,276585,1,0,0:0:0:0:
320,192,276750,1,0,0:0:0:0:
448,192,276914,128,0,277079:0:0:0:0:
192,192,276914,1,0,0:0:0:0:
320,192,277079,128,0,277244:0:0:0:0:
192,192,277244,128,0,277574:0:0:0:0:
448,192,277244,1,0,0:0:0:0:
64,192,277244,1,0,0:0:0:0:
320,192,277409,1,0,0:0:0:0:
448,192,277574,128,0,277739:0:0:0:0:
64,192,277574,1,0,0:0:0:0:
320,192,277739,128,0,278068:0:0:0:0:
192,192,277739,1,0,0:0:0:0:
64,192,277903,1,0,0:0:0:0:
448,192,277903,1,0,0:0:0:0:
64,192,278068,128,0,278233:0:0:0:0:
192,192,278068,1,0,0:0:0:0:
448,192,278233,128,0,278563:0:0:0:0:
320,192,278233,1,0,0:0:0:0:
320,192,278398,128,0,278563:0:0:0:0:
192,192,278398,1,0,0:0:0:0:
192,192,278563,128,0,278728:0:0:0:0:
64,192,278563,1,0,0:0:0:0:
320,192,278728,128,0,278892:0:0:0:0:
448,192,278728,1,0,0:0:0:0:
64,192,278892,128,0,279057:0:0:0:0:
192,192,278892,1,0,0:0:0:0:
320,192,279057,128,0,279222:0:0:0:0:
448,192,279057,1,0,0:0:0:0:
448,192,279222,128,0,279387:0:0:0:0:
192,192,279222,1,0,0:0:0:0:
64,192,279387,128,0,279552:0:0:0:0:
320,192,279387,1,0,0:0:0:0:
320,192,279552,128,0,279717:0:0:0:0:
192,192,279552,1,0,0:0:0:0:
64,192,279634,1,0,0:0:0:0:
448,192,279717,1,0,0:0:0:0:
192,192,279717,128,0,279881:0:0:0:0:
320,192,279881,1,0,0:0:0:0:
448,192,279881,1,0,0:0:0:0:
64,192,279881,1,0,0:0:0:0:
320,192,280046,128,0,280211:0:0:0:0:
192,192,280046,1,0,0:0:0:0:
64,192,280211,128,0,280376:0:0:0:0:
448,192,280211,1,0,0:0:0:0:
320,192,280294,1,0,0:0:0:0:
448,192,280376,1,0,0:0:0:0:
192,192,280376,128,0,280541:0:0:0:0:
64,192,280541,1,0,0:0:0:0:
448,192,280541,1,0,0:0:0:0:
320,192,280541,1,0,0:0:0:0:
320,192,280706,1,0,0:0:0:0:
64,192,280788,1,0,0:0:0:0:
192,192,280870,1,0,0:0:0:0:
448,192,280870,128,0,282024:0:0:0:0:
320,192,280870,1,0,0:0:0:0:
64,192,281035,1,0,0:0:0:0:
64,192,281200,1,0,0:0:0:0:
320,192,281200,1,0,0:0:0:0:
320,192,281365,1,0,0:0:0:0:
64,192,281530,1,0,0:0:0:0:
192,192,281530,1,0,0:0:0:0:
192,192,281695,1,0,0:0:0:0:
64,192,281860,1,0,0:0:0:0:
320,192,281860,1,0,0:0:0:0:
64,192,282024,128,0,282849:0:0:0:0:
320,192,282024,1,0,0:0:0:0:
192,192,282189,1,0,0:0:0:0:
448,192,282189,1,0,0:0:0:0:
192,192,282354,1,0,0:0:0:0:
320,192,282519,1,0,0:0:0:0:
448,192,282519,1,0,0:0:0:0:
448,192,282684,1,0,0:0:0:0:
192,192,282684,1,0,0:0:0:0:
320,192,282849,128,0,283013:0:0:0:0:
192,192,282849,1,0,0:0:0:0:
192,192,283013,128,0,283508:0:0:0:0:
64,192,283013,1,0,0:0:0:0:
320,192,283178,1,0,0:0:0:0:
448,192,283178,1,0,0:0:0:0:
64,192,283343,1,0,0:0:0:0:
448,192,283508,128,0,284167:0:0:0:0:
320,192,283508,1,0,0:0:0:0:
64,192,283508,1,0,0:0:0:0:
192,192,283673,1,0,0:0:0:0:
192,192,283838,1,0,0:0:0:0:
320,192,283838,1,0,0:0:0:0:
64,192,284002,128,0,284167:0:0:0:0:
320,192,284002,1,0,0:0:0:0:
192,192,284167,128,0,284332:0:0:0:0:
320,192,284167,1,0,0:0:0:0:
448,192,284332,128,0,284497:0:0:0:0:
64,192,284332,1,0,0:0:0:0:
320,192,284497,128,0,284662:0:0:0:0:
192,192,284497,1,0,0:0:0:0:
192,192,284662,128,0,284827:0:0:0:0:
448,192,284662,1,0,0:0:0:0:
64,192,284827,128,0,286145:0:0:0:0:
320,192,284827,1,0,0:0:0:0:
448,192,284827,1,0,0:0:0:0:
192,192,284991,1,0,0:0:0:0:
192,192,285156,1,0,0:0:0:0:
320,192,285156,1,0,0:0:0:0:
448,192,285156,1,0,0:0:0:0:
320,192,285321,1,0,0:0:0:0:
192,192,285486,1,0,0:0:0:0:
448,192,285486,1,0,0:0:0:0:
192,192,285651,1,0,0:0:0:0:
448,192,285651,1,0,0:0:0:0:
320,192,285816,1,0,0:0:0:0:
448,192,285816,1,0,0:0:0:0:
320,192,285980,1,0,0:0:0:0:
448,192,285980,1,0,0:0:0:0:
192,192,286145,1,0,0:0:0:0:
448,192,286145,1,0,0:0:0:0:
320,192,286145,1,0,0:0:0:0:
448,192,286310,128,0,286475:0:0:0:0:
192,192,286310,1,0,0:0:0:0:
320,192,286475,128,0,286640:0:0:0:0:
64,192,286475,1,0,0:0:0:0:
192,192,286640,128,0,286805:0:0:0:0:
448,192,286640,1,0,0:0:0:0:
320,192,286805,128,0,286969:0:0:0:0:
448,192,286805,1,0,0:0:0:0:
64,192,286969,128,0,287134:0:0:0:0:
192,192,286969,1,0,0:0:0:0:
320,192,287134,128,0,287299:0:0:0:0:
192,192,287134,1,0,0:0:0:0:
448,192,287134,1,0,0:0:0:0:
192,192,287299,128,0,287464:0:0:0:0:
448,192,287299,1,0,0:0:0:0:
448,192,287464,128,0,287629:0:0:0:0:
64,192,287464,1,0,0:0:0:0:
64,192,287629,128,0,287794:0:0:0:0:
320,192,287629,1,0,0:0:0:0:
320,192,287794,128,0,287958:0:0:0:0:
448,192,287794,1,0,0:0:0:0:
192,192,287794,1,0,0:0:0:0:
192,192,287958,128,0,288123:0:0:0:0:
64,192,287958,1,0,0:0:0:0:
448,192,288123,128,0,288288:0:0:0:0:
320,192,288123,1,0,0:0:0:0:
192,192,288288,128,0,288453:0:0:0:0:
64,192,288288,1,0,0:0:0:0:
320,192,288453,128,0,288783:0:0:0:0:
64,192,288453,1,0,0:0:0:0:
448,192,288618,128,0,288783:0:0:0:0:
192,192,288618,1,0,0:0:0:0:
192,192,288783,128,0,289112:0:0:0:0:
64,192,288783,1,0,0:0:0:0:
320,192,288947,128,0,289277:0:0:0:0:
448,192,289112,128,0,289442:0:0:0:0:
64,192,289112,1,0,0:0:0:0:
192,192,289277,128,0,289442:0:0:0:0:
320,192,289442,128,0,289607:0:0:0:0:
64,192,289442,1,0,0:0:0:0:
448,192,289607,128,0,289772:0:0:0:0:
192,192,289607,1,0,0:0:0:0:
64,192,289772,128,0,289936:0:0:0:0:
320,192,289772,1,0,0:0:0:0:
320,192,289936,128,0,290101:0:0:0:0:
448,192,289936,1,0,0:0:0:0:
192,192,290101,128,0,291090:0:0:0:0:
64,192,290101,1,0,0:0:0:0:
448,192,290266,1,0,0:0:0:0:
320,192,290431,1,0,0:0:0:0:
64,192,290596,1,0,0:0:0:0:
448,192,290761,1,0,0:0:0:0:
320,192,290925,1,0,0:0:0:0:
64,192,291090,1,0,0:0:0:0:
448,192,291090,1,0,0:0:0:0:
192,192,291173,1,0,0:0:0:0:
320,192,291255,1,0,0:0:0:0:
192,192,291338,1,0,0:0:0:0:
448,192,291420,128,0,292739:0:0:0:0:
320,192,291420,1,0,0:0:0:0:
64,192,291420,1,0,0:0:0:0:
192,192,291585,1,0,0:0:0:0:
64,192,291750,1,0,0:0:0:0:
192,192,291750,1,0,0:0:0:0:
320,192,291914,1,0,0:0:0:0:
320,192,292079,1,0,0:0:0:0:
192,192,292244,1,0,0:0:0:0:
64,192,292409,1,0,0:0:0:0:
192,192,292409,1,0,0:0:0:0:
320,192,292574,1,0,0:0:0:0:
64,192,292656,1,0,0:0:0:0:
192,192,292739,128,0,292903:0:0:0:0:
320,192,292739,1,0,0:0:0:0:
320,192,292903,128,0,293068:0:0:0:0:
448,192,292903,1,0,0:0:0:0:
64,192,293068,128,0,293233:0:0:0:0:
192,192,293068,1,0,0:0:0:0:
448,192,293068,1,0,0:0:0:0:
320,192,293233,128,0,293398:0:0:0:0:
448,192,293233,1,0,0:0:0:0:
192,192,293398,128,0,293563:0:0:0:0:
64,192,293398,1,0,0:0:0:0:
448,192,293563,128,0,293728:0:0:0:0:
320,192,293563,1,0,0:0:0:0:
64,192,293728,1,0,0:0:0:0:
192,192,293728,1,0,0:0:0:0:
320,192,293892,128,0,294057:0:0:0:0:
192,192,293975,128,0,294057:0:0:0:0:
64,192,294057,128,0,294717:0:0:0:0:
448,192,294057,1,0,0:0:0:0:
320,192,294222,1,0,0:0:0:0:
192,192,294387,1,0,0:0:0:0:
448,192,294387,1,0,0:0:0:0:
448,192,294552,128,0,294717:0:0:0:0:
320,192,294634,128,0,294717:0:0:0:0:
192,192,294717,128,0,295376:0:0:0:0:
320,192,294881,1,0,0:0:0:0:
448,192,295046,1,0,0:0:0:0:
320,192,295046,1,0,0:0:0:0:
64,192,295211,128,0,295376:0:0:0:0:
320,192,295294,128,0,295376:0:0:0:0:
448,192,295376,128,0,296035:0:0:0:0:
192,192,295541,1,0,0:0:0:0:
64,192,295706,1,0,0:0:0:0:
192,192,295706,1,0,0:0:0:0:
320,192,295870,128,0,296035:0:0:0:0:
192,192,295953,128,0,296035:0:0:0:0:
64,192,296035,128,0,296530:0:0:0:0:
320,192,296200,1,0,0:0:0:0:
320,192,296365,1,0,0:0:0:0:
448,192,296365,1,0,0:0:0:0:
192,192,296447,1,0,0:0:0:0:
320,192,296530,1,0,0:0:0:0:
448,192,296530,1,0,0:0:0:0:
192,192,296612,1,0,0:0:0:0:
448,192,296695,1,0,0:0:0:0:
320,192,296695,1,0,0:0:0:0:
64,192,296695,1,0,0:0:0:0:
320,192,296860,1,0,0:0:0:0:
64,192,296860,128,0,297024:0:0:0:0:
448,192,297024,1,0,0:0:0:0:
192,192,297024,128,0,297189:0:0:0:0:
64,192,297189,1,0,0:0:0:0:
448,192,297189,128,0,297354:0:0:0:0:
192,192,297354,1,0,0:0:0:0:
320,192,297354,128,0,297519:0:0:0:0:
448,192,297519,1,0,0:0:0:0:
64,192,297519,128,0,297684:0:0:0:0:
320,192,297684,1,0,0:0:0:0:
448,192,297684,1,0,0:0:0:0:
192,192,297684,128,0,297849:0:0:0:0:
64,192,297849,1,0,0:0:0:0:
320,192,297849,128,0,298013:0:0:0:0:
448,192,298013,1,0,0:0:0:0:
64,192,298013,128,0,298178:0:0:0:0:
192,192,298178,1,0,0:0:0:0:
448,192,298178,128,0,298343:0:0:0:0:
320,192,298343,1,0,0:0:0:0:
64,192,298343,1,0,0:0:0:0:
192,192,298343,128,0,298508:0:0:0:0:
448,192,298508,1,0,0:0:0:0:
320,192,298508,128,0,298673:0:0:0:0:
192,192,298673,1,0,0:0:0:0:
64,192,298673,128,0,298838:0:0:0:0:
448,192,298838,1,0,0:0:0:0:
320,192,298838,128,0,299002:0:0:0:0:
448,192,299002,1,0,0:0:0:0:
192,192,299002,128,0,299332:0:0:0:0:
320,192,299167,1,0,0:0:0:0:
64,192,299167,128,0,299332:0:0:0:0:
448,192,299332,1,0,0:0:0:0:
320,192,299332,128,0,299662:0:0:0:0:
192,192,299497,128,0,299827:0:0:0:0:
448,192,299662,1,0,0:0:0:0:
64,192,299662,128,0,299991:0:0:0:0:
320,192,299827,128,0,299991:0:0:0:0:
448,192,299991,1,0,0:0:0:0:
192,192,299991,128,0,300156:0:0:0:0:
320,192,300156,1,0,0:0:0:0:
64,192,300156,128,0,300321:0:0:0:0:
192,192,300321,1,0,0:0:0:0:
448,192,300321,128,0,300486:0:0:0:0:
64,192,300486,1,0,0:0:0:0:
192,192,300486,128,0,300651:0:0:0:0:
448,192,300651,1,0,0:0:0:0:
320,192,300651,128,0,301640:0:0:0:0:
64,192,300816,1,0,0:0:0:0:
192,192,300980,1,0,0:0:0:0:
448,192,300980,1,0,0:0:0:0:
448,192,301145,1,0,0:0:0:0:
64,192,301310,1,0,0:0:0:0:
192,192,301310,1,0,0:0:0:0:
192,192,301475,1,0,0:0:0:0:
64,192,301640,1,0,0:0:0:0:
448,192,301640,1,0,0:0:0:0:
192,192,301640,1,0,0:0:0:0:
320,192,301722,1,0,0:0:0:0:
192,192,301805,1,0,0:0:0:0:
320,192,301887,1,0,0:0:0:0:
192,192,301969,1,0,0:0:0:0:
448,192,301969,1,0,0:0:0:0:
64,192,301969,128,0,303288:0:0:0:0:
320,192,302134,1,0,0:0:0:0:
320,192,302299,1,0,0:0:0:0:
448,192,302299,128,0,302464:0:0:0:0:
192,192,302464,128,0,302629:0:0:0:0:
448,192,302629,128,0,302794:0:0:0:0:
320,192,302794,128,0,302958:0:0:0:0:
448,192,302958,1,0,0:0:0:0:
192,192,302958,128,0,303123:0:0:0:0:
448,192,303123,128,0,303288:0:0:0:0:
320,192,303206,128,0,303288:0:0:0:0:
192,192,303288,128,0,303453:0:0:0:0:
64,192,303453,1,0,0:0:0:0:
320,192,303453,128,0,303618:0:0:0:0:
64,192,303618,128,0,303783:0:0:0:0:
192,192,303618,1,0,0:0:0:0:
448,192,303618,1,0,0:0:0:0:
448,192,303783,1,0,0:0:0:0:
192,192,303783,128,0,303947:0:0:0:0:
64,192,303947,1,0,0:0:0:0:
320,192,303947,128,0,304112:0:0:0:0:
192,192,304112,1,0,0:0:0:0:
448,192,304112,128,0,304277:0:0:0:0:
320,192,304277,1,0,0:0:0:0:
64,192,304277,128,0,304442:0:0:0:0:
192,192,304277,1,0,0:0:0:0:
192,192,304442,128,0,304607:0:0:0:0:
320,192,304524,128,0,304607:0:0:0:0:
64,192,304607,1,0,0:0:0:0:
448,192,304607,128,0,305266:0:0:0:0:
192,192,304772,1,0,0:0:0:0:
64,192,304936,1,0,0:0:0:0:
320,192,304936,1,0,0:0:0:0:
64,192,305101,128,0,305266:0:0:0:0:
192,192,305184,128,0,305266:0:0:0:0:
320,192,305266,128,0,305925:0:0:0:0:
192,192,305431,1,0,0:0:0:0:
192,192,305596,1,0,0:0:0:0:
64,192,305596,1,0,0:0:0:0:
448,192,305761,128,0,305925:0:0:0:0:
192,192,305843,128,0,305925:0:0:0:0:
64,192,305925,128,0,306585:0:0:0:0:
320,192,306090,1,0,0:0:0:0:
192,192,306145,1,0,0:0:0:0:
448,192,306200,1,0,0:0:0:0:
320,192,306255,1,0,0:0:0:0:
192,192,306255,1,0,0:0:0:0:
448,192,306365,1,0,0:0:0:0:
320,192,306475,1,0,0:0:0:0:
192,192,306585,1,0,0:0:0:0:
448,192,306585,128,0,307134:0:0:0:0:
192,192,306805,1,0,0:0:0:0:
64,192,307024,1,0,0:0:0:0:
320,192,307024,1,0,0:0:0:0:
192,192,307244,1,0,0:0:0:0:
64,192,307244,1,0,0:0:0:0:
448,192,307244,128,0,311118:0:0:0:0:
320,192,307244,128,0,311035:0:0:0:0:
64,192,311035,1,0,0:0:0:0:
192,192,311035,1,0,0:0:0:0:
320,192,311118,1,0,0:0:0:0:
64,192,311200,1,0,0:0:0:0:
192,192,311200,1,0,0:0:0:0:
448,192,311200,1,0,0:0:0:0:
64,192,311860,1,0,0:0:0:0:
192,192,311860,1,0,0:0:0:0:
320,192,311860,1,0,0:0:0:0:
448,192,311860,1,0,0:0:0:0:
64,192,312519,1,0,0:0:0:0:
192,192,312519,1,0,0:0:0:0:
320,192,312519,1,0,0:0:0:0:
448,192,312519,1,0,0:0:0:0:
64,192,315156,5,0,0:0:0:0:
192,192,315156,1,0,0:0:0:0:
320,192,315156,1,0,0:0:0:0:
448,192,315156,1,0,0:0:0:0:
64,192,316310,5,0,0:0:0:0:
448,192,316392,1,0,0:0:0:0:
64,192,316475,1,0,0:0:0:0:
320,192,316969,5,0,0:0:0:0:
448,192,316969,1,0,0:0:0:0:
192,192,317052,1,0,0:0:0:0:
64,192,317134,1,0,0:0:0:0:
448,192,317134,1,0,0:0:0:0:
192,192,317299,1,0,0:0:0:0:
320,192,317299,1,0,0:0:0:0:
448,192,317464,1,0,0:0:0:0:
64,192,317464,1,0,0:0:0:0:
320,192,317629,1,0,0:0:0:0:
64,192,317794,1,0,0:0:0:0:
448,192,317794,1,0,0:0:0:0:
192,192,317794,1,0,0:0:0:0:
320,192,317794,1,0,0:0:0:0:
192,192,317958,1,0,0:0:0:0:
64,192,318041,1,0,0:0:0:0:
448,192,318123,1,0,0:0:0:0:
320,192,318288,1,0,0:0:0:0:
320,192,318453,1,0,0:0:0:0:
64,192,318453,1,0,0:0:0:0:
192,192,318453,1,0,0:0:0:0:
448,192,318618,1,0,0:0:0:0:
64,192,318700,1,0,0:0:0:0:
320,192,318783,1,0,0:0:0:0:
192,192,318947,1,0,0:0:0:0:
64,192,318947,1,0,0:0:0:0:
448,192,318947,1,0,0:0:0:0:
320,192,319112,1,0,0:0:0:0:
448,192,319112,1,0,0:0:0:0:
192,192,319277,1,0,0:0:0:0:
448,192,319360,1,0,0:0:0:0:
64,192,319442,1,0,0:0:0:0:
64,192,319607,1,0,0:0:0:0:
320,192,319772,1,0,0:0:0:0:
448,192,319772,1,0,0:0:0:0:
192,192,319772,1,0,0:0:0:0:
64,192,319936,1,0,0:0:0:0:
320,192,320019,1,0,0:0:0:0:
192,192,320101,1,0,0:0:0:0:
448,192,320266,1,0,0:0:0:0:
320,192,320431,1,0,0:0:0:0:
192,192,320431,1,0,0:0:0:0:
64,192,320431,1,0,0:0:0:0:
448,192,320431,1,0,0:0:0:0:
192,192,320596,1,0,0:0:0:0:
320,192,320678,1,0,0:0:0:0:
64,192,320761,1,0,0:0:0:0:
192,192,320925,1,0,0:0:0:0:
448,192,321090,1,0,0:0:0:0:
320,192,321090,1,0,0:0:0:0:
192,192,321090,1,0,0:0:0:0:
64,192,321255,1,0,0:0:0:0:
448,192,321338,1,0,0:0:0:0:
192,192,321420,1,0,0:0:0:0:
64,192,321585,1,0,0:0:0:0:
320,192,321585,1,0,0:0:0:0:
448,192,321585,1,0,0:0:0:0:
192,192,321750,1,0,0:0:0:0:
320,192,321914,1,0,0:0:0:0:
64,192,321997,1,0,0:0:0:0:
448,192,322079,1,0,0:0:0:0:
192,192,322409,1,0,0:0:0:0:
448,192,322409,1,0,0:0:0:0:
320,192,322409,1,0,0:0:0:0:
448,192,322574,1,0,0:0:0:0:
64,192,322656,1,0,0:0:0:0:
320,192,322739,1,0,0:0:0:0:
64,192,322903,1,0,0:0:0:0:
192,192,323068,1,0,0:0:0:0:
320,192,323068,1,0,0:0:0:0:
64,192,323068,1,0,0:0:0:0:
448,192,323068,1,0,0:0:0:0:
448,192,323233,1,0,0:0:0:0:
64,192,323316,1,0,0:0:0:0:
320,192,323398,1,0,0:0:0:0:
192,192,323728,1,0,0:0:0:0:
64,192,323728,1,0,0:0:0:0:
448,192,323728,1,0,0:0:0:0:
320,192,323892,1,0,0:0:0:0:
192,192,323975,1,0,0:0:0:0:
320,192,324057,1,0,0:0:0:0:
64,192,324222,1,0,0:0:0:0:
448,192,324222,1,0,0:0:0:0:
192,192,324222,1,0,0:0:0:0:
320,192,324387,1,0,0:0:0:0:
64,192,324387,1,0,0:0:0:0:
192,192,324552,1,0,0:0:0:0:
448,192,324634,1,0,0:0:0:0:
64,192,324717,1,0,0:0:0:0:
320,192,325046,1,0,0:0:0:0:
448,192,325046,1,0,0:0:0:0:
64,192,325046,1,0,0:0:0:0:
192,192,325211,1,0,0:0:0:0:
320,192,325294,1,0,0:0:0:0:
64,192,325376,1,0,0:0:0:0:
64,192,325706,1,0,0:0:0:0:
192,192,325706,1,0,0:0:0:0:
320,192,325706,128,0,327024:0:0:0:0:
448,192,325706,128,0,327024:0:0:0:0:
64,192,326365,1,0,0:0:0:0:
192,192,326365,1,0,0:0:0:0:
64,192,326530,1,0,0:0:0:0:
192,192,326530,1,0,0:0:0:0:
64,192,326695,1,0,0:0:0:0:
192,192,326695,1,0,0:0:0:0:
64,192,326860,1,0,0:0:0:0:
192,192,326860,1,0,0:0:0:0:
64,192,327024,1,0,0:0:0:0:
192,192,327024,1,0,0:0:0:0:
192,192,327189,1,0,0:0:0:0:
64,192,327189,1,0,0:0:0:0:
320,192,327189,1,0,0:0:0:0:
64,192,327354,1,0,0:0:0:0:
192,192,327354,1,0,0:0:0:0:
448,192,327354,1,0,0:0:0:0:
192,192,327519,1,0,0:0:0:0:
64,192,327519,1,0,0:0:0:0:
320,192,327519,1,0,0:0:0:0:
448,192,327684,1,0,0:0:0:0:
192,192,327684,1,0,0:0:0:0:
64,192,327684,1,0,0:0:0:0:
320,192,327849,1,0,0:0:0:0:
64,192,327849,1,0,0:0:0:0:
192,192,327849,1,0,0:0:0:0:
448,192,328013,1,0,0:0:0:0:
64,192,328013,1,0,0:0:0:0:
192,192,328096,1,0,0:0:0:0:
320,192,328096,1,0,0:0:0:0:
64,192,328178,1,0,0:0:0:0:
448,192,328178,1,0,0:0:0:0:
320,192,328261,1,0,0:0:0:0:
192,192,328343,128,0,328425:0:0:0:0:
64,192,328343,1,0,0:0:0:0:
448,192,328343,1,0,0:0:0:0:
320,192,328425,1,0,0:0:0:0:
64,192,328508,1,0,0:0:0:0:
192,192,328590,1,0,0:0:0:0:
320,192,328673,1,0,0:0:0:0:
448,192,328673,1,0,0:0:0:0:
64,192,328673,1,0,0:0:0:0:
192,192,328755,1,0,0:0:0:0:
320,192,328838,1,0,0:0:0:0:
64,192,328920,1,0,0:0:0:0:
192,192,329002,1,0,0:0:0:0:
448,192,329002,1,0,0:0:0:0:
320,192,329085,1,0,0:0:0:0:
64,192,329167,1,0,0:0:0:0:
192,192,329167,1,0,0:0:0:0:
448,192,329167,1,0,0:0:0:0:
320,192,329250,1,0,0:0:0:0:
448,192,329332,1,0,0:0:0:0:
64,192,329414,1,0,0:0:0:0:
192,192,329497,1,0,0:0:0:0:
320,192,329579,1,0,0:0:0:0:
448,192,329662,128,0,329744:0:0:0:0:
192,192,329662,1,0,0:0:0:0:
64,192,329744,1,0,0:0:0:0:
320,192,329827,1,0,0:0:0:0:
192,192,329909,1,0,0:0:0:0:
320,192,329991,1,0,0:0:0:0:
448,192,329991,1,0,0:0:0:0:
64,192,329991,1,0,0:0:0:0:
192,192,330074,1,0,0:0:0:0:
448,192,330156,1,0,0:0:0:0:
320,192,330239,1,0,0:0:0:0:
64,192,330321,1,0,0:0:0:0:
192,192,330403,1,0,0:0:0:0:
320,192,330486,1,0,0:0:0:0:
448,192,330486,1,0,0:0:0:0:
64,192,330486,1,0,0:0:0:0:
192,192,330568,1,0,0:0:0:0:
320,192,330651,1,0,0:0:0:0:
448,192,330733,1,0,0:0:0:0:
192,192,330816,1,0,0:0:0:0:
320,192,330898,1,0,0:0:0:0:
64,192,330980,128,0,331063:0:0:0:0:
192,192,330980,1,0,0:0:0:0:
448,192,331063,1,0,0:0:0:0:
320,192,331145,1,0,0:0:0:0:
192,192,331228,1,0,0:0:0:0:
64,192,331310,1,0,0:0:0:0:
448,192,331310,1,0,0:0:0:0:
320,192,331310,1,0,0:0:0:0:
192,192,331392,1,0,0:0:0:0:
64,192,331475,1,0,0:0:0:0:
448,192,331557,1,0,0:0:0:0:
320,192,331640,128,0,331722:0:0:0:0:
64,192,331640,1,0,0:0:0:0:
192,192,331722,1,0,0:0:0:0:
448,192,331805,1,0,0:0:0:0:
320,192,331805,1,0,0:0:0:0:
64,192,331805,1,0,0:0:0:0:
192,192,331887,1,0,0:0:0:0:
320,192,331969,1,0,0:0:0:0:
64,192,332052,1,0,0:0:0:0:
320,192,332134,1,0,0:0:0:0:
192,192,332217,1,0,0:0:0:0:
448,192,332299,128,0,332381:0:0:0:0:
64,192,332299,1,0,0:0:0:0:
320,192,332381,1,0,0:0:0:0:
192,192,332464,1,0,0:0:0:0:
320,192,332546,1,0,0:0:0:0:
64,192,332629,1,0,0:0:0:0:
192,192,332629,1,0,0:0:0:0:
448,192,332629,1,0,0:0:0:0:
320,192,332794,1,0,0:0:0:0:
64,192,332794,1,0,0:0:0:0:
192,192,332958,1,0,0:0:0:0:
448,192,332958,1,0,0:0:0:0:
320,192,333123,1,0,0:0:0:0:
64,192,333123,1,0,0:0:0:0:
448,192,333123,1,0,0:0:0:0:
192,192,333288,1,0,0:0:0:0:
320,192,333288,1,0,0:0:0:0:
64,192,333453,1,0,0:0:0:0:
192,192,333453,1,0,0:0:0:0:
448,192,333453,1,0,0:0:0:0:
448,192,333618,128,0,333700:0:0:0:0:
320,192,333618,1,0,0:0:0:0:
64,192,333618,1,0,0:0:0:0:
192,192,333700,1,0,0:0:0:0:
320,192,333783,1,0,0:0:0:0:
64,192,333865,1,0,0:0:0:0:
192,192,333947,1,0,0:0:0:0:
320,192,333947,1,0,0:0:0:0:
448,192,333947,1,0,0:0:0:0:
64,192,334030,1,0,0:0:0:0:
320,192,334112,1,0,0:0:0:0:
448,192,334195,1,0,0:0:0:0:
192,192,334277,128,0,334360:0:0:0:0:
64,192,334277,1,0,0:0:0:0:
320,192,334360,1,0,0:0:0:0:
448,192,334442,1,0,0:0:0:0:
64,192,334442,1,0,0:0:0:0:
192,192,334442,1,0,0:0:0:0:
320,192,334524,1,0,0:0:0:0:
192,192,334607,1,0,0:0:0:0:
64,192,334689,1,0,0:0:0:0:
320,192,334772,1,0,0:0:0:0:
192,192,334854,1,0,0:0:0:0:
448,192,334936,128,0,335019:0:0:0:0:
320,192,334936,1,0,0:0:0:0:
192,192,335019,1,0,0:0:0:0:
64,192,335101,1,0,0:0:0:0:
320,192,335184,1,0,0:0:0:0:
192,192,335266,1,0,0:0:0:0:
64,192,335266,1,0,0:0:0:0:
448,192,335266,1,0,0:0:0:0:
320,192,335349,1,0,0:0:0:0:
192,192,335431,1,0,0:0:0:0:
64,192,335513,1,0,0:0:0:0:
320,192,335596,128,0,335678:0:0:0:0:
448,192,335596,1,0,0:0:0:0:
192,192,335678,1,0,0:0:0:0:
448,192,335761,1,0,0:0:0:0:
64,192,335761,1,0,0:0:0:0:
320,192,335761,1,0,0:0:0:0:
192,192,335843,1,0,0:0:0:0:
64,192,335925,1,0,0:0:0:0:
320,192,336008,1,0,0:0:0:0:
448,192,336090,1,0,0:0:0:0:
320,192,336173,1,0,0:0:0:0:
64,192,336255,128,0,336338:0:0:0:0:
192,192,336255,1,0,0:0:0:0:
320,192,336338,1,0,0:0:0:0:
448,192,336420,1,0,0:0:0:0:
192,192,336502,1,0,0:0:0:0:
320,192,336585,1,0,0:0:0:0:
448,192,336585,1,0,0:0:0:0:
64,192,336585,1,0,0:0:0:0:
192,192,336667,1,0,0:0:0:0:
320,192,336750,1,0,0:0:0:0:
64,192,336832,1,0,0:0:0:0:
192,192,336914,1,0,0:0:0:0:
320,192,336997,1,0,0:0:0:0:
192,192,337079,1,0,0:0:0:0:
64,192,337079,1,0,0:0:0:0:
448,192,337079,1,0,0:0:0:0:
320,192,337162,1,0,0:0:0:0:
448,192,337244,1,0,0:0:0:0:
192,192,337327,1,0,0:0:0:0:
320,192,337409,1,0,0:0:0:0:
192,192,337491,1,0,0:0:0:0:
64,192,337574,128,0,338480:0:0:0:0:
448,192,337574,128,0,337903:0:0:0:0:
192,192,337903,1,0,0:0:0:0:
320,192,337903,1,0,0:0:0:0:
448,192,338068,1,0,0:0:0:0:
192,192,338151,1,0,0:0:0:0:
448,192,338233,128,0,338480:0:0:0:0:
320,192,338306,1,0,0:0:0:0:
192,192,338398,1,0,0:0:0:0:
320,192,338480,1,0,0:0:0:0:
192,192,338563,1,0,0:0:0:0:
64,192,338563,1,0,0:0:0:0:
448,192,338563,1,0,0:0:0:0:
320,192,338728,1,0,0:0:0:0:
192,192,338810,1,0,0:0:0:0:
448,192,338892,1,0,0:0:0:0:
64,192,338892,1,0,0:0:0:0:
320,192,338892,128,0,338975:0:0:0:0:
192,192,338975,1,0,0:0:0:0:
448,192,339057,1,0,0:0:0:0:
320,192,339140,1,0,0:0:0:0:
64,192,339222,1,0,0:0:0:0:
448,192,339222,1,0,0:0:0:0:
192,192,339222,1,0,0:0:0:0:
320,192,339305,1,0,0:0:0:0:
192,192,339387,1,0,0:0:0:0:
448,192,339469,1,0,0:0:0:0:
64,192,339552,1,0,0:0:0:0:
320,192,339552,1,0,0:0:0:0:
192,192,339634,1,0,0:0:0:0:
64,192,339717,1,0,0:0:0:0:
448,192,339717,1,0,0:0:0:0:
320,192,339717,1,0,0:0:0:0:
192,192,339799,1,0,0:0:0:0:
64,192,339881,1,0,0:0:0:0:
448,192,339964,1,0,0:0:0:0:
320,192,340046,1,0,0:0:0:0:
192,192,340129,1,0,0:0:0:0:
320,192,340211,1,0,0:0:0:0:
64,192,340211,128,0,340294:0:0:0:0:
448,192,340294,1,0,0:0:0:0:
192,192,340376,1,0,0:0:0:0:
320,192,340458,1,0,0:0:0:0:
192,192,340541,1,0,0:0:0:0:
64,192,340541,1,0,0:0:0:0:
448,192,340541,1,0,0:0:0:0:
320,192,340623,1,0,0:0:0:0:
64,192,340706,1,0,0:0:0:0:
192,192,340788,1,0,0:0:0:0:
448,192,340870,1,0,0:0:0:0:
320,192,340953,1,0,0:0:0:0:
64,192,341035,1,0,0:0:0:0:
192,192,341035,1,0,0:0:0:0:
448,192,341035,1,0,0:0:0:0:
320,192,341118,1,0,0:0:0:0:
192,192,341200,1,0,0:0:0:0:
64,192,341283,1,0,0:0:0:0:
320,192,341365,1,0,0:0:0:0:
192,192,341447,1,0,0:0:0:0:
320,192,341530,1,0,0:0:0:0:
448,192,341530,128,0,341612:0:0:0:0:
64,192,341612,1,0,0:0:0:0:
192,192,341695,1,0,0:0:0:0:
320,192,341777,1,0,0:0:0:0:
64,192,341860,1,0,0:0:0:0:
192,192,341860,1,0,0:0:0:0:
448,192,341860,1,0,0:0:0:0:
320,192,341942,1,0,0:0:0:0:
448,192,342024,1,0,0:0:0:0:
64,192,342107,1,0,0:0:0:0:
448,192,342189,1,0,0:0:0:0:
192,192,342189,128,0,342272:0:0:0:0:
320,192,342272,1,0,0:0:0:0:
448,192,342354,1,0,0:0:0:0:
192,192,342354,1,0,0:0:0:0:
64,192,342354,1,0,0:0:0:0:
320,192,342436,1,0,0:0:0:0:
192,192,342519,1,0,0:0:0:0:
448,192,342601,1,0,0:0:0:0:
192,192,342684,1,0,0:0:0:0:
320,192,342766,1,0,0:0:0:0:
448,192,342849,1,0,0:0:0:0:
64,192,342849,128,0,342931:0:0:0:0:
192,192,342931,1,0,0:0:0:0:
320,192,343013,1,0,0:0:0:0:
192,192,343096,1,0,0:0:0:0:
448,192,343178,1,0,0:0:0:0:
64,192,343178,1,0,0:0:0:0:
320,192,343178,1,0,0:0:0:0:
448,192,343343,1,0,0:0:0:0:
192,192,343343,1,0,0:0:0:0:
320,192,343508,1,0,0:0:0:0:
64,192,343508,1,0,0:0:0:0:
192,192,343673,1,0,0:0:0:0:
64,192,343673,1,0,0:0:0:0:
448,192,343673,1,0,0:0:0:0:
192,192,343838,1,0,0:0:0:0:
320,192,343838,1,0,0:0:0:0:
64,192,344002,1,0,0:0:0:0:
320,192,344002,1,0,0:0:0:0:
448,192,344002,1,0,0:0:0:0:
192,192,344167,1,0,0:0:0:0:
448,192,344167,1,0,0:0:0:0:
64,192,344167,128,0,344250:0:0:0:0:
320,192,344250,1,0,0:0:0:0:
192,192,344332,1,0,0:0:0:0:
448,192,344414,1,0,0:0:0:0:
320,192,344497,1,0,0:0:0:0:
192,192,344497,1,0,0:0:0:0:
64,192,344497,1,0,0:0:0:0:
448,192,344579,1,0,0:0:0:0:
192,192,344662,1,0,0:0:0:0:
64,192,344744,1,0,0:0:0:0:
448,192,344827,1,0,0:0:0:0:
320,192,344827,128,0,344909:0:0:0:0:
192,192,344909,1,0,0:0:0:0:
64,192,344991,1,0,0:0:0:0:
448,192,344991,1,0,0:0:0:0:
320,192,344991,1,0,0:0:0:0:
192,192,345074,1,0,0:0:0:0:
320,192,345156,1,0,0:0:0:0:
448,192,345239,1,0,0:0:0:0:
192,192,345321,1,0,0:0:0:0:
320,192,345403,1,0,0:0:0:0:
192,192,345486,1,0,0:0:0:0:
64,192,345486,128,0,345568:0:0:0:0:
320,192,345568,1,0,0:0:0:0:
448,192,345651,1,0,0:0:0:0:
192,192,345733,1,0,0:0:0:0:
448,192,345816,1,0,0:0:0:0:
320,192,345816,1,0,0:0:0:0:
64,192,345816,1,0,0:0:0:0:
192,192,345898,1,0,0:0:0:0:
320,192,345980,1,0,0:0:0:0:
448,192,346063,1,0,0:0:0:0:
64,192,346145,1,0,0:0:0:0:
192,192,346145,128,0,346228:0:0:0:0:
320,192,346228,1,0,0:0:0:0:
448,192,346228,1,0,0:0:0:0:
192,192,346310,1,0,0:0:0:0:
64,192,346310,1,0,0:0:0:0:
320,192,346392,1,0,0:0:0:0:
448,192,346392,1,0,0:0:0:0:
192,192,346475,1,0,0:0:0:0:
64,192,346475,1,0,0:0:0:0:
320,192,346557,1,0,0:0:0:0:
448,192,346557,1,0,0:0:0:0:
64,192,346640,1,0,0:0:0:0:
192,192,346640,1,0,0:0:0:0:
320,192,346722,1,0,0:0:0:0:
448,192,346805,1,0,0:0:0:0:
192,192,346805,1,0,0:0:0:0:
64,192,346805,128,0,346887:0:0:0:0:
320,192,346887,1,0,0:0:0:0:
192,192,346969,1,0,0:0:0:0:
64,192,347052,1,0,0:0:0:0:
448,192,347134,1,0,0:0:0:0:
320,192,347217,1,0,0:0:0:0:
448,192,347299,1,0,0:0:0:0:
64,192,347299,1,0,0:0:0:0:
192,192,347299,1,0,0:0:0:0:
320,192,347381,1,0,0:0:0:0:
192,192,347464,1,0,0:0:0:0:
64,192,347546,1,0,0:0:0:0:
320,192,347629,5,0,0:0:0:0:
192,192,347711,1,0,0:0:0:0:
448,192,347794,5,0,0:0:0:0:
64,192,347794,1,0,0:0:0:0:
320,192,347794,1,0,0:0:0:0:
64,192,348123,1,0,0:0:0:0:
192,192,348123,1,0,0:0:0:0:
448,192,348123,1,0,0:0:0:0:
320,192,348123,1,0,0:0:0:0:
192,192,348783,128,0,349112:0:0:0:0:
320,192,349112,128,0,349442:0:0:0:0:
448,192,349442,1,0,0:0:0:0:
64,192,349442,128,0,350761:0:0:0:0:
192,192,349442,1,0,0:0:0:0:
320,192,349524,1,0,0:0:0:0:
448,192,349607,1,0,0:0:0:0:
192,192,349689,1,0,0:0:0:0:
448,192,349772,1,0,0:0:0:0:
320,192,349772,1,0,0:0:0:0:
192,192,350101,1,0,0:0:0:0:
448,192,350184,1,0,0:0:0:0:
320,192,350266,1,0,0:0:0:0:
192,192,350266,1,0,0:0:0:0:
192,192,350596,1,0,0:0:0:0:
448,192,350596,1,0,0:0:0:0:
192,192,350761,1,0,0:0:0:0:
320,192,350761,128,0,352079:0:0:0:0:
64,192,350843,1,0,0:0:0:0:
448,192,350925,1,0,0:0:0:0:
64,192,351008,1,0,0:0:0:0:
448,192,351090,1,0,0:0:0:0:
192,192,351090,1,0,0:0:0:0:
64,192,351420,1,0,0:0:0:0:
448,192,351502,1,0,0:0:0:0:
64,192,351585,1,0,0:0:0:0:
192,192,351585,1,0,0:0:0:0:
64,192,351914,1,0,0:0:0:0:
448,192,351914,1,0,0:0:0:0:
448,192,352079,1,0,0:0:0:0:
192,192,352079,128,0,353398:0:0:0:0:
320,192,352162,1,0,0:0:0:0:
64,192,352244,1,0,0:0:0:0:
448,192,352327,1,0,0:0:0:0:
64,192,352409,1,0,0:0:0:0:
320,192,352409,1,0,0:0:0:0:
64,192,352739,1,0,0:0:0:0:
448,192,352821,1,0,0:0:0:0:
320,192,352903,1,0,0:0:0:0:
64,192,352903,1,0,0:0:0:0:
64,192,353233,1,0,0:0:0:0:
320,192,353233,1,0,0:0:0:0:
448,192,353398,128,0,354717:0:0:0:0:
64,192,353398,1,0,0:0:0:0:
320,192,353480,1,0,0:0:0:0:
64,192,353563,1,0,0:0:0:0:
192,192,353645,1,0,0:0:0:0:
64,192,353728,1,0,0:0:0:0:
320,192,353728,1,0,0:0:0:0:
192,192,354057,1,0,0:0:0:0:
64,192,354140,1,0,0:0:0:0:
320,192,354222,1,0,0:0:0:0:
64,192,354305,1,0,0:0:0:0:
320,192,354387,1,0,0:0:0:0:
192,192,354387,1,0,0:0:0:0:
192,192,354717,1,0,0:0:0:0:
320,192,354717,1,0,0:0:0:0:
64,192,354717,128,0,356035:0:0:0:0:
448,192,354799,1,0,0:0:0:0:
192,192,354881,1,0,0:0:0:0:
320,192,354964,1,0,0:0:0:0:
192,192,355046,1,0,0:0:0:0:
448,192,355046,1,0,0:0:0:0:
448,192,355376,1,0,0:0:0:0:
192,192,355458,1,0,0:0:0:0:
320,192,355541,1,0,0:0:0:0:
448,192,355541,1,0,0:0:0:0:
320,192,355870,1,0,0:0:0:0:
192,192,355870,1,0,0:0:0:0:
448,192,356035,128,0,357354:0:0:0:0:
320,192,356035,1,0,0:0:0:0:
192,192,356118,1,0,0:0:0:0:
64,192,356200,1,0,0:0:0:0:
320,192,356283,1,0,0:0:0:0:
64,192,356365,1,0,0:0:0:0:
192,192,356365,1,0,0:0:0:0:
192,192,356695,1,0,0:0:0:0:
320,192,356777,1,0,0:0:0:0:
64,192,356860,1,0,0:0:0:0:
192,192,356860,1,0,0:0:0:0:
64,192,357189,1,0,0:0:0:0:
320,192,357189,1,0,0:0:0:0:
64,192,357354,1,0,0:0:0:0:
192,192,357354,128,0,358673:0:0:0:0:
320,192,357436,1,0,0:0:0:0:
448,192,357519,1,0,0:0:0:0:
64,192,357601,1,0,0:0:0:0:
320,192,357684,1,0,0:0:0:0:
448,192,357684,1,0,0:0:0:0:
64,192,358013,1,0,0:0:0:0:
448,192,358096,1,0,0:0:0:0:
320,192,358178,1,0,0:0:0:0:
64,192,358178,1,0,0:0:0:0:
448,192,358508,1,0,0:0:0:0:
320,192,358508,1,0,0:0:0:0:
192,192,358673,1,0,0:0:0:0:
448,192,358673,128,0,359991:0:0:0:0:
64,192,358755,1,0,0:0:0:0:
320,192,358838,1,0,0:0:0:0:
64,192,358920,1,0,0:0:0:0:
192,192,359002,1,0,0:0:0:0:
320,192,359002,1,0,0:0:0:0:
64,192,359332,1,0,0:0:0:0:
320,192,359414,1,0,0:0:0:0:
64,192,359497,1,0,0:0:0:0:
320,192,359579,1,0,0:0:0:0:
192,192,359662,1,0,0:0:0:0:
64,192,359662,1,0,0:0:0:0:
64,192,359991,128,0,361310:0:0:0:0:
320,192,359991,1,0,0:0:0:0:
192,192,360074,1,0,0:0:0:0:
448,192,360156,1,0,0:0:0:0:
192,192,360239,1,0,0:0:0:0:
320,192,360321,1,0,0:0:0:0:
448,192,360321,1,0,0:0:0:0:
192,192,360651,1,0,0:0:0:0:
448,192,360733,1,0,0:0:0:0:
320,192,360816,1,0,0:0:0:0:
192,192,360816,1,0,0:0:0:0:
192,192,361145,1,0,0:0:0:0:
448,192,361145,1,0,0:0:0:0:
320,192,361310,1,0,0:0:0:0:
192,192,361310,128,0,362629:0:0:0:0:
448,192,361392,1,0,0:0:0:0:
64,192,361475,1,0,0:0:0:0:
448,192,361557,1,0,0:0:0:0:
64,192,361640,1,0,0:0:0:0:
320,192,361640,1,0,0:0:0:0:
448,192,361969,1,0,0:0:0:0:
64,192,362052,1,0,0:0:0:0:
320,192,362134,1,0,0:0:0:0:
448,192,362134,1,0,0:0:0:0:
448,192,362464,1,0,0:0:0:0:
64,192,362464,1,0,0:0:0:0:
320,192,362629,128,0,363947:0:0:0:0:
64,192,362629,1,0,0:0:0:0:
448,192,362711,1,0,0:0:0:0:
192,192,362794,1,0,0:0:0:0:
448,192,362876,1,0,0:0:0:0:
64,192,362958,1,0,0:0:0:0:
192,192,362958,1,0,0:0:0:0:
448,192,363288,1,0,0:0:0:0:
64,192,363370,1,0,0:0:0:0:
448,192,363453,1,0,0:0:0:0:
192,192,363453,1,0,0:0:0:0:
448,192,363783,1,0,0:0:0:0:
192,192,363783,1,0,0:0:0:0:
64,192,363947,128,0,365266:0:0:0:0:
448,192,363947,1,0,0:0:0:0:
192,192,364030,1,0,0:0:0:0:
448,192,364112,1,0,0:0:0:0:
320,192,364195,1,0,0:0:0:0:
192,192,364277,1,0,0:0:0:0:
448,192,364277,1,0,0:0:0:0:
320,192,364607,1,0,0:0:0:0:
448,192,364689,1,0,0:0:0:0:
192,192,364772,1,0,0:0:0:0:
448,192,364854,1,0,0:0:0:0:
192,192,364936,1,0,0:0:0:0:
320,192,364936,1,0,0:0:0:0:
192,192,365266,1,0,0:0:0:0:
448,192,365266,128,0,366585:0:0:0:0:
320,192,365266,1,0,0:0:0:0:
64,192,365349,1,0,0:0:0:0:
320,192,365431,1,0,0:0:0:0:
192,192,365513,1,0,0:0:0:0:
320,192,365596,1,0,0:0:0:0:
64,192,365596,1,0,0:0:0:0:
64,192,365925,1,0,0:0:0:0:
320,192,366008,1,0,0:0:0:0:
192,192,366090,1,0,0:0:0:0:
64,192,366090,1,0,0:0:0:0:
192,192,366420,1,0,0:0:0:0:
320,192,366420,1,0,0:0:0:0:
320,192,366585,1,0,0:0:0:0:
64,192,366585,128,0,367903:0:0:0:0:
448,192,366667,1,0,0:0:0:0:
320,192,366750,1,0,0:0:0:0:
448,192,366832,1,0,0:0:0:0:
320,192,366914,1,0,0:0:0:0:
192,192,366914,1,0,0:0:0:0:
320,192,367244,1,0,0:0:0:0:
192,192,367327,1,0,0:0:0:0:
320,192,367409,1,0,0:0:0:0:
448,192,367409,1,0,0:0:0:0:
192,192,367739,1,0,0:0:0:0:
448,192,367739,1,0,0:0:0:0:
448,192,367903,1,0,0:0:0:0:
320,192,367903,128,0,369222:0:0:0:0:
192,192,367986,1,0,0:0:0:0:
64,192,368068,1,0,0:0:0:0:
448,192,368151,1,0,0:0:0:0:
192,192,368233,1,0,0:0:0:0:
64,192,368233,1,0,0:0:0:0:
448,192,368563,1,0,0:0:0:0:
64,192,368645,1,0,0:0:0:0:
192,192,368728,1,0,0:0:0:0:
448,192,368728,1,0,0:0:0:0:
64,192,368892,1,0,0:0:0:0:
192,192,368892,1,0,0:0:0:0:
448,192,368975,1,0,0:0:0:0:
64,192,369057,1,0,0:0:0:0:
192,192,369057,1,0,0:0:0:0:
64,192,369140,1,0,0:0:0:0:
192,192,369222,1,0,0:0:0:0:
448,192,369222,128,0,369881:0:0:0:0:
64,192,369305,1,0,0:0:0:0:
320,192,369387,1,0,0:0:0:0:
64,192,369469,1,0,0:0:0:0:
192,192,369552,1,0,0:0:0:0:
320,192,369552,1,0,0:0:0:0:
64,192,369634,1,0,0:0:0:0:
192,192,369717,1,0,0:0:0:0:
320,192,369799,1,0,0:0:0:0:
192,192,369881,1,0,0:0:0:0:
64,192,369881,1,0,0:0:0:0:
320,192,369964,1,0,0:0:0:0:
64,192,370046,1,0,0:0:0:0:
448,192,370046,1,0,0:0:0:0:
320,192,370129,1,0,0:0:0:0:
64,192,370211,1,0,0:0:0:0:
192,192,370211,1,0,0:0:0:0:
448,192,370294,1,0,0:0:0:0:
64,192,370376,1,0,0:0:0:0:
192,192,370376,1,0,0:0:0:0:
320,192,370458,1,0,0:0:0:0:
448,192,370541,1,0,0:0:0:0:
192,192,370541,128,0,370582:0:0:0:0:
64,192,370541,128,0,370582:0:0:0:0:
320,192,370623,1,0,0:0:0:0:
64,192,370706,1,0,0:0:0:0:
192,192,370706,1,0,0:0:0:0:
320,192,370788,1,0,0:0:0:0:
192,192,370870,1,0,0:0:0:0:
64,192,370870,1,0,0:0:0:0:
448,192,370870,1,0,0:0:0:0:
320,192,370953,1,0,0:0:0:0:
448,192,371035,1,0,0:0:0:0:
64,192,371035,1,0,0:0:0:0:
192,192,371118,1,0,0:0:0:0:
448,192,371200,1,0,0:0:0:0:
320,192,371200,1,0,0:0:0:0:
192,192,371283,1,0,0:0:0:0:
448,192,371365,1,0,0:0:0:0:
320,192,371365,1,0,0:0:0:0:
192,192,371447,1,0,0:0:0:0:
448,192,371530,1,0,0:0:0:0:
64,192,371530,1,0,0:0:0:0:
320,192,371530,1,0,0:0:0:0:
192,192,371612,1,0,0:0:0:0:
448,192,371695,1,0,0:0:0:0:
64,192,371695,1,0,0:0:0:0:
192,192,371777,1,0,0:0:0:0:
448,192,371860,128,0,371901:0:0:0:0:
320,192,371860,128,0,371901:0:0:0:0:
64,192,371860,1,0,0:0:0:0:
192,192,371942,1,0,0:0:0:0:
320,192,372024,1,0,0:0:0:0:
64,192,372024,1,0,0:0:0:0:
448,192,372107,1,0,0:0:0:0:
192,192,372189,1,0,0:0:0:0:
64,192,372189,1,0,0:0:0:0:
320,192,372189,1,0,0:0:0:0:
448,192,372272,1,0,0:0:0:0:
192,192,372354,1,0,0:0:0:0:
64,192,372354,1,0,0:0:0:0:
320,192,372436,1,0,0:0:0:0:
64,192,372519,1,0,0:0:0:0:
448,192,372519,1,0,0:0:0:0:
192,192,372601,1,0,0:0:0:0:
320,192,372684,1,0,0:0:0:0:
64,192,372684,1,0,0:0:0:0:
192,192,372766,1,0,0:0:0:0:
320,192,372849,1,0,0:0:0:0:
64,192,372849,1,0,0:0:0:0:
448,192,372849,1,0,0:0:0:0:
192,192,372931,1,0,0:0:0:0:
320,192,373013,1,0,0:0:0:0:
448,192,373013,1,0,0:0:0:0:
192,192,373096,1,0,0:0:0:0:
64,192,373178,1,0,0:0:0:0:
448,192,373178,128,0,373219:0:0:0:0:
320,192,373178,128,0,373219:0:0:0:0:
192,192,373261,1,0,0:0:0:0:
64,192,373343,1,0,0:0:0:0:
320,192,373343,1,0,0:0:0:0:
192,192,373425,1,0,0:0:0:0:
320,192,373508,1,0,0:0:0:0:
64,192,373508,1,0,0:0:0:0:
448,192,373508,1,0,0:0:0:0:
192,192,373590,1,0,0:0:0:0:
320,192,373673,1,0,0:0:0:0:
448,192,373673,1,0,0:0:0:0:
64,192,373755,1,0,0:0:0:0:
448,192,373838,1,0,0:0:0:0:
192,192,373838,1,0,0:0:0:0:
320,192,373920,1,0,0:0:0:0:
192,192,374002,1,0,0:0:0:0:
64,192,374002,1,0,0:0:0:0:
320,192,374085,1,0,0:0:0:0:
192,192,374167,1,0,0:0:0:0:
448,192,374167,1,0,0:0:0:0:
64,192,374167,1,0,0:0:0:0:
320,192,374250,1,0,0:0:0:0:
448,192,374332,1,0,0:0:0:0:
64,192,374332,1,0,0:0:0:0:
192,192,374414,1,0,0:0:0:0:
320,192,374497,128,0,374538:0:0:0:0:
64,192,374497,128,0,374538:0:0:0:0:
448,192,374497,1,0,0:0:0:0:
192,192,374579,1,0,0:0:0:0:
448,192,374662,1,0,0:0:0:0:
320,192,374662,1,0,0:0:0:0:
192,192,374744,1,0,0:0:0:0:
64,192,374827,1,0,0:0:0:0:
448,192,374827,1,0,0:0:0:0:
320,192,374827,1,0,0:0:0:0:
192,192,374909,1,0,0:0:0:0:
64,192,374991,1,0,0:0:0:0:
448,192,374991,1,0,0:0:0:0:
320,192,375074,1,0,0:0:0:0:
192,192,375156,1,0,0:0:0:0:
64,192,375156,1,0,0:0:0:0:
320,192,375239,1,0,0:0:0:0:
448,192,375321,1,0,0:0:0:0:
64,192,375321,1,0,0:0:0:0:
192,192,375403,1,0,0:0:0:0:
320,192,375486,1,0,0:0:0:0:
448,192,375486,1,0,0:0:0:0:
64,192,375486,1,0,0:0:0:0:
192,192,375568,1,0,0:0:0:0:
64,192,375651,1,0,0:0:0:0:
448,192,375651,1,0,0:0:0:0:
320,192,375733,1,0,0:0:0:0:
448,192,375816,1,0,0:0:0:0:
64,192,375816,128,0,375857:0:0:0:0:
192,192,375816,128,0,375857:0:0:0:0:
320,192,375898,1,0,0:0:0:0:
192,192,375980,1,0,0:0:0:0:
64,192,375980,1,0,0:0:0:0:
448,192,376063,1,0,0:0:0:0:
192,192,376145,1,0,0:0:0:0:
64,192,376145,1,0,0:0:0:0:
320,192,376145,1,0,0:0:0:0:
448,192,376228,1,0,0:0:0:0:
64,192,376310,1,0,0:0:0:0:
192,192,376310,1,0,0:0:0:0:
448,192,376392,1,0,0:0:0:0:
64,192,376475,1,0,0:0:0:0:
192,192,376475,1,0,0:0:0:0:
320,192,376557,1,0,0:0:0:0:
192,192,376640,1,0,0:0:0:0:
64,192,376640,1,0,0:0:0:0:
320,192,376722,1,0,0:0:0:0:
192,192,376805,1,0,0:0:0:0:
64,192,376805,1,0,0:0:0:0:
448,192,376805,1,0,0:0:0:0:
320,192,376887,1,0,0:0:0:0:
64,192,376969,1,0,0:0:0:0:
192,192,376969,1,0,0:0:0:0:
320,192,377052,1,0,0:0:0:0:
448,192,377134,128,0,377175:0:0:0:0:
64,192,377134,1,0,0:0:0:0:
192,192,377134,128,0,377175:0:0:0:0:
320,192,377217,1,0,0:0:0:0:
64,192,377299,1,0,0:0:0:0:
448,192,377299,1,0,0:0:0:0:
192,192,377381,1,0,0:0:0:0:
448,192,377464,1,0,0:0:0:0:
320,192,377464,1,0,0:0:0:0:
64,192,377464,1,0,0:0:0:0:
192,192,377546,1,0,0:0:0:0:
448,192,377629,1,0,0:0:0:0:
320,192,377629,1,0,0:0:0:0:
64,192,377711,1,0,0:0:0:0:
448,192,377794,1,0,0:0:0:0:
320,192,377794,1,0,0:0:0:0:
192,192,377876,1,0,0:0:0:0:
320,192,377958,1,0,0:0:0:0:
448,192,377958,1,0,0:0:0:0:
192,192,378041,1,0,0:0:0:0:
448,192,378123,1,0,0:0:0:0:
64,192,378123,1,0,0:0:0:0:
320,192,378123,1,0,0:0:0:0:
192,192,378206,1,0,0:0:0:0:
448,192,378288,1,0,0:0:0:0:
320,192,378288,1,0,0:0:0:0:
192,192,378370,1,0,0:0:0:0:
64,192,378453,1,0,0:0:0:0:
320,192,378453,128,0,378494:0:0:0:0:
448,192,378453,128,0,378494:0:0:0:0:
192,192,378535,1,0,0:0:0:0:
64,192,378618,1,0,0:0:0:0:
448,192,378618,1,0,0:0:0:0:
320,192,378700,1,0,0:0:0:0:
64,192,378783,1,0,0:0:0:0:
192,192,378783,1,0,0:0:0:0:
448,192,378783,1,0,0:0:0:0:
320,192,378865,1,0,0:0:0:0:
192,192,378947,1,0,0:0:0:0:
64,192,378947,1,0,0:0:0:0:
448,192,379030,1,0,0:0:0:0:
320,192,379112,1,0,0:0:0:0:
64,192,379112,1,0,0:0:0:0:
448,192,379195,1,0,0:0:0:0:
192,192,379277,1,0,0:0:0:0:
64,192,379277,1,0,0:0:0:0:
448,192,379360,1,0,0:0:0:0:
64,192,379442,1,0,0:0:0:0:
192,192,379442,1,0,0:0:0:0:
320,192,379442,1,0,0:0:0:0:
448,192,379524,1,0,0:0:0:0:
64,192,379607,1,0,0:0:0:0:
192,192,379607,1,0,0:0:0:0:
320,192,379689,1,0,0:0:0:0:
448,192,379772,1,0,0:0:0:0:
64,192,379772,128,0,379813:0:0:0:0:
192,192,379772,128,0,379813:0:0:0:0:
320,192,379854,1,0,0:0:0:0:
448,192,379936,1,0,0:0:0:0:
64,192,379936,1,0,0:0:0:0:
192,192,380019,1,0,0:0:0:0:
448,192,380101,1,0,0:0:0:0:
320,192,380101,1,0,0:0:0:0:
64,192,380101,1,0,0:0:0:0:
192,192,380184,1,0,0:0:0:0:
320,192,380266,1,0,0:0:0:0:
448,192,380266,1,0,0:0:0:0:
64,192,380349,1,0,0:0:0:0:
192,192,380431,1,0,0:0:0:0:
448,192,380431,1,0,0:0:0:0:
64,192,380513,1,0,0:0:0:0:
320,192,380596,1,0,0:0:0:0:
448,192,380596,1,0,0:0:0:0:
64,192,380678,1,0,0:0:0:0:
320,192,380761,1,0,0:0:0:0:
448,192,380761,1,0,0:0:0:0:
192,192,380761,1,0,0:0:0:0:
64,192,380843,1,0,0:0:0:0:
320,192,380925,1,0,0:0:0:0:
448,192,380925,1,0,0:0:0:0:
64,192,381008,1,0,0:0:0:0:
192,192,381090,128,0,381131:0:0:0:0:
448,192,381090,1,0,0:0:0:0:
320,192,381090,128,0,381131:0:0:0:0:
64,192,381173,1,0,0:0:0:0:
320,192,381255,1,0,0:0:0:0:
448,192,381255,1,0,0:0:0:0:
64,192,381338,1,0,0:0:0:0:
448,192,381420,1,0,0:0:0:0:
320,192,381420,1,0,0:0:0:0:
192,192,381420,1,0,0:0:0:0:
64,192,381502,1,0,0:0:0:0:
320,192,381585,1,0,0:0:0:0:
192,192,381585,1,0,0:0:0:0:
448,192,381667,1,0,0:0:0:0:
64,192,381750,1,0,0:0:0:0:
192,192,381750,1,0,0:0:0:0:
320,192,381832,1,0,0:0:0:0:
192,192,381914,1,0,0:0:0:0:
64,192,381914,1,0,0:0:0:0:
320,192,381997,1,0,0:0:0:0:
64,192,382079,1,0,0:0:0:0:
192,192,382079,1,0,0:0:0:0:
448,192,382079,1,0,0:0:0:0:
320,192,382162,1,0,0:0:0:0:
64,192,382244,1,0,0:0:0:0:
448,192,382244,1,0,0:0:0:0:
192,192,382327,1,0,0:0:0:0:
64,192,382409,1,0,0:0:0:0:
448,192,382409,128,0,382450:0:0:0:0:
320,192,382409,128,0,382450:0:0:0:0:
192,192,382491,1,0,0:0:0:0:
320,192,382574,1,0,0:0:0:0:
448,192,382574,1,0,0:0:0:0:
192,192,382656,1,0,0:0:0:0:
64,192,382739,1,0,0:0:0:0:
448,192,382739,1,0,0:0:0:0:
320,192,382739,1,0,0:0:0:0:
192,192,382821,1,0,0:0:0:0:
320,192,382903,1,0,0:0:0:0:
64,192,382903,1,0,0:0:0:0:
448,192,382986,1,0,0:0:0:0:
192,192,383068,1,0,0:0:0:0:
64,192,383068,1,0,0:0:0:0:
320,192,383151,1,0,0:0:0:0:
448,192,383233,1,0,0:0:0:0:
192,192,383233,1,0,0:0:0:0:
320,192,383316,1,0,0:0:0:0:
64,192,383398,1,0,0:0:0:0:
192,192,383398,1,0,0:0:0:0:
448,192,383398,1,0,0:0:0:0:
320,192,383480,1,0,0:0:0:0:
192,192,383563,1,0,0:0:0:0:
64,192,383563,1,0,0:0:0:0:
320,192,383645,1,0,0:0:0:0:
192,192,383728,128,0,383769:0:0:0:0:
64,192,383728,128,0,383769:0:0:0:0:
448,192,383728,1,0,0:0:0:0:
320,192,383810,1,0,0:0:0:0:
448,192,383892,1,0,0:0:0:0:
64,192,383892,1,0,0:0:0:0:
192,192,383975,1,0,0:0:0:0:
320,192,384057,1,0,0:0:0:0:
64,192,384057,1,0,0:0:0:0:
448,192,384057,1,0,0:0:0:0:
192,192,384140,1,0,0:0:0:0:
64,192,384222,1,0,0:0:0:0:
320,192,384222,1,0,0:0:0:0:
448,192,384305,1,0,0:0:0:0:
64,192,384387,1,0,0:0:0:0:
320,192,384387,1,0,0:0:0:0:
192,192,384469,1,0,0:0:0:0:
448,192,384552,1,0,0:0:0:0:
320,192,384552,1,0,0:0:0:0:
192,192,384634,1,0,0:0:0:0:
448,192,384717,1,0,0:0:0:0:
64,192,384717,1,0,0:0:0:0:
320,192,384717,1,0,0:0:0:0:
192,192,384799,1,0,0:0:0:0:
64,192,384881,1,0,0:0:0:0:
320,192,384881,1,0,0:0:0:0:
192,192,384964,1,0,0:0:0:0:
448,192,385046,128,0,385088:0:0:0:0:
320,192,385046,128,0,385088:0:0:0:0:
64,192,385046,1,0,0:0:0:0:
192,192,385129,1,0,0:0:0:0:
448,192,385211,1,0,0:0:0:0:
64,192,385211,1,0,0:0:0:0:
320,192,385294,1,0,0:0:0:0:
192,192,385376,1,0,0:0:0:0:
64,192,385376,1,0,0:0:0:0:
448,192,385376,1,0,0:0:0:0:
320,192,385458,1,0,0:0:0:0:
448,192,385541,1,0,0:0:0:0:
64,192,385541,1,0,0:0:0:0:
192,192,385623,1,0,0:0:0:0:
320,192,385706,1,0,0:0:0:0:
448,192,385706,1,0,0:0:0:0:
192,192,385788,1,0,0:0:0:0:
448,192,385870,1,0,0:0:0:0:
64,192,385870,1,0,0:0:0:0:
320,192,385953,1,0,0:0:0:0:
64,192,386035,1,0,0:0:0:0:
448,192,386035,1,0,0:0:0:0:
192,192,386035,1,0,0:0:0:0:
320,192,386118,1,0,0:0:0:0:
64,192,386200,1,0,0:0:0:0:
192,192,386283,1,0,0:0:0:0:
448,192,386365,128,0,386406:0:0:0:0:
320,192,386365,128,0,386406:0:0:0:0:
64,192,386365,1,0,0:0:0:0:
192,192,386447,1,0,0:0:0:0:
320,192,386530,1,0,0:0:0:0:
448,192,386530,1,0,0:0:0:0:
192,192,386612,1,0,0:0:0:0:
64,192,386695,1,0,0:0:0:0:
448,192,386695,1,0,0:0:0:0:
320,192,386695,1,0,0:0:0:0:
192,192,386777,1,0,0:0:0:0:
64,192,386860,1,0,0:0:0:0:
448,192,386860,1,0,0:0:0:0:
320,192,386942,1,0,0:0:0:0:
192,192,387024,1,0,0:0:0:0:
64,192,387024,1,0,0:0:0:0:
320,192,387107,1,0,0:0:0:0:
64,192,387189,1,0,0:0:0:0:
192,192,387189,1,0,0:0:0:0:
320,192,387272,1,0,0:0:0:0:
192,192,387354,1,0,0:0:0:0:
448,192,387354,1,0,0:0:0:0:
64,192,387354,1,0,0:0:0:0:
320,192,387436,1,0,0:0:0:0:
64,192,387519,1,0,0:0:0:0:
448,192,387519,1,0,0:0:0:0:
320,192,387601,1,0,0:0:0:0:
448,192,387684,1,0,0:0:0:0:
64,192,387684,128,0,387725:0:0:0:0:
192,192,387684,128,0,387725:0:0:0:0:
320,192,387766,1,0,0:0:0:0:
192,192,387849,1,0,0:0:0:0:
448,192,387849,1,0,0:0:0:0:
64,192,387931,1,0,0:0:0:0:
192,192,388013,1,0,0:0:0:0:
320,192,388013,1,0,0:0:0:0:
448,192,388013,1,0,0:0:0:0:
64,192,388096,1,0,0:0:0:0:
448,192,388178,1,0,0:0:0:0:
320,192,388178,1,0,0:0:0:0:
192,192,388261,1,0,0:0:0:0:
448,192,388343,1,0,0:0:0:0:
64,192,388343,1,0,0:0:0:0:
320,192,388425,1,0,0:0:0:0:
448,192,388508,1,0,0:0:0:0:
192,192,388508,1,0,0:0:0:0:
320,192,388590,1,0,0:0:0:0:
192,192,388673,1,0,0:0:0:0:
448,192,388673,1,0,0:0:0:0:
64,192,388673,1,0,0:0:0:0:
320,192,388755,1,0,0:0:0:0:
192,192,388838,1,0,0:0:0:0:
64,192,388838,1,0,0:0:0:0:
320,192,388920,1,0,0:0:0:0:
448,192,389002,1,0,0:0:0:0:
64,192,389002,128,0,389044:0:0:0:0:
192,192,389002,128,0,389044:0:0:0:0:
320,192,389085,1,0,0:0:0:0:
448,192,389167,1,0,0:0:0:0:
192,192,389167,1,0,0:0:0:0:
320,192,389250,1,0,0:0:0:0:
64,192,389332,1,0,0:0:0:0:
448,192,389332,1,0,0:0:0:0:
192,192,389332,1,0,0:0:0:0:
320,192,389414,1,0,0:0:0:0:
64,192,389497,1,0,0:0:0:0:
192,192,389497,1,0,0:0:0:0:
448,192,389579,1,0,0:0:0:0:
64,192,389662,1,0,0:0:0:0:
320,192,389662,1,0,0:0:0:0:
192,192,389744,1,0,0:0:0:0:
320,192,389827,1,0,0:0:0:0:
448,192,389827,1,0,0:0:0:0:
192,192,389909,1,0,0:0:0:0:
448,192,389991,1,0,0:0:0:0:
320,192,389991,1,0,0:0:0:0:
64,192,389991,1,0,0:0:0:0:
192,192,390074,1,0,0:0:0:0:
64,192,390156,1,0,0:0:0:0:
448,192,390156,1,0,0:0:0:0:
320,192,390239,1,0,0:0:0:0:
448,192,390321,128,0,390362:0:0:0:0:
64,192,390321,1,0,0:0:0:0:
192,192,390321,128,0,390362:0:0:0:0:
320,192,390403,1,0,0:0:0:0:
64,192,390486,1,0,0:0:0:0:
192,192,390486,1,0,0:0:0:0:
320,192,390568,1,0,0:0:0:0:
448,192,390651,1,0,0:0:0:0:
192,192,390651,1,0,0:0:0:0:
64,192,390651,1,0,0:0:0:0:
320,192,390733,1,0,0:0:0:0:
448,192,390816,1,0,0:0:0:0:
64,192,390816,1,0,0:0:0:0:
192,192,390898,1,0,0:0:0:0:
320,192,390980,128,0,391228:0:0:0:0:
448,192,390980,128,0,391228:0:0:0:0:
64,192,390980,1,0,0:0:0:0:
192,192,391310,128,0,391557:0:0:0:0:
448,192,391310,1,0,0:0:0:0:
320,192,391310,1,0,0:0:0:0:
64,192,391310,128,0,391557:0:0:0:0:
320,192,391640,128,0,391681:0:0:0:0:
448,192,391640,128,0,391681:0:0:0:0:
64,192,391640,128,0,391681:0:0:0:0:
192,192,391722,1,0,0:0:0:0:
320,192,391805,1,0,0:0:0:0:
448,192,391805,1,0,0:0:0:0:
64,192,391887,1,0,0:0:0:0:
192,192,391969,1,0,0:0:0:0:
320,192,391969,1,0,0:0:0:0:
448,192,391969,1,0,0:0:0:0:
64,192,392052,1,0,0:0:0:0:
448,192,392134,1,0,0:0:0:0:
320,192,392134,1,0,0:0:0:0:
64,192,392217,1,0,0:0:0:0:
448,192,392299,1,0,0:0:0:0:
320,192,392299,1,0,0:0:0:0:
192,192,392381,1,0,0:0:0:0:
448,192,392464,1,0,0:0:0:0:
320,192,392464,1,0,0:0:0:0:
192,192,392546,1,0,0:0:0:0:
64,192,392629,1,0,0:0:0:0:
448,192,392629,1,0,0:0:0:0:
320,192,392629,1,0,0:0:0:0:
192,192,392711,1,0,0:0:0:0:
320,192,392794,1,0,0:0:0:0:
448,192,392794,1,0,0:0:0:0:
192,192,392876,1,0,0:0:0:0:
448,192,392958,1,0,0:0:0:0:
320,192,392958,128,0,393000:0:0:0:0:
64,192,392958,128,0,393000:0:0:0:0:
192,192,393041,1,0,0:0:0:0:
448,192,393123,1,0,0:0:0:0:
64,192,393123,1,0,0:0:0:0:
320,192,393206,1,0,0:0:0:0:
192,192,393288,1,0,0:0:0:0:
448,192,393288,1,0,0:0:0:0:
64,192,393288,1,0,0:0:0:0:
320,192,393370,1,0,0:0:0:0:
64,192,393453,1,0,0:0:0:0:
192,192,393453,1,0,0:0:0:0:
448,192,393535,1,0,0:0:0:0:
192,192,393618,1,0,0:0:0:0:
64,192,393618,1,0,0:0:0:0:
320,192,393700,1,0,0:0:0:0:
192,192,393783,1,0,0:0:0:0:
64,192,393783,1,0,0:0:0:0:
320,192,393865,1,0,0:0:0:0:
64,192,393947,1,0,0:0:0:0:
448,192,393947,1,0,0:0:0:0:
192,192,393947,1,0,0:0:0:0:
320,192,394030,1,0,0:0:0:0:
192,192,394112,1,0,0:0:0:0:
64,192,394112,1,0,0:0:0:0:
320,192,394195,1,0,0:0:0:0:
448,192,394277,1,0,0:0:0:0:
64,192,394277,128,0,394318:0:0:0:0:
192,192,394277,128,0,394318:0:0:0:0:
320,192,394360,1,0,0:0:0:0:
448,192,394442,1,0,0:0:0:0:
64,192,394442,1,0,0:0:0:0:
192,192,394524,1,0,0:0:0:0:
320,192,394607,1,0,0:0:0:0:
448,192,394607,1,0,0:0:0:0:
64,192,394607,1,0,0:0:0:0:
192,192,394689,1,0,0:0:0:0:
320,192,394772,1,0,0:0:0:0:
448,192,394772,1,0,0:0:0:0:
64,192,394854,1,0,0:0:0:0:
448,192,394936,1,0,0:0:0:0:
192,192,394936,1,0,0:0:0:0:
64,192,395019,1,0,0:0:0:0:
320,192,395101,1,0,0:0:0:0:
448,192,395101,1,0,0:0:0:0:
64,192,395184,1,0,0:0:0:0:
448,192,395266,1,0,0:0:0:0:
320,192,395266,1,0,0:0:0:0:
192,192,395266,1,0,0:0:0:0:
64,192,395349,1,0,0:0:0:0:
448,192,395431,1,0,0:0:0:0:
320,192,395431,1,0,0:0:0:0:
192,192,395513,1,0,0:0:0:0:
320,192,395596,128,0,395637:0:0:0:0:
448,192,395596,128,0,395637:0:0:0:0:
64,192,395596,1,0,0:0:0:0:
192,192,395678,1,0,0:0:0:0:
64,192,395761,1,0,0:0:0:0:
448,192,395761,1,0,0:0:0:0:
320,192,395843,1,0,0:0:0:0:
64,192,395925,1,0,0:0:0:0:
192,192,395925,1,0,0:0:0:0:
448,192,395925,1,0,0:0:0:0:
320,192,396008,1,0,0:0:0:0:
64,192,396090,1,0,0:0:0:0:
192,192,396090,1,0,0:0:0:0:
448,192,396173,1,0,0:0:0:0:
64,192,396255,1,0,0:0:0:0:
320,192,396255,1,0,0:0:0:0:
448,192,396338,1,0,0:0:0:0:
64,192,396420,1,0,0:0:0:0:
192,192,396420,1,0,0:0:0:0:
448,192,396502,1,0,0:0:0:0:
192,192,396585,1,0,0:0:0:0:
64,192,396585,1,0,0:0:0:0:
320,192,396585,1,0,0:0:0:0:
448,192,396667,1,0,0:0:0:0:
64,192,396750,1,0,0:0:0:0:
192,192,396750,1,0,0:0:0:0:
448,192,396832,1,0,0:0:0:0:
320,192,396914,128,0,396956:0:0:0:0:
192,192,396914,128,0,396956:0:0:0:0:
64,192,396914,1,0,0:0:0:0:
448,192,396997,1,0,0:0:0:0:
64,192,397079,1,0,0:0:0:0:
192,192,397079,1,0,0:0:0:0:
448,192,397162,1,0,0:0:0:0:
64,192,397244,1,0,0:0:0:0:
320,192,397244,1,0,0:0:0:0:
192,192,397244,1,0,0:0:0:0:
448,192,397327,1,0,0:0:0:0:
192,192,397409,1,0,0:0:0:0:
320,192,397409,1,0,0:0:0:0:
64,192,397491,1,0,0:0:0:0:
320,192,397574,1,0,0:0:0:0:
448,192,397574,1,0,0:0:0:0:
192,192,397656,1,0,0:0:0:0:
320,192,397739,1,0,0:0:0:0:
448,192,397739,1,0,0:0:0:0:
192,192,397821,1,0,0:0:0:0:
64,192,397903,1,0,0:0:0:0:
448,192,397903,1,0,0:0:0:0:
320,192,397903,1,0,0:0:0:0:
192,192,397986,1,0,0:0:0:0:
448,192,398068,1,0,0:0:0:0:
64,192,398068,1,0,0:0:0:0:
320,192,398151,1,0,0:0:0:0:
192,192,398233,128,0,398274:0:0:0:0:
448,192,398233,1,0,0:0:0:0:
64,192,398233,128,0,398274:0:0:0:0:
320,192,398316,1,0,0:0:0:0:
192,192,398398,1,0,0:0:0:0:
64,192,398398,1,0,0:0:0:0:
320,192,398480,1,0,0:0:0:0:
192,192,398563,1,0,0:0:0:0:
64,192,398563,1,0,0:0:0:0:
448,192,398563,1,0,0:0:0:0:
320,192,398645,1,0,0:0:0:0:
192,192,398728,1,0,0:0:0:0:
448,192,398728,1,0,0:0:0:0:
64,192,398810,1,0,0:0:0:0:
448,192,398892,1,0,0:0:0:0:
320,192,398892,1,0,0:0:0:0:
192,192,398975,1,0,0:0:0:0:
320,192,399057,1,0,0:0:0:0:
64,192,399057,1,0,0:0:0:0:
192,192,399140,1,0,0:0:0:0:
448,192,399222,1,0,0:0:0:0:
320,192,399222,1,0,0:0:0:0:
64,192,399222,1,0,0:0:0:0:
192,192,399305,1,0,0:0:0:0:
448,192,399387,1,0,0:0:0:0:
320,192,399387,1,0,0:0:0:0:
192,192,399469,1,0,0:0:0:0:
448,192,399552,128,0,399593:0:0:0:0:
320,192,399552,128,0,399593:0:0:0:0:
64,192,399552,1,0,0:0:0:0:
192,192,399634,1,0,0:0:0:0:
64,192,399717,1,0,0:0:0:0:
448,192,399717,1,0,0:0:0:0:
320,192,399799,1,0,0:0:0:0:
448,192,399881,1,0,0:0:0:0:
192,192,399881,1,0,0:0:0:0:
64,192,399881,1,0,0:0:0:0:
320,192,399964,1,0,0:0:0:0:
192,192,400046,1,0,0:0:0:0:
448,192,400046,1,0,0:0:0:0:
64,192,400129,1,0,0:0:0:0:
448,192,400211,1,0,0:0:0:0:
192,192,400211,1,0,0:0:0:0:
320,192,400294,1,0,0:0:0:0:
192,192,400376,1,0,0:0:0:0:
64,192,400376,1,0,0:0:0:0:
320,192,400458,1,0,0:0:0:0:
448,192,400541,1,0,0:0:0:0:
64,192,400541,1,0,0:0:0:0:
192,192,400541,1,0,0:0:0:0:
320,192,400623,1,0,0:0:0:0:
448,192,400706,1,0,0:0:0:0:
192,192,400706,1,0,0:0:0:0:
320,192,400788,1,0,0:0:0:0:
448,192,400870,1,0,0:0:0:0:
64,192,400870,128,0,400912:0:0:0:0:
192,192,400870,128,0,400912:0:0:0:0:
320,192,400953,1,0,0:0:0:0:
448,192,401035,1,0,0:0:0:0:
64,192,401035,1,0,0:0:0:0:
192,192,401118,1,0,0:0:0:0:
448,192,401200,1,0,0:0:0:0:
64,192,401200,1,0,0:0:0:0:
320,192,401200,1,0,0:0:0:0:
192,192,401283,1,0,0:0:0:0:
64,192,401365,1,0,0:0:0:0:
448,192,401365,1,0,0:0:0:0:
192,192,401447,1,0,0:0:0:0:
320,192,401530,1,0,0:0:0:0:
448,192,401530,1,0,0:0:0:0:
192,192,401612,1,0,0:0:0:0:
320,192,401695,1,0,0:0:0:0:
448,192,401695,1,0,0:0:0:0:
192,192,401777,1,0,0:0:0:0:
448,192,401860,1,0,0:0:0:0:
64,192,401860,1,0,0:0:0:0:
320,192,401860,1,0,0:0:0:0:
192,192,401942,1,0,0:0:0:0:
320,192,402024,1,0,0:0:0:0:
192,192,402107,1,0,0:0:0:0:
64,192,402189,1,0,0:0:0:0:
320,192,402189,128,0,402230:0:0:0:0:
448,192,402189,128,0,402230:0:0:0:0:
192,192,402272,1,0,0:0:0:0:
448,192,402354,1,0,0:0:0:0:
320,192,402354,1,0,0:0:0:0:
192,192,402436,1,0,0:0:0:0:
320,192,402519,1,0,0:0:0:0:
448,192,402519,1,0,0:0:0:0:
64,192,402519,1,0,0:0:0:0:
192,192,402601,1,0,0:0:0:0:
448,192,402684,1,0,0:0:0:0:
64,192,402684,1,0,0:0:0:0:
320,192,402766,1,0,0:0:0:0:
64,192,402849,1,0,0:0:0:0:
192,192,402849,1,0,0:0:0:0:
320,192,402931,1,0,0:0:0:0:
192,192,403013,1,0,0:0:0:0:
64,192,403013,1,0,0:0:0:0:
320,192,403096,1,0,0:0:0:0:
64,192,403178,1,0,0:0:0:0:
448,192,403178,1,0,0:0:0:0:
192,192,403178,1,0,0:0:0:0:
320,192,403261,1,0,0:0:0:0:
448,192,403343,1,0,0:0:0:0:
64,192,403343,1,0,0:0:0:0:
320,192,403425,1,0,0:0:0:0:
192,192,403508,128,0,403549:0:0:0:0:
64,192,403508,128,0,403549:0:0:0:0:
448,192,403508,1,0,0:0:0:0:
320,192,403590,1,0,0:0:0:0:
448,192,403673,1,0,0:0:0:0:
192,192,403673,1,0,0:0:0:0:
64,192,403755,1,0,0:0:0:0:
448,192,403838,1,0,0:0:0:0:
320,192,403838,1,0,0:0:0:0:
192,192,403838,1,0,0:0:0:0:
64,192,403920,1,0,0:0:0:0:
320,192,404002,1,0,0:0:0:0:
448,192,404002,1,0,0:0:0:0:
192,192,404085,1,0,0:0:0:0:
64,192,404167,1,0,0:0:0:0:
448,192,404167,1,0,0:0:0:0:
320,192,404250,1,0,0:0:0:0:
192,192,404332,1,0,0:0:0:0:
448,192,404332,1,0,0:0:0:0:
320,192,404414,1,0,0:0:0:0:
64,192,404497,1,0,0:0:0:0:
448,192,404497,1,0,0:0:0:0:
192,192,404497,1,0,0:0:0:0:
320,192,404579,1,0,0:0:0:0:
64,192,404662,1,0,0:0:0:0:
192,192,404662,1,0,0:0:0:0:
320,192,404744,1,0,0:0:0:0:
192,192,404827,128,0,404868:0:0:0:0:
64,192,404827,128,0,404868:0:0:0:0:
448,192,404827,1,0,0:0:0:0:
320,192,404909,1,0,0:0:0:0:
192,192,404991,1,0,0:0:0:0:
448,192,404991,1,0,0:0:0:0:
320,192,405074,1,0,0:0:0:0:
192,192,405156,1,0,0:0:0:0:
448,192,405156,1,0,0:0:0:0:
64,192,405156,1,0,0:0:0:0:
320,192,405239,1,0,0:0:0:0:
192,192,405321,1,0,0:0:0:0:
64,192,405321,1,0,0:0:0:0:
448,192,405403,1,0,0:0:0:0:
320,192,405486,1,0,0:0:0:0:
64,192,405486,1,0,0:0:0:0:
192,192,405568,1,0,0:0:0:0:
448,192,405651,1,0,0:0:0:0:
320,192,405651,1,0,0:0:0:0:
192,192,405733,1,0,0:0:0:0:
64,192,405816,1,0,0:0:0:0:
320,192,405816,1,0,0:0:0:0:
448,192,405816,1,0,0:0:0:0:
192,192,405898,1,0,0:0:0:0:
448,192,405980,1,0,0:0:0:0:
64,192,405980,1,0,0:0:0:0:
320,192,406063,1,0,0:0:0:0:
192,192,406145,128,0,406186:0:0:0:0:
64,192,406145,1,0,0:0:0:0:
448,192,406145,128,0,406186:0:0:0:0:
320,192,406228,1,0,0:0:0:0:
192,192,406310,1,0,0:0:0:0:
64,192,406310,1,0,0:0:0:0:
320,192,406392,1,0,0:0:0:0:
64,192,406475,1,0,0:0:0:0:
192,192,406475,1,0,0:0:0:0:
448,192,406475,1,0,0:0:0:0:
320,192,406557,1,0,0:0:0:0:
64,192,406640,1,0,0:0:0:0:
448,192,406640,1,0,0:0:0:0:
192,192,406722,1,0,0:0:0:0:
448,192,406805,1,0,0:0:0:0:
320,192,406805,1,0,0:0:0:0:
192,192,406887,1,0,0:0:0:0:
64,192,406969,1,0,0:0:0:0:
448,192,406969,1,0,0:0:0:0:
320,192,407052,1,0,0:0:0:0:
64,192,407134,1,0,0:0:0:0:
192,192,407134,1,0,0:0:0:0:
448,192,407134,1,0,0:0:0:0:
320,192,407189,1,0,0:0:0:0:
192,192,407244,1,0,0:0:0:0:
448,192,407299,1,0,0:0:0:0:
64,192,407299,1,0,0:0:0:0:
320,192,407354,1,0,0:0:0:0:
192,192,407409,1,0,0:0:0:0:
448,192,407464,1,0,0:0:0:0:
64,192,407464,1,0,0:0:0:0:
320,192,407464,1,0,0:0:0:0:
192,192,407546,1,0,0:0:0:0:
320,192,407629,1,0,0:0:0:0:
448,192,407629,1,0,0:0:0:0:
64,192,407711,1,0,0:0:0:0:
320,192,407794,1,0,0:0:0:0:
448,192,407794,1,0,0:0:0:0:
192,192,407876,1,0,0:0:0:0:
320,192,407958,1,0,0:0:0:0:
64,192,407958,1,0,0:0:0:0:
448,192,407958,1,0,0:0:0:0:
192,192,408041,1,0,0:0:0:0:
448,192,408123,1,0,0:0:0:0:
320,192,408123,1,0,0:0:0:0:
192,192,408206,1,0,0:0:0:0:
448,192,408288,1,0,0:0:0:0:
320,192,408288,1,0,0:0:0:0:
192,192,408370,1,0,0:0:0:0:
64,192,408453,1,0,0:0:0:0:
320,192,408453,1,0,0:0:0:0:
448,192,408453,1,0,0:0:0:0:
192,192,408535,1,0,0:0:0:0:
448,192,408618,1,0,0:0:0:0:
320,192,408618,1,0,0:0:0:0:
64,192,408700,1,0,0:0:0:0:
192,192,408783,1,0,0:0:0:0:
448,192,408783,1,0,0:0:0:0:
320,192,408865,1,0,0:0:0:0:
64,192,408947,1,0,0:0:0:0:
448,192,408947,1,0,0:0:0:0:
192,192,408947,1,0,0:0:0:0:
320,192,409030,1,0,0:0:0:0:
64,192,409112,1,0,0:0:0:0:
192,192,409112,1,0,0:0:0:0:
320,192,409195,1,0,0:0:0:0:
64,192,409277,1,0,0:0:0:0:
192,192,409277,1,0,0:0:0:0:
448,192,409360,1,0,0:0:0:0:
320,192,409442,1,0,0:0:0:0:
192,192,409442,1,0,0:0:0:0:
64,192,409442,1,0,0:0:0:0:
448,192,409524,1,0,0:0:0:0:
64,192,409607,1,0,0:0:0:0:
192,192,409607,1,0,0:0:0:0:
448,192,409689,1,0,0:0:0:0:
64,192,409772,1,0,0:0:0:0:
192,192,409772,1,0,0:0:0:0:
320,192,409772,1,0,0:0:0:0:
448,192,409854,1,0,0:0:0:0:
64,192,409936,1,0,0:0:0:0:
192,192,409936,1,0,0:0:0:0:
320,192,410019,1,0,0:0:0:0:
448,192,410101,1,0,0:0:0:0:
64,192,410101,1,0,0:0:0:0:
192,192,410101,1,0,0:0:0:0:
320,192,410184,1,0,0:0:0:0:
448,192,410266,1,0,0:0:0:0:
192,192,410266,1,0,0:0:0:0:
64,192,410349,1,0,0:0:0:0:
192,192,410431,1,0,0:0:0:0:
448,192,410431,1,0,0:0:0:0:
64,192,410513,1,0,0:0:0:0:
192,192,410596,1,0,0:0:0:0:
320,192,410596,1,0,0:0:0:0:
448,192,410596,1,0,0:0:0:0:
64,192,410678,1,0,0:0:0:0:
448,192,410761,1,0,0:0:0:0:
192,192,410761,1,0,0:0:0:0:
64,192,410843,1,0,0:0:0:0:
448,192,410925,1,0,0:0:0:0:
320,192,410925,1,0,0:0:0:0:
64,192,411008,1,0,0:0:0:0:
448,192,411090,1,0,0:0:0:0:
192,192,411090,1,0,0:0:0:0:
320,192,411090,1,0,0:0:0:0:
64,192,411173,1,0,0:0:0:0:
320,192,411255,1,0,0:0:0:0:
448,192,411255,1,0,0:0:0:0:
64,192,411338,1,0,0:0:0:0:
448,192,411420,1,0,0:0:0:0:
192,192,411420,1,0,0:0:0:0:
320,192,411502,1,0,0:0:0:0:
64,192,411585,1,0,0:0:0:0:
192,192,411585,1,0,0:0:0:0:
448,192,411585,1,0,0:0:0:0:
320,192,411667,1,0,0:0:0:0:
448,192,411750,1,0,0:0:0:0:
64,192,411750,1,0,0:0:0:0:
320,192,411832,1,0,0:0:0:0:
64,192,411914,1,0,0:0:0:0:
192,192,411914,1,0,0:0:0:0:
448,192,411997,1,0,0:0:0:0:
64,192,412079,1,0,0:0:0:0:
192,192,412079,1,0,0:0:0:0:
320,192,412079,1,0,0:0:0:0:
448,192,412162,1,0,0:0:0:0:
192,192,412244,1,0,0:0:0:0:
64,192,412244,1,0,0:0:0:0:
448,192,412327,1,0,0:0:0:0:
192,192,412409,1,0,0:0:0:0:
64,192,412409,1,0,0:0:0:0:
320,192,412409,1,0,0:0:0:0:
448,192,412491,1,0,0:0:0:0:
192,192,412574,1,0,0:0:0:0:
64,192,412574,1,0,0:0:0:0:
320,192,412656,1,0,0:0:0:0:
64,192,412739,1,0,0:0:0:0:
448,192,412739,1,0,0:0:0:0:
192,192,412739,1,0,0:0:0:0:
320,192,412903,1,0,0:0:0:0:
192,192,412986,1,0,0:0:0:0:
320,192,413068,1,0,0:0:0:0:
192,192,413151,1,0,0:0:0:0:
448,192,413233,1,0,0:0:0:0:
64,192,413315,1,0,0:0:0:0:
448,192,413398,1,0,0:0:0:0:
64,192,413480,1,0,0:0:0:0:
448,192,413563,1,0,0:0:0:0:
320,192,413645,1,0,0:0:0:0:
192,192,413728,1,0,0:0:0:0:
448,192,413728,1,0,0:0:0:0:
64,192,413728,128,0,414057:0:0:0:0:
192,192,414057,128,0,414304:0:0:0:0:
320,192,414222,128,0,414469:0:0:0:0:
192,192,414387,128,0,414634:0:0:0:0:
320,192,414552,128,0,414717:0:0:0:0:
448,192,414717,1,0,0:0:0:0:
192,192,414717,1,0,0:0:0:0:
64,192,414717,1,0,0:0:0:0:
320,192,414881,1,0,0:0:0:0:
192,192,415046,1,0,0:0:0:0:
320,192,415211,1,0,0:0:0:0:
64,192,415211,1,0,0:0:0:0:
448,192,415211,1,0,0:0:0:0:
192,192,415376,1,0,0:0:0:0:
320,192,415541,1,0,0:0:0:0:
320,192,415706,1,0,0:0:0:0:
64,192,415706,1,0,0:0:0:0:
192,192,415706,1,0,0:0:0:0:
192,192,415870,1,0,0:0:0:0:
64,192,416035,1,0,0:0:0:0:
448,192,416200,1,0,0:0:0:0:
320,192,416200,1,0,0:0:0:0:
192,192,416200,1,0,0:0:0:0:
320,192,416365,1,0,0:0:0:0:
192,192,416530,1,0,0:0:0:0:
448,192,416612,1,0,0:0:0:0:
64,192,416695,1,0,0:0:0:0:
320,192,416695,1,0,0:0:0:0:
192,192,416695,1,0,0:0:0:0:
320,192,416859,1,0,0:0:0:0:
192,192,417024,1,0,0:0:0:0:
448,192,417024,1,0,0:0:0:0:
64,192,417354,1,0,0:0:0:0:
192,192,417354,1,0,0:0:0:0:
448,192,417354,1,0,0:0:0:0:
64,192,417519,1,0,0:0:0:0:
320,192,417519,1,0,0:0:0:0:
448,192,417519,1,0,0:0:0:0:
64,192,417684,1,0,0:0:0:0:
192,192,417684,1,0,0:0:0:0:
448,192,417684,1,0,0:0:0:0:
64,192,418178,1,0,0:0:0:0:
320,192,418178,1,0,0:0:0:0:
448,192,418178,1,0,0:0:0:0:
64,192,418343,1,0,0:0:0:0:
192,192,418343,1,0,0:0:0:0:
448,192,418343,1,0,0:0:0:0:
64,192,418508,1,0,0:0:0:0:
320,192,418508,1,0,0:0:0:0:
448,192,418508,1,0,0:0:0:0:
64,192,419002,1,0,0:0:0:0:
192,192,419002,1,0,0:0:0:0:
448,192,419002,1,0,0:0:0:0:
320,192,419167,1,0,0:0:0:0:
192,192,419167,1,0,0:0:0:0:
64,192,419167,1,0,0:0:0:0:
192,192,419332,1,0,0:0:0:0:
320,192,419332,1,0,0:0:0:0:
448,192,419332,1,0,0:0:0:0:
64,192,419497,1,0,0:0:0:0:
320,192,419497,1,0,0:0:0:0:
448,192,419497,1,0,0:0:0:0:
64,192,419662,1,0,0:0:0:0:
192,192,419662,1,0,0:0:0:0:
448,192,419662,1,0,0:0:0:0:
64,192,419826,1,0,0:0:0:0:
192,192,419826,1,0,0:0:0:0:
320,192,419909,1,0,0:0:0:0:
448,192,419991,1,0,0:0:0:0:
64,192,419991,1,0,0:0:0:0:
192,192,419991,1,0,0:0:0:0:
448,192,420320,1,0,0:0:0:0:
320,192,420485,1,0,0:0:0:0:
64,192,420485,1,0,0:0:0:0:
192,192,420815,1,0,0:0:0:0:
448,192,420815,1,0,0:0:0:0:
64,192,420980,1,0,0:0:0:0:
320,192,420980,1,0,0:0:0:0:
448,192,420980,1,0,0:0:0:0:
320,192,421309,128,0,421556:0:0:0:0:
192,192,421474,128,0,421721:0:0:0:0:
320,192,421639,128,0,421886:0:0:0:0:
192,192,421804,128,0,421969:0:0:0:0:
64,192,421969,1,0,0:0:0:0:
448,192,421969,1,0,0:0:0:0:
320,192,421969,1,0,0:0:0:0:
192,192,422051,1,0,0:0:0:0:
320,192,422133,1,0,0:0:0:0:
448,192,422216,1,0,0:0:0:0:
192,192,422298,1,0,0:0:0:0:
320,192,422381,1,0,0:0:0:0:
64,192,422463,1,0,0:0:0:0:
192,192,422463,1,0,0:0:0:0:
448,192,422463,1,0,0:0:0:0:
320,192,422545,1,0,0:0:0:0:
192,192,422628,1,0,0:0:0:0:
64,192,422710,1,0,0:0:0:0:
320,192,422793,1,0,0:0:0:0:
192,192,422875,1,0,0:0:0:0:
448,192,422958,1,0,0:0:0:0:
320,192,422958,1,0,0:0:0:0:
64,192,422958,1,0,0:0:0:0:
192,192,423040,1,0,0:0:0:0:
320,192,423122,1,0,0:0:0:0:
448,192,423205,1,0,0:0:0:0:
192,192,423287,1,0,0:0:0:0:
320,192,423370,1,0,0:0:0:0:
192,192,423452,1,0,0:0:0:0:
448,192,423452,1,0,0:0:0:0:
64,192,423452,1,0,0:0:0:0:
320,192,423534,1,0,0:0:0:0:
64,192,423617,1,0,0:0:0:0:
320,192,423699,1,0,0:0:0:0:
192,192,423782,1,0,0:0:0:0:
320,192,423864,1,0,0:0:0:0:
192,192,423947,1,0,0:0:0:0:
448,192,423947,1,0,0:0:0:0:
64,192,423947,1,0,0:0:0:0:
320,192,424029,1,0,0:0:0:0:
64,192,424111,1,0,0:0:0:0:
192,192,424111,1,0,0:0:0:0:
320,192,424194,1,0,0:0:0:0:
448,192,424276,1,0,0:0:0:0:
64,192,424276,1,0,0:0:0:0:
192,192,424359,1,0,0:0:0:0:
320,192,424441,1,0,0:0:0:0:
448,192,424441,1,0,0:0:0:0:
64,192,424606,1,0,0:0:0:0:
192,192,424606,1,0,0:0:0:0:
448,192,424606,1,0,0:0:0:0:
320,192,424688,1,0,0:0:0:0:
192,192,424770,1,0,0:0:0:0:
64,192,424853,1,0,0:0:0:0:
320,192,424935,1,0,0:0:0:0:
448,192,425018,1,0,0:0:0:0:
192,192,425100,1,0,0:0:0:0:
64,192,425100,1,0,0:0:0:0:
320,192,425100,1,0,0:0:0:0:
448,192,425430,1,0,0:0:0:0:
64,192,425430,1,0,0:0:0:0:
320,192,425512,1,0,0:0:0:0:
64,192,425595,1,0,0:0:0:0:
192,192,425677,1,0,0:0:0:0:
320,192,425759,1,0,0:0:0:0:
448,192,425842,1,0,0:0:0:0:
192,192,425924,1,0,0:0:0:0:
64,192,426007,1,0,0:0:0:0:
320,192,426089,1,0,0:0:0:0:
448,192,426089,1,0,0:0:0:0:
192,192,426089,1,0,0:0:0:0:
64,192,426419,1,0,0:0:0:0:
320,192,426419,1,0,0:0:0:0:
192,192,426584,1,0,0:0:0:0:
64,192,426584,1,0,0:0:0:0:
448,192,426584,1,0,0:0:0:0:
320,192,426666,1,0,0:0:0:0:
192,192,426748,1,0,0:0:0:0:
64,192,426831,1,0,0:0:0:0:
448,192,426913,1,0,0:0:0:0:
320,192,426996,1,0,0:0:0:0:
192,192,427078,1,0,0:0:0:0:
64,192,427078,1,0,0:0:0:0:
448,192,427078,1,0,0:0:0:0:
320,192,427160,1,0,0:0:0:0:
64,192,427243,1,0,0:0:0:0:
192,192,427325,1,0,0:0:0:0:
320,192,427408,1,0,0:0:0:0:
448,192,427490,1,0,0:0:0:0:
64,192,427573,1,0,0:0:0:0:
192,192,427573,1,0,0:0:0:0:
320,192,427573,1,0,0:0:0:0:
448,192,427902,1,0,0:0:0:0:
192,192,427902,1,0,0:0:0:0:
320,192,428067,1,0,0:0:0:0:
64,192,428149,1,0,0:0:0:0:
192,192,428149,1,0,0:0:0:0:
320,192,428232,1,0,0:0:0:0:
448,192,428232,1,0,0:0:0:0:
192,192,428308,1,0,0:0:0:0:
64,192,428397,1,0,0:0:0:0:
448,192,428397,1,0,0:0:0:0:
320,192,428479,1,0,0:0:0:0:
192,192,428562,1,0,0:0:0:0:
64,192,428562,1,0,0:0:0:0:
448,192,428562,1,0,0:0:0:0:
320,192,428891,1,0,0:0:0:0:
448,192,428891,1,0,0:0:0:0:
192,192,429056,1,0,0:0:0:0:
64,192,429056,1,0,0:0:0:0:
448,192,429056,1,0,0:0:0:0:
320,192,429221,1,0,0:0:0:0:
192,192,429386,1,0,0:0:0:0:
64,192,429551,1,0,0:0:0:0:
320,192,429551,1,0,0:0:0:0:
448,192,429551,1,0,0:0:0:0:
192,192,429880,1,0,0:0:0:0:
64,192,430045,1,0,0:0:0:0:
192,192,430045,1,0,0:0:0:0:
448,192,430045,1,0,0:0:0:0:
320,192,430210,1,0,0:0:0:0:
192,192,430375,1,0,0:0:0:0:
64,192,430540,1,0,0:0:0:0:
320,192,430540,1,0,0:0:0:0:
448,192,430540,1,0,0:0:0:0:
192,192,430704,1,0,0:0:0:0:
448,192,430704,1,0,0:0:0:0:
64,192,430869,1,0,0:0:0:0:
192,192,430869,1,0,0:0:0:0:
320,192,431034,1,0,0:0:0:0:
448,192,431034,1,0,0:0:0:0:
192,192,431199,1,0,0:0:0:0:
320,192,431199,1,0,0:0:0:0:
64,192,431199,1,0,0:0:0:0:
448,192,431199,1,0,0:0:0:0:
192,192,431364,1,0,0:0:0:0:
64,192,431364,1,0,0:0:0:0:
64,192,431529,1,0,0:0:0:0:
192,192,431529,1,0,0:0:0:0:
192,192,431693,1,0,0:0:0:0:
64,192,431693,1,0,0:0:0:0:
320,192,431693,1,0,0:0:0:0:
448,192,431693,1,0,0:0:0:0:
448,192,431858,1,0,0:0:0:0:
320,192,431858,1,0,0:0:0:0:
320,192,432023,1,0,0:0:0:0:
448,192,432023,1,0,0:0:0:0:
64,192,432188,1,0,0:0:0:0:
192,192,432188,1,0,0:0:0:0:
320,192,432188,1,0,0:0:0:0:
448,192,432188,1,0,0:0:0:0:
192,192,432353,1,0,0:0:0:0:
320,192,432353,1,0,0:0:0:0:
192,192,432518,1,0,0:0:0:0:
320,192,432518,1,0,0:0:0:0:
192,192,432682,1,0,0:0:0:0:
320,192,432682,1,0,0:0:0:0:
64,192,432682,1,0,0:0:0:0:
448,192,432682,1,0,0:0:0:0:
64,192,432847,1,0,0:0:0:0:
192,192,432847,1,0,0:0:0:0:
64,192,433012,1,0,0:0:0:0:
192,192,433012,1,0,0:0:0:0:
64,192,433177,1,0,0:0:0:0:
192,192,433177,1,0,0:0:0:0:
448,192,433177,1,0,0:0:0:0:
320,192,433259,1,0,0:0:0:0:
192,192,433342,1,0,0:0:0:0:
64,192,433424,1,0,0:0:0:0:
320,192,433507,1,0,0:0:0:0:
448,192,433589,1,0,0:0:0:0:
192,192,433671,1,0,0:0:0:0:
64,192,433754,1,0,0:0:0:0:
192,192,433836,1,0,0:0:0:0:
320,192,433836,1,0,0:0:0:0:
448,192,433836,1,0,0:0:0:0:
64,192,434166,1,0,0:0:0:0:
320,192,434331,1,0,0:0:0:0:
192,192,434331,1,0,0:0:0:0:
448,192,434331,1,0,0:0:0:0:
320,192,434660,1,0,0:0:0:0:
64,192,434825,1,0,0:0:0:0:
192,192,434825,1,0,0:0:0:0:
448,192,434825,1,0,0:0:0:0:
192,192,434990,1,0,0:0:0:0:
64,192,434990,1,0,0:0:0:0:
448,192,434990,1,0,0:0:0:0:
320,192,435155,1,0,0:0:0:0:
192,192,435237,1,0,0:0:0:0:
320,192,435320,1,0,0:0:0:0:
192,192,435402,1,0,0:0:0:0:
320,192,435485,1,0,0:0:0:0:
448,192,435485,1,0,0:0:0:0:
64,192,435567,1,0,0:0:0:0:
448,192,435649,1,0,0:0:0:0:
320,192,435649,1,0,0:0:0:0:
192,192,435732,1,0,0:0:0:0:
320,192,435814,1,0,0:0:0:0:
448,192,435814,1,0,0:0:0:0:
64,192,435897,1,0,0:0:0:0:
320,192,435979,1,0,0:0:0:0:
448,192,435979,1,0,0:0:0:0:
192,192,436062,1,0,0:0:0:0:
448,192,436144,128,0,436474:0:0:0:0:
64,192,436144,1,0,0:0:0:0:
320,192,436144,1,0,0:0:0:0:
320,192,436309,128,0,436474:0:0:0:0:
192,192,436309,1,0,0:0:0:0:
64,192,436392,1,0,0:0:0:0:
192,192,436474,128,0,436804:0:0:0:0:
320,192,436639,128,0,436804:0:0:0:0:
64,192,436804,128,0,437134:0:0:0:0:
448,192,436804,1,0,0:0:0:0:
320,192,436886,1,0,0:0:0:0:
192,192,436969,128,0,437134:0:0:0:0:
448,192,437134,128,0,437463:0:0:0:0:
64,192,437463,1,0,0:0:0:0:
320,192,437463,1,0,0:0:0:0:
192,192,437463,1,0,0:0:0:0:
192,192,437793,1,0,0:0:0:0:
448,192,437793,1,0,0:0:0:0:
64,192,437793,128,0,438123:0:0:0:0:
448,192,437958,1,0,0:0:0:0:
192,192,437958,128,0,438123:0:0:0:0:
320,192,438123,128,0,438452:0:0:0:0:
192,192,438287,128,0,438452:0:0:0:0:
64,192,438287,1,0,0:0:0:0:
448,192,438452,128,0,438782:0:0:0:0:
192,192,438617,128,0,438782:0:0:0:0:
64,192,438782,128,0,439112:0:0:0:0:
320,192,438782,1,0,0:0:0:0:
448,192,439112,1,0,0:0:0:0:
320,192,439112,1,0,0:0:0:0:
320,192,439276,1,0,0:0:0:0:
448,192,439276,1,0,0:0:0:0:
192,192,439441,1,0,0:0:0:0:
448,192,439441,1,0,0:0:0:0:
64,192,439441,128,0,439771:0:0:0:0:
320,192,439606,128,0,439771:0:0:0:0:
192,192,439771,128,0,440101:0:0:0:0:
448,192,439771,1,0,0:0:0:0:
320,192,439936,128,0,440101:0:0:0:0:
64,192,439936,1,0,0:0:0:0:
448,192,440101,128,0,440430:0:0:0:0:
320,192,440265,128,0,440430:0:0:0:0:
64,192,440430,128,0,440760:0:0:0:0:
192,192,440430,1,0,0:0:0:0:
192,192,440760,1,0,0:0:0:0:
448,192,440760,1,0,0:0:0:0:
64,192,440925,1,0,0:0:0:0:
192,192,440925,1,0,0:0:0:0:
320,192,441090,128,0,441419:0:0:0:0:
64,192,441090,1,0,0:0:0:0:
448,192,441090,1,0,0:0:0:0:
448,192,441254,128,0,441419:0:0:0:0:
192,192,441419,128,0,441749:0:0:0:0:
64,192,441419,1,0,0:0:0:0:
448,192,441584,128,0,441749:0:0:0:0:
320,192,441584,1,0,0:0:0:0:
64,192,441749,128,0,442079:0:0:0:0:
320,192,441914,1,0,0:0:0:0:
192,192,441996,1,0,0:0:0:0:
320,192,442079,1,0,0:0:0:0:
448,192,442079,1,0,0:0:0:0:
192,192,442243,1,0,0:0:0:0:
320,192,442243,1,0,0:0:0:0:
64,192,442408,1,0,0:0:0:0:
192,192,442408,1,0,0:0:0:0:
448,192,442573,1,0,0:0:0:0:
320,192,442573,1,0,0:0:0:0:
64,192,442738,128,0,443974:0:0:0:0:
448,192,442738,128,0,443974:0:0:0:0:
192,192,442738,1,0,0:0:0:0:
320,192,442738,1,0,0:0:0:0:
192,192,443232,128,0,443397:0:0:0:0:
320,192,443397,128,0,443974:0:0:0:0:
192,192,443727,128,0,443974:0:0:0:0:
64,192,444057,1,0,0:0:0:0:
192,192,444057,1,0,0:0:0:0:
320,192,444057,1,0,0:0:0:0:
448,192,444057,1,0,0:0:0:0:
192,192,444386,1,0,0:0:0:0:
64,192,444386,128,0,445623:0:0:0:0:
320,192,444386,1,0,0:0:0:0:
448,192,444386,128,0,445623:0:0:0:0:
320,192,444881,128,0,445046:0:0:0:0:
192,192,445046,128,0,445623:0:0:0:0:
320,192,445375,128,0,445623:0:0:0:0:
192,192,445705,1,0,0:0:0:0:
64,192,445705,1,0,0:0:0:0:
320,192,445705,1,0,0:0:0:0:
448,192,445705,1,0,0:0:0:0:
448,192,446035,1,0,0:0:0:0:
320,192,446035,128,0,447271:0:0:0:0:
64,192,446035,1,0,0:0:0:0:
192,192,446035,128,0,447271:0:0:0:0:
64,192,446529,128,0,446694:0:0:0:0:
448,192,446694,128,0,447271:0:0:0:0:
64,192,447024,128,0,447271:0:0:0:0:
320,192,447353,1,0,0:0:0:0:
448,192,447353,1,0,0:0:0:0:
192,192,447353,1,0,0:0:0:0:
64,192,447353,1,0,0:0:0:0:
64,192,447683,1,0,0:0:0:0:
448,192,447683,1,0,0:0:0:0:
192,192,447683,128,0,448095:0:0:0:0:
320,192,447683,128,0,448095:0:0:0:0:
64,192,448177,1,0,0:0:0:0:
448,192,448177,1,0,0:0:0:0:
192,192,448177,128,0,448672:0:0:0:0:
320,192,448177,128,0,448672:0:0:0:0:
64,192,448672,1,0,0:0:0:0:
448,192,448672,1,0,0:0:0:0:
320,192,448836,1,0,0:0:0:0:
192,192,448836,1,0,0:0:0:0:
64,192,449166,1,0,0:0:0:0:
192,192,449166,1,0,0:0:0:0:
320,192,449331,1,0,0:0:0:0:
448,192,449331,1,0,0:0:0:0:
192,192,449496,1,0,0:0:0:0:
448,192,449661,128,0,456474:0:0:0:0:
320,192,449661,128,0,455924:0:0:0:0:
192,192,449661,128,0,455485:0:0:0:0:
64,192,449661,1,0,0:0:0:0:
64,192,455485,128,0,457133:0:0:0:0:
192,192,455924,128,0,457573:0:0:0:0:
320,192,456474,128,0,458232:0:0:0:0:
448,192,456968,128,0,458232:0:0:0:0:
64,192,457573,1,0,0:0:0:0:
64,192,458232,1,0,0:0:0:0:
192,192,458232,1,0,0:0:0:0:
