osu file format v14

[General]
AudioFilename: demetori---heartfelt-fancy-_-prie-a-dieu-_r.-dzha_.mp3.mp3
AudioLeadIn: 1500
PreviewTime: 175475
Countdown: 0
SampleSet: Soft
StackLeniency: 0.5
Mode: 0
LetterboxInBreaks: 1
WidescreenStoryboard: 0

[Editor]
Bookmarks: 220751,232045
DistanceSpacing: 1
BeatDivisor: 8
GridSize: 4
TimelineZoom: 1.7

[Metadata]
Title:Heartfelt Fancy ~ Prie a Dieu
TitleUnicode:ハートフェルトファンシー ~ Prie a Dieu
Artist:Demetori
ArtistUnicode:Demetori
Creator:jonathanlfj
Version:<3
Source:東方Project
Tags:Marathon Satori Komeiji 古明地 さとり Tendre est la Mort le Grimoire De reve ZUN 東方地霊殿 ~ Subterranean Animism Tokunan 徳南 Kyuuhouji 九宝時 c85 touhou project
BeatmapID:570953
BeatmapSetID:248162

[Difficulty]
HPDrainRate:5.5
CircleSize:4
OverallDifficulty:8
ApproachRate:8.7
SliderMultiplier:2.6
SliderTickRate:2

[Events]
//Background and Video events
0,0,"satori.jpg",0,0
//Break Periods
2,221026,231476
//Storyboard Layer 0 (Background)
//Storyboard Layer 1 (Fail)
//Storyboard Layer 2 (Pass)
//Storyboard Layer 3 (Foreground)
//Storyboard Sound Samples

[TimingPoints]
594.33273700105,705.882352941176,4,2,1,70,1,0
23182,-111.111111111111,4,2,1,60,0,0
68359,-125,4,2,1,70,0,0
81064,-166.666666666667,4,2,1,70,0,0
82476,705.882352941176,4,2,1,80,1,1
82476,-100,4,2,1,80,0,1
104711,-100,4,2,1,80,0,0
105064,352.941176470588,4,2,1,70,1,1
105064,-166.666666666667,4,2,1,70,0,1
105152,-166.666666666667,4,2,1,70,0,0
127652,705.882352941176,4,2,1,70,1,0
138946,352.941176470588,4,2,1,80,1,1
138946,-153.846153846154,4,2,1,80,0,1
150240,705.882352941176,4,2,1,70,1,0
150240,-125,4,2,1,70,0,0
174240,-166.666666666667,4,1,1,70,0,0
174945,-166.666666666667,4,2,0,20,0,0
175651,705.882352941176,4,2,1,80,1,1
219415,-125,4,2,1,70,0,1
220827,-125,4,2,0,20,0,0
232121,-142.857142857143,4,2,0,30,0,0
242621,-142.857142857143,4,2,0,20,0,0
242709,-200,4,1,0,30,0,0
243327,-200,4,2,0,5,0,0
243415,-90.9090909090909,4,2,1,80,0,1
265827,-90.9090909090909,4,2,1,80,0,0
266003,-90.9090909090909,4,2,1,80,0,1
281533,-83.3333333333333,4,2,1,80,0,1
282944,-90.9090909090909,4,2,1,80,0,1
288591,-100,4,2,1,80,0,1
310474,-100,4,2,1,60,0,0
311180,-100,4,2,1,70,0,0
367827,-100,4,2,0,50,0,0
371886,-100,4,2,0,30,0,0
374356,-100,4,2,0,10,0,0
381856,-100,4,2,0,5,0,0

[Colours]
Combo1 : 255,192,0
Combo2 : 255,151,255
Combo3 : 18,124,255
Combo4 : 242,24,57

[HitObjects]
360,200,594,6,0,L|432:212,1,65,4|0,0:0|0:0,0:0:0:0:
316,120,947,2,0,L|228:132,1,65
136,272,1300,2,0,P|156:216|152:128,1,130,8|0,0:0|0:0,0:0:0:0:
100,72,1829,1,0,0:0:0:0:
24,128,2006,2,0,L|12:200,1,65,2|0,0:0|0:0,0:0:0:0:
56,336,2359,2,0,L|52:264,1,65
200,208,2711,2,0,P|264:216|344:204,1,130,8|0,0:0|0:0,0:0:0:0:
408,164,3241,1,0,0:0:0:0:
472,228,3417,6,0,P|479:260|480:292,1,65,2|0,0:0|0:0,0:0:0:0:
408,164,3770,2,0,P|406:126|412:96,1,65
328,208,4123,2,0,P|336:270|316:336,1,130,8|0,0:0|0:0,0:0:0:0:
232,364,4653,1,0,0:0:0:0:
84,276,4829,2,0,B|136:256|180:260|180:260|208:284,1,130,2|0,0:0|0:0,0:0:0:0:
232,364,5359,1,2,0:0:0:0:
148,212,5535,2,0,L|140:140,1,65,8|0,0:0|0:0,0:0:0:0:
332,136,5888,2,0,L|344:64,1,65,2|0,0:0|0:0,0:0:0:0:
392,208,6241,5,4,0:0:0:0:
304,224,6417,1,0,0:0:0:0:
240,156,6594,2,0,P|228:124|224:84,1,65
400,12,6947,2,0,P|440:72|436:132,1,130,8|0,0:0|0:0,0:0:0:0:
392,208,7476,1,0,0:0:0:0:
240,156,7653,2,0,P|176:144|104:152,1,130,4|0,0:0|0:0,0:0:0:0:
48,224,8182,1,0,0:0:0:0:
276,240,8359,2,0,P|324:192|324:116,1,130,8|0,0:0|0:0,0:0:0:0:
264,68,8888,1,0,0:0:0:0:
180,232,9064,6,0,L|184:308,1,65,4|0,0:0|0:0,0:0:0:0:
100,124,9417,2,0,L|8:116,1,65
240,156,9770,2,0,P|300:151|348:104,1,130,8|0,0:0|0:0,0:0:0:0:
264,68,10300,1,0,0:0:0:0:
392,188,10476,2,0,P|428:196|476:192,1,65,2|0,0:0|0:0,0:0:0:0:
348,104,10829,1,0,0:0:0:0:
316,240,11006,1,0,0:0:0:0:
184,280,11182,2,0,P|124:276|56:244,1,130,10|0,0:0|0:0,0:0:0:0:
256,36,11888,6,0,L|264:108,1,65,4|0,0:0|0:0,0:0:0:0:
152,176,12241,1,0,0:0:0:0:
172,84,12417,1,0,0:0:0:0:
228,232,12594,2,0,P|172:264|100:256,1,130,8|0,0:0|0:0,0:0:0:0:
304,288,13123,1,0,0:0:0:0:
304,288,13300,2,0,L|376:292,1,65,2|0,0:0|0:0,0:0:0:0:
440,200,13653,2,0,L|516:196,1,65
344,72,14006,2,0,P|328:136|352:208,1,130,8|0,0:0|0:0,0:0:0:0:
436,44,14535,1,0,0:0:0:0:
248,48,14711,6,0,L|180:40,1,65,2|0,0:0|0:0,0:0:0:0:
68,112,15064,1,0,0:0:0:0:
68,112,15241,1,0,0:0:0:0:
192,168,15417,2,0,P|256:176|340:152,1,130,8|0,0:0|0:0,0:0:0:0:
388,100,15947,1,0,0:0:0:0:
368,244,16123,2,0,B|360:280|360:280|260:308,1,130,2|0,0:0|0:0,0:0:0:0:
180,332,16653,1,2,0:0:0:0:
284,204,16829,2,0,L|296:128,1,65,8|0,0:0|0:0,0:0:0:0:
108,152,17182,2,0,L|88:76,1,65,2|0,0:0|0:0,0:0:0:0:
44,220,17535,5,4,0:0:0:0:
176,216,17711,1,0,0:0:0:0:
108,152,17888,1,0,0:0:0:0:
112,284,18064,1,0,0:0:0:0:
248,276,18241,2,0,B|292:280|292:280|332:296|332:296|376:300,1,130,8|0,0:0|0:0,0:0:0:0:
464,268,18770,1,0,0:0:0:0:
292,196,18947,2,0,P|228:184|176:216,1,130,4|0,0:0|0:0,0:0:0:0:
376,300,19653,1,8,0:0:0:0:
208,104,20006,1,0,0:0:0:0:
484,44,20359,6,0,P|489:103|472:180,1,130,4|0,0:0|0:0,0:0:0:0:
400,228,20888,1,0,0:0:0:0:
332,160,21064,2,0,P|328:144|328:88,1,65,8|0,0:0|0:0,0:0:0:0:
400,228,21417,1,0,0:0:0:0:
308,252,21594,1,0,0:0:0:0:
172,180,21770,2,0,L|252:188,1,65,2|0,0:0|0:0,0:0:0:0:
352,340,22123,2,0,L|264:348,1,65
140,292,22476,1,12,0:0:0:0:
128,276,22829,1,0,0:0:0:0:
116,260,23182,6,0,B|68:188|88:100|88:100|152:72,1,233.999992858887,4|8,0:0|0:0,0:0:0:0:
368,176,24417,1,0,0:0:0:0:
368,176,24594,2,0,L|240:164,1,116.999996429443,2|0,0:0|0:0,0:0:0:0:
76,296,25300,2,0,P|172:264|252:312,1,175.499994644165,8|0,0:0|0:0,0:0:0:0:
288,364,26006,6,0,L|424:348,1,116.999996429443,2|0,0:0|0:0,0:0:0:0:
336,148,26711,2,0,B|312:204|336:264|336:264|400:256,1,175.499994644165,8|0,0:0|0:0,0:0:0:0:
464,200,27417,2,0,L|472:124,1,58.4999982147217,2|0,0:0|0:0,0:0:0:0:
364,56,27770,1,0,0:0:0:0:
244,216,28123,2,0,L|232:352,1,116.999996429443,8|0,0:0|0:0,0:0:0:0:
120,352,28653,1,0,0:0:0:0:
120,352,28829,6,0,P|56:336|52:192,1,233.999992858887,2|8,0:0|0:0,0:0:0:0:
328,80,30064,1,0,0:0:0:0:
276,156,30241,2,0,P|200:172|144:164,1,116.999996429443,0|2,0:0|0:0,0:0:0:0:
368,164,30947,1,8,0:0:0:0:
408,248,31123,2,0,P|400:320|376:368,1,116.999996429443,2|0,0:0|0:0,0:0:0:0:
272,328,31653,6,0,P|188:316|128:328,2,116.999996429443,2|0|8,0:0|0:0|0:0,0:0:0:0:
368,164,32711,2,0,L|364:96,1,58.4999982147217,0|2,0:0|0:0,0:0:0:0:
440,224,33064,1,0,0:0:0:0:
440,224,33241,1,0,0:0:0:0:
284,208,33417,2,0,L|160:200,1,116.999996429443,0|10,0:0|0:0,0:0:0:0:
344,52,34123,1,2,0:0:0:0:
100,108,34476,6,0,L|240:96,1,116.999996429443,4|0,0:0|0:0,0:0:0:0:
100,276,35182,2,0,P|56:240|44:176,1,116.999996429443,8|0,0:0|0:0,0:0:0:0:
136,192,35711,1,0,0:0:0:0:
196,264,35888,2,0,P|268:268|324:248,1,116.999996429443,2|0,0:0|0:0,0:0:0:0:
380,192,36417,2,0,L|388:124,1,58.4999982147217,2|8,0:0|0:0,0:0:0:0:
468,344,36947,1,2,0:0:0:0:
400,280,37123,1,0,0:0:0:0:
311,255,37300,6,0,P|253:250|196:264,1,116.999996429443,2|0,0:0|0:0,0:0:0:0:
28,352,38006,2,0,P|80:320|20:232,1,175.499994644165,8|0,0:0|0:0,0:0:0:0:
128,260,38711,2,0,P|158:259|192:252,1,58.4999982147217,2|0,0:0|0:0,0:0:0:0:
260,160,39064,1,0,0:0:0:0:
48,72,39417,2,0,P|28:116|36:200,1,116.999996429443,10|0,0:0|0:0,0:0:0:0:
128,260,39947,1,0,0:0:0:0:
128,260,40123,6,0,L|252:252,1,116.999996429443,2|0,0:0|0:0,0:0:0:0:
472,176,40829,2,0,L|336:164,1,116.999996429443,8|0,0:0|0:0,0:0:0:0:
260,160,41359,1,2,0:0:0:0:
376,260,41535,2,0,L|444:268,2,58.4999982147217,0|0|0,0:0|0:0|0:0,0:0:0:0:
296,72,42241,2,0,P|360:48|424:60,1,116.999996429443,10|0,0:0|0:0,0:0:0:0:
472,124,42770,1,0,0:0:0:0:
376,260,42947,6,0,B|356:240|356:240|352:192|372:144,1,116.999996429443,2|0,0:0|0:0,0:0:0:0:
316,336,43653,2,0,B|272:340|232:320|232:320|188:300|144:312,1,175.499994644165,8|2,0:0|0:0,0:0:0:0:
64,364,44359,1,0,0:0:0:0:
56,268,44535,1,0,0:0:0:0:
48,172,44711,2,0,L|64:40,1,116.999996429443,0|10,0:0|0:0,0:0:0:0:
136,220,45417,2,0,L|144:256,3,29.2499991073609,0|0|0|0,0:0|0:0|0:0|0:0,0:0:0:0:
152,184,45770,6,0,B|191:173|230:187|230:187|268:168,1,116.999996429443,4|0,0:0|0:0,0:0:0:0:
460,280,46476,2,0,P|380:304|312:244,1,175.499994644165,8|0,0:0|0:0,0:0:0:0:
400,212,47182,2,0,L|408:148,1,58.4999982147217,2|0,0:0|0:0,0:0:0:0:
328,40,47535,2,0,L|316:168,2,116.999996429443,0|8|0,0:0|0:0|0:0,0:0:0:0:
420,12,48417,1,0,0:0:0:0:
488,168,48594,6,0,P|492:232|464:288,1,116.999996429443,2|0,0:0|0:0,0:0:0:0:
264,296,49300,2,0,P|196:276|136:284,1,116.999996429443,8|0,0:0|0:0,0:0:0:0:
72,328,49829,1,0,0:0:0:0:
100,204,50006,2,0,L|92:128,1,58.4999982147217,2|0,0:0|0:0,0:0:0:0:
192,232,50359,2,0,L|180:360,1,116.999996429443,0|8,0:0|0:0,0:0:0:0:
264,168,51064,1,0,0:0:0:0:
344,220,51241,1,0,0:0:0:0:
432,184,51417,6,0,P|460:124|456:56,1,116.999996429443,2|0,0:0|0:0,0:0:0:0:
200,96,52123,2,0,P|168:164|220:256,1,175.499994644165,8|0,0:0|0:0,0:0:0:0:
264,168,52829,1,0,0:0:0:0:
56,80,53182,2,0,P|40:160|48:216,1,116.999996429443,2|8,0:0|0:0,0:0:0:0:
116,252,53711,2,0,P|56:284|0:276,1,116.999996429443,2|0,0:0|0:0,0:0:0:0:
200,296,54241,6,0,P|264:300|316:336,2,116.999996429443,2|0|8,0:0|0:0|0:0,0:0:0:0:
116,164,55300,2,0,P|111:128|120:92,1,58.4999982147217,0|2,0:0|0:0,0:0:0:0:
244,68,55653,2,0,P|248:92|244:132,1,58.4999982147217
200,208,56006,1,0,0:0:0:0:
384,152,56359,1,10,0:0:0:0:
132,24,56711,1,2,0:0:0:0:
148,292,57064,6,0,P|224:300|276:272,1,116.999996429443,4|0,0:0|0:0,0:0:0:0:
304,80,57770,2,0,L|292:204,1,116.999996429443,8|0,0:0|0:0,0:0:0:0:
360,264,58300,1,0,0:0:0:0:
472,188,58476,2,0,P|484:120|472:64,1,116.999996429443,2|0,0:0|0:0,0:0:0:0:
396,20,59006,2,0,L|324:12,2,58.4999982147217,2|8|0,0:0|0:0|0:0,0:0:0:0:
312,104,59535,2,0,L|236:108,1,58.4999982147217,2|0,0:0|0:0,0:0:0:0:
376,176,59888,6,0,P|376:248|352:304,1,116.999996429443,2|0,0:0|0:0,0:0:0:0:
151,289,60594,2,0,P|133:234|136:176,1,116.999996429443,8|0,0:0|0:0,0:0:0:0:
212,120,61123,1,0,0:0:0:0:
292,72,61300,2,0,P|296:56|300:8,1,58.4999982147217,2|0,0:0|0:0,0:0:0:0:
296,164,61653,2,0,P|300:240|320:288,1,116.999996429443,0|8,0:0|0:0,0:0:0:0:
452,120,62359,1,0,0:0:0:0:
384,56,62535,1,0,0:0:0:0:
292,72,62711,6,0,B|256:76|256:76|216:64|192:24,1,116.999996429443,2|0,0:0|0:0,0:0:0:0:
44,160,63417,2,0,B|32:296|32:296|64:272,1,175.499994644165,8|0,0:0|0:0,0:0:0:0:
140,208,64123,2,0,L|148:132,1,58.4999982147217
216,265,64476,2,0,P|274:257|332:264,1,116.999996429443,2|8,0:0|0:0,0:0:0:0:
423,331,65006,2,0,P|371:307|332:264,1,116.999996429443,2|0,0:0|0:0,0:0:0:0:
320,168,65535,6,0,L|340:40,1,116.999996429443,2|0,0:0|0:0,0:0:0:0:
444,128,66064,1,0,0:0:0:0:
444,128,66241,2,0,P|460:184|456:244,1,116.999996429443,8|0,0:0|0:0,0:0:0:0:
424,332,66770,1,0,0:0:0:0:
300,280,66947,2,0,L|180:272,2,116.999996429443,2|0|8,0:0|0:0|0:0,0:0:0:0:
296,88,68006,1,2,0:1:0:0:
360,180,68182,1,2,0:1:0:0:
196,140,68359,6,0,P|184:88|196:32,1,104,4|0,0:0|0:0,0:0:0:0:
128,212,68888,2,0,P|60:184|32:156,1,104,2|0,0:0|0:0,0:0:0:0:
224,232,69417,2,0,P|276:208|372:224,1,156,4|0,0:0|0:0,0:0:0:0:
412,308,70123,2,0,L|408:364,2,52,0|0|2,0:0|0:0|0:0,0:0:0:0:
448,88,70829,1,2,0:0:0:0:
360,24,71006,1,2,0:0:0:0:
396,180,71182,6,0,P|464:192|516:176,1,104,4|0,0:0|0:0,0:0:0:0:
316,116,71711,2,0,P|280:108|212:120,1,104,2|0,0:0|0:0,0:0:0:0:
212,276,72241,2,0,P|276:276|268:200,1,156,4|0,0:0|0:0,0:0:0:0:
124,240,72947,2,0,L|116:296,1,52,2|0,0:1|0:0,0:0:0:0:
36,200,73300,1,2,0:1:0:0:
208,124,73476,1,0,0:0:0:0:
116,88,73653,1,2,0:1:0:0:
220,216,73829,1,2,0:1:0:0:
284,68,74006,6,0,P|236:36|176:32,1,104,4|0,0:0|0:0,0:0:0:0:
296,160,74535,2,0,P|360:160|416:140,1,104,2|0,0:0|0:0,0:0:0:0:
220,216,75064,2,0,P|160:184|64:200,1,156,4|0,0:0|0:0,0:0:0:0:
24,272,75770,2,0,L|16:332,1,52
72,160,76123,2,0,L|68:96,1,52,12|0,0:0|0:0,0:0:0:0:
140,272,76476,2,0,L|144:336,1,52,2|2,0:1|0:1,0:0:0:0:
240,192,76829,6,0,P|256:124|256:80,1,104,4|0,0:0|0:0,0:0:0:0:
208,8,77359,1,2,0:1:0:0:
352,88,77535,2,0,P|384:92|416:92,1,52,8|0,0:0|0:0,0:0:0:0:
240,192,77888,2,0,P|216:196|168:192,1,52,2|0,0:1|0:0,0:0:0:0:
336,180,78241,1,2,0:0:0:0:
336,180,78417,1,2,0:1:0:0:
408,244,78594,2,0,P|410:299|396:364,1,104,0|8,0:0|0:0,0:0:0:0:
216,288,79300,1,2,0:0:0:0:
136,340,79476,1,2,0:0:0:0:
120,336,79564,1,0,0:0:0:0:
104,332,79653,5,8,0:0:0:0:
168,208,79829,1,8,0:0:0:0:
308,308,80006,1,8,0:0:0:0:
240,144,80182,2,0,P|232:76|240:28,1,104,4|0,0:0|0:0,0:0:0:0:
348,128,80711,2,0,P|348:156|340:188,1,52,2|0,0:0|0:0,0:0:0:0:
216,288,81064,6,0,P|152:280|168:208,1,155.999995239258,4|4,0:0|0:3,0:0:0:0:
192,196,82476,6,0,B|260:180|316:208|316:208|368:164,1,195,4|0,0:0|0:0,0:0:0:0:
284,96,83182,2,0,P|216:92|144:108,1,130,8|2,0:0|0:0,0:0:0:0:
64,312,83888,2,0,L|140:304,1,65,2|0,0:0|0:0,0:0:0:0:
208,232,84241,1,0,0:0:0:0:
48,32,84594,2,0,P|24:108|40:164,1,130,8|2,0:0|0:0,0:0:0:0:
108,224,85123,1,2,0:0:0:0:
168,140,85300,6,0,L|180:64,1,65,2|0,0:0|0:0,0:0:0:0:
208,232,85653,2,0,L|216:300,1,65
392,172,86006,2,0,P|324:144|260:160,2,130,10|0|2,0:0|0:0|0:0,0:0:0:0:
420,268,86888,1,0,0:0:0:0:
284,328,87064,1,0,0:0:0:0:
324,240,87241,1,0,0:0:0:0:
456,360,87417,1,10,0:0:0:0:
208,232,87770,1,0,0:0:0:0:
440,80,88123,5,4,0:0:0:0:
336,20,88300,1,0,0:0:0:0:
356,172,88476,2,0,P|420:200|488:196,1,130,2|8,0:0|0:0,0:0:0:0:
143,239,89182,2,0,L|208:232,1,65
312,288,89535,2,0,L|296:356,1,65,2|0,0:0|0:0,0:0:0:0:
304,172,89888,2,0,L|384:164,1,65
216,120,90241,2,0,P|144:144|60:136,1,130,10|2,0:0|0:0,0:0:0:0:
268,24,90947,5,2,0:0:0:0:
304,172,91123,1,0,0:0:0:0:
424,92,91300,2,0,L|352:84,1,65
216,120,91653,2,0,P|208:192|236:248,1,130,10|0,0:0|0:0,0:0:0:0:
328,272,92182,1,0,0:0:0:0:
132,252,92359,2,0,P|108:252|60:260,1,65,2|0,0:0|0:0,0:0:0:0:
304,172,92711,2,0,P|334:177|376:176,1,65
216,120,93064,1,10,0:0:0:0:
280,356,93417,1,0,0:0:0:0:
312,64,93770,6,0,P|236:16|136:44,1,195,4|0,0:0|0:0,0:0:0:0:
104,140,94476,2,0,B|108:184|108:184|96:224|96:224|100:272,1,130,8|2,0:0|0:0,0:0:0:0:
344,152,95182,2,0,L|268:148,1,65,2|0,0:0|0:0,0:0:0:0:
200,244,95535,2,0,L|276:248,1,65
376,256,95888,1,8,0:0:0:0:
188,88,96241,1,2,0:0:0:0:
272,16,96417,1,2,0:0:0:0:
96,24,96594,6,0,P|80:80|100:152,1,130,2|0,0:0|0:0,0:0:0:0:
188,88,97123,1,0,0:0:0:0:
188,88,97300,2,0,P|200:128|220:152,1,65,10|0,0:0|0:0,0:0:0:0:
412,72,97653,2,0,P|348:56|284:80,2,130,0|2|0,0:0|0:0|0:0,0:0:0:0:
428,232,98535,1,0,0:0:0:0:
352,160,98711,1,10,0:0:0:0:
296,348,99064,1,0,0:0:0:0:
224,124,99417,5,4,0:0:0:0:
260,236,99594,1,0,0:0:0:0:
352,160,99770,2,0,P|352:80|312:24,1,130,2|8,0:0|0:0,0:0:0:0:
140,208,100476,2,0,L|60:212,1,65
176,316,100829,1,2,0:0:0:0:
260,236,101006,1,0,0:0:0:0:
224,124,101182,2,0,P|220:88|224:56,1,65
344,152,101535,1,10,0:0:0:0:
104,92,101888,2,0,L|16:84,1,65,2|0,0:0|0:0,0:0:0:0:
144,192,102241,6,0,P|200:220|280:208,1,130,2|0,0:0|0:0,0:0:0:0:
344,152,102770,1,0,0:0:0:0:
408,232,102947,2,0,L|400:304,1,65,10|0,0:0|0:0,0:0:0:0:
507,256,103300,2,0,L|504:192,1,65
344,152,103653,2,0,P|287:176|200:172,1,130,2|0,0:0|0:0,0:0:0:0:
124,128,104182,1,0,0:0:0:0:
264,68,104359,1,10,0:0:0:0:
228,276,104535,1,0,0:0:0:0:
228,276,104623,1,0,0:0:0:0:
228,276,104711,1,8,0:3:0:0:
248,288,105064,6,0,L|256:372,1,77.999997619629,4|0,0:0|0:0,0:0:0:0:
340,212,105416,2,0,L|348:132,1,77.999997619629,10|0,0:1|0:0,0:0:0:0:
264,68,105769,1,0,0:0:0:0:
92,208,105946,2,0,L|84:296,1,77.999997619629,2|8,0:1|0:0,0:0:0:0:
160,364,106299,1,0,0:0:0:0:
424,312,106475,6,0,L|336:308,1,77.999997619629,2|0,0:1|0:0,0:0:0:0:
260,236,106828,1,8,0:0:0:0:
84,284,107005,2,0,L|164:280,1,77.999997619629,2|0,0:1|0:0,0:0:0:0:
264,232,107358,1,0,0:0:0:0:
168,176,107534,1,10,0:1:0:0:
288,332,107711,1,2,0:1:0:0:
368,160,107887,6,0,P|376:104|376:72,1,77.999997619629
72,124,108240,2,0,P|60:176|64:216,1,77.999997619629,10|0,0:1|0:0,0:0:0:0:
144,276,108593,1,0,0:0:0:0:
284,96,108769,2,0,P|284:48|272:0,1,77.999997619629,2|8,0:1|0:0,0:0:0:0:
176,68,109122,1,0,0:0:0:0:
284,280,109299,6,0,P|332:288|368:284,1,77.999997619629,2|0,0:1|0:0,0:0:0:0:
452,224,109652,1,8,0:0:0:0:
188,240,109828,2,0,P|132:236|96:224,1,77.999997619629,2|0,0:1|0:0,0:0:0:0:
56,136,110181,1,0,0:0:0:0:
52,316,110358,1,10,0:1:0:0:
164,136,110534,1,2,0:1:0:0:
364,228,110711,6,0,L|372:312,1,77.999997619629,4|0,0:0|0:0,0:0:0:0:
272,100,111064,2,0,L|276:16,1,77.999997619629,10|0,0:1|0:0,0:0:0:0:
372,128,111416,1,0,0:0:0:0:
164,136,111593,2,0,L|76:132,1,77.999997619629,2|8,0:1|0:0,0:0:0:0:
248,204,111946,1,0,0:0:0:0:
352,24,112122,6,0,L|440:20,1,77.999997619629,2|0,0:1|0:0,0:0:0:0:
508,128,112475,1,8,0:0:0:0:
408,276,112652,2,0,L|324:268,1,77.999997619629,2|0,0:1|0:0,0:0:0:0:
144,332,113005,1,0,0:0:0:0:
248,204,113181,1,10,0:1:0:0:
272,356,113358,1,2,0:1:0:0:
148,160,113534,6,0,B|144:120|144:120|152:76,1,77.999997619629
344,156,113887,2,0,B|352:196|352:196|348:240,1,77.999997619629,10|0,0:1|0:0,0:0:0:0:
296,324,114240,1,0,0:0:0:0:
140,160,114416,2,0,B|136:120|136:120|144:76,1,77.999997619629,2|8,0:1|0:0,0:0:0:0:
228,12,114769,1,0,0:0:0:0:
352,156,114946,6,0,B|360:196|360:196|356:240,1,77.999997619629,2|0,0:1|0:0,0:0:0:0:
304,324,115299,1,8,0:0:0:0:
248,204,115475,1,2,0:1:0:0:
116,248,115652,1,2,0:1:0:0:
232,108,115828,1,0,0:0:0:0:
232,108,115916,1,0,0:0:0:0:
232,108,116005,1,12,0:0:0:0:
204,320,116181,1,2,0:1:0:0:
376,224,116358,6,0,L|460:220,1,77.999997619629,4|0,0:0|0:0,0:0:0:0:
232,108,116711,2,0,L|140:104,1,77.999997619629,10|0,0:1|0:0,0:0:0:0:
336,128,117064,1,0,0:0:0:0:
436,88,117240,2,0,L|452:-16,1,77.999997619629,2|8,0:1|0:0,0:0:0:0:
232,108,117593,1,0,0:0:0:0:
156,188,117769,6,0,P|153:225|164:276,1,77.999997619629,2|0,0:1|0:0,0:0:0:0:
388,332,118122,1,8,0:0:0:0:
340,236,118299,2,0,P|302:223|252:220,1,77.999997619629,2|0,0:1|0:0,0:0:0:0:
124,328,118652,1,0,0:0:0:0:
280,324,118828,1,10,0:1:0:0:
156,188,119005,1,2,0:1:0:0:
308,112,119181,6,0,B|332:104|332:104|392:108,1,77.999997619629
160,52,119534,2,0,B|136:44|136:44|72:52,1,77.999997619629,10|0,0:1|0:0,0:0:0:0:
16,188,119887,1,0,0:0:0:0:
120,264,120063,2,0,B|140:272|140:272|204:260,1,77.999997619629,2|8,0:1|0:0,0:0:0:0:
308,112,120416,1,0,0:0:0:0:
396,200,120593,6,0,B|404:216|404:216|396:284,1,77.999997619629,2|0,0:1|0:0,0:0:0:0:
204,160,120946,1,8,0:0:0:0:
120,264,121122,2,0,B|112:280|112:280|120:348,1,77.999997619629,2|0,0:1|0:0,0:0:0:0:
212,296,121475,1,0,0:0:0:0:
104,168,121652,1,10,0:1:0:0:
308,112,121828,1,2,0:1:0:0:
324,312,122005,6,0,P|308:260|304:224,1,77.999997619629,4|0,0:0|0:0,0:0:0:0:
444,52,122358,2,0,P|452:100|448:144,1,77.999997619629,10|0,0:1|0:0,0:0:0:0:
408,352,122711,1,0,0:0:0:0:
300,288,122887,2,0,P|284:236|280:200,1,77.999997619629,2|8,0:1|0:0,0:0:0:0:
356,8,123240,1,0,0:0:0:0:
464,80,123416,6,0,P|472:128|468:172,1,77.999997619629,2|0,0:1|0:0,0:0:0:0:
388,352,123769,1,8,0:0:0:0:
208,284,123946,2,0,P|276:280|296:284,1,77.999997619629,2|0,0:1|0:0,0:0:0:0:
136,356,124299,1,0,0:0:0:0:
144,196,124475,1,10,0:1:0:0:
300,288,124652,1,2,0:1:0:0:
124,348,124828,6,0,L|36:340,1,77.999997619629
256,196,125181,2,0,L|356:192,1,77.999997619629,10|0,0:1|0:0,0:0:0:0:
132,40,125534,1,0,0:0:0:0:
92,144,125711,2,0,L|180:140,1,77.999997619629,2|8,0:1|0:0,0:0:0:0:
392,72,126063,1,0,0:0:0:0:
432,176,126240,6,0,L|344:172,1,77.999997619629,4|0,0:0|0:0,0:0:0:0:
244,56,126593,1,8,0:0:0:0:
256,196,126769,1,2,0:1:0:0:
248,208,126858,1,0,0:0:0:0:
240,220,126946,1,8,0:0:0:0:
152,120,127122,1,8,0:0:0:0:
192,296,127299,1,8,0:3:0:0:
264,184,127475,1,8,0:3:0:0:
368,328,127652,5,4,0:0:0:0:
368,328,127828,1,0,0:0:0:0:
440,260,128004,2,0,L|448:192,1,65,2|0,0:1|0:0,0:0:0:0:
356,128,128357,2,0,L|352:56,1,65,10|2,0:0|0:1,0:0:0:0:
264,184,128710,1,0,0:0:0:0:
264,184,128887,1,0,0:0:0:0:
108,96,129063,6,0,P|176:76|232:96,1,130,2|0,0:0|0:0,0:0:0:0:
180,232,129593,2,0,P|171:198|172:156,1,65,2|10,0:1|0:0,0:0:0:0:
348,136,129946,2,0,P|355:169|356:204,2,65,0|2|2,0:0|0:1|0:1,0:0:0:0:
208,96,130475,5,2,0:0:0:0:
124,148,130652,1,0,0:0:0:0:
52,80,130828,1,2,0:1:0:0:
208,96,131004,2,0,L|288:88,1,65,2|8,0:0|0:0,0:0:0:0:
380,176,131357,1,2,0:1:0:0:
300,232,131534,2,0,L|224:228,1,65,2|0,0:0|0:0,0:0:0:0:
388,272,131887,6,0,P|448:240|472:172,1,130,2|0,0:0|0:0,0:0:0:0:
380,176,132416,1,2,2:0:0:0:
312,328,132593,2,0,L|248:340,1,65,8|0,0:0|0:0,0:0:0:0:
144,272,132946,2,0,L|56:264,1,65,2|2,0:1|0:1,0:0:0:0:
96,116,133299,5,4,0:0:0:0:
96,116,133475,2,0,L|180:124,1,65,0|2,0:0|0:1,0:0:0:0:
324,56,133828,2,0,L|240:64,1,65,2|8,0:0|0:0,0:0:0:0:
392,140,134181,1,2,0:1:0:0:
436,44,134357,1,2,0:0:0:0:
436,44,134534,1,0,0:0:0:0:
484,192,134710,6,0,P|482:245|456:324,1,130,2|0,0:0|0:0,0:0:0:0:
368,360,135240,1,2,2:0:0:0:
272,228,135416,2,0,P|302:226|344:236,1,65,8|0,0:0|0:0,0:0:0:0:
296,328,135769,1,2,0:1:0:0:
196,296,135946,1,2,0:1:0:0:
212,148,136122,5,4,0:0:0:0:
336,233,136299,2,0,P|304:232|272:228,1,65,0|2,0:0|0:1,0:0:0:0:
312,132,136652,1,2,0:0:0:0:
472,168,136828,2,0,P|439:171|407:167,1,65,8|2,0:0|0:1,0:0:0:0:
328,28,137181,1,2,0:0:0:0:
440,76,137357,1,0,0:0:0:0:
312,132,137534,6,0,B|296:172|296:172|296:216|332:248,1,130,2|0,0:0|0:0,0:0:0:0:
444,284,138063,1,2,0:1:0:0:
444,284,138152,1,0,0:0:0:0:
444,284,138240,1,12,0:0:0:0:
256,284,138416,1,8,0:3:0:0:
400,176,138593,1,2,0:1:0:0:
352,344,138769,1,2,0:1:0:0:
148,308,138946,6,0,L|52:328,1,84.4999961318971,4|0,0:0|0:0,0:0:0:0:
204,192,139298,2,0,L|116:176,1,84.4999961318971,10|0,0:1|0:0,0:0:0:0:
256,284,139651,1,2,0:0:0:0:
400,176,139828,2,0,L|312:180,1,84.4999961318971,2|8,0:1|0:0,0:0:0:0:
464,88,140181,1,0,0:0:0:0:
488,240,140357,6,0,P|492:284|476:336,1,84.4999961318971,2|0,0:1|0:0,0:0:0:0:
280,360,140710,1,8,0:0:0:0:
388,276,140887,1,2,0:1:0:0:
304,132,141063,2,0,P|296:184|308:228,1,84.4999961318971,2|0,0:0|0:0,0:0:0:0:
492,132,141416,2,0,P|504:80|500:44,1,84.4999961318971,10|2,0:1|0:1,0:0:0:0:
240,52,141769,6,0,B|200:60|200:60|136:48,1,84.4999961318971,4|0,0:0|0:0,0:0:0:0:
352,32,142122,1,10,0:1:0:0:
304,132,142298,1,2,0:0:0:0:
400,188,142475,1,0,0:0:0:0:
304,132,142651,2,0,L|220:152,1,84.4999961318971,2|10,0:1|0:0,0:0:0:0:
404,296,143004,1,0,0:0:0:0:
308,240,143181,6,0,L|224:260,1,84.4999961318971,2|0,0:1|0:0,0:0:0:0:
400,188,143534,2,0,P|412:148|412:104,1,84.4999961318971,8|2,0:0|0:1,0:0:0:0:
220,60,143887,1,0,0:0:0:0:
304,132,144063,1,2,0:1:0:0:
140,136,144240,2,0,B|117:129|117:129|88:144|36:140,1,84.4999961318971,12|0,0:0|0:0,0:0:0:0:
200,244,144593,6,0,P|272:220|352:268,1,168.999992263794,4|8,0:0|0:0,0:0:0:0:
136,372,145122,2,0,B|132:316|132:316|100:268|100:268|96:212,1,168.999992263794,2|0,0:0|0:0,0:0:0:0:
168,56,145651,2,0,L|176:152,1,84.4999961318971,10|0,0:0|0:0,0:0:0:0:
316,328,146004,6,0,P|344:260|320:156,1,168.999992263794,4|8,0:0|0:0,0:0:0:0:
200,244,146534,2,0,B|160:256|120:244|120:244|76:232|32:244,1,168.999992263794,2|0,0:0|0:0,0:0:0:0:
224,136,147063,2,0,P|244:96|252:44,1,84.4999961318971,12|0,0:0|0:0,0:0:0:0:
248,48,147328,1,0,0:0:0:0:
244,40,147416,5,12,0:0:0:0:
332,120,147593,1,0,0:0:0:0:
432,64,147769,1,0,0:0:0:0:
248,48,147946,5,12,0:0:0:0:
332,140,148122,1,0,0:0:0:0:
456,84,148298,1,0,0:0:0:0:
252,56,148475,2,0,L|164:64,1,84.4999961318971,12|0,0:0|0:0,0:0:0:0:
332,164,148828,5,10,0:0:0:0:
172,288,149004,1,8,0:3:0:0:
224,136,149181,1,8,0:3:0:0:
404,248,149357,1,8,0:3:0:0:
260,348,149534,5,10,0:0:0:0:
260,348,149710,1,8,0:3:0:0:
320,152,149887,1,8,0:3:0:0:
320,152,150063,1,4,0:3:0:0:
452,328,150240,6,0,P|388:336|340:320,1,104,4|0,0:0|0:0,0:0:0:0:
320,152,150769,1,2,0:0:0:0:
404,248,150945,1,8,0:0:0:0:
392,60,151298,2,0,B|376:32|376:32|344:12|304:20,1,104,4|8,0:0|0:3,0:0:0:0:
224,76,151828,5,0,0:0:0:0:
320,152,152004,1,8,0:3:0:0:
196,228,152181,1,8,0:3:0:0:
336,304,152357,1,12,0:0:0:0:
336,304,152710,1,2,0:0:0:0:
396,216,152887,1,2,0:0:0:0:
240,264,153063,6,0,P|168:264|132:248,1,104,4|0,0:0|0:0,0:0:0:0:
204,168,153592,1,2,0:1:0:0:
336,304,153769,1,8,0:0:0:0:
268,84,154122,2,0,P|192:64|156:72,1,104,4|8,0:0|0:3,0:0:0:0:
204,168,154651,5,0,0:0:0:0:
368,116,154828,1,8,0:3:0:0:
268,244,155004,1,8,0:3:0:0:
344,312,155181,1,2,0:1:0:0:
368,212,155357,1,0,0:0:0:0:
204,168,155534,1,2,0:1:0:0:
268,84,155710,1,2,0:1:0:0:
268,244,155887,6,0,B|220:260|220:260|148:252,1,104,4|0,0:0|0:0,0:0:0:0:
344,312,156416,2,0,L|416:320,2,52,0|10|2,0:0|0:1|0:1,0:0:0:0:
312,160,156945,2,0,L|372:168,1,52,2|0,0:0|0:0,0:0:0:0:
268,84,157298,6,0,P|200:92|156:84,1,104,4|0,0:0|0:0,0:0:0:0:
48,28,157828,1,0,0:0:0:0:
48,28,158004,2,0,L|52:96,1,52,10|0,0:0|0:0,0:0:0:0:
92,212,158357,2,0,L|80:276,1,52,2|0,0:1|0:0,0:0:0:0:
224,176,158710,6,0,L|228:296,1,104,4|0,0:0|0:0,0:0:0:0:
316,144,159240,1,2,0:1:0:0:
184,88,159416,2,0,P|160:84|128:84,1,52,8|0,0:0|0:0,0:0:0:0:
256,24,159769,1,0,0:0:0:0:
268,32,159857,1,0,0:0:0:0:
280,40,159945,1,0,0:0:0:0:
292,48,160034,1,0,0:0:0:0:
304,56,160122,6,0,L|360:56,1,52,10|8,0:0|0:0,0:0:0:0:
316,144,160475,1,0,0:0:0:0:
311,168,160563,1,0,0:0:0:0:
313,192,160651,1,8,0:3:0:0:
320,215,160740,1,8,0:3:0:0:
330,233,160828,5,2,0:0:0:0:
500,232,161004,1,8,0:3:0:0:
408,76,161181,1,8,0:3:0:0:
412,176,161357,1,8,0:3:0:0:
420,276,161534,6,0,B|421:299|421:299|496:240,1,104,4|0,0:0|0:0,0:0:0:0:
412,176,162063,1,2,0:0:0:0:
316,324,162240,1,8,0:0:0:0:
504,132,162592,2,0,P|464:92|420:76,1,104,4|8,0:0|0:3,0:0:0:0:
316,72,163122,5,0,0:0:0:0:
312,168,163298,1,8,0:3:0:0:
412,176,163475,1,8,0:3:0:0:
316,72,163651,1,0,0:0:0:0:
208,164,163828,1,8,0:3:0:0:
308,264,164004,1,2,0:0:0:0:
412,176,164181,1,8,0:3:0:0:
208,164,164357,6,0,L|96:172,1,104,4|0,0:0|0:0,0:0:0:0:
28,100,164887,1,2,0:0:0:0:
104,272,165063,2,0,L|96:336,1,52,8|2,0:0|0:1,0:0:0:0:
260,248,165416,2,0,P|296:208|308:156,1,104,4|8,0:0|0:0,0:0:0:0:
260,68,165945,5,8,0:3:0:0:
392,92,166122,1,8,0:3:0:0:
260,68,166298,1,0,0:0:0:0:
408,188,166475,1,2,0:1:0:0:
260,248,166651,1,0,0:0:0:0:
308,160,166828,1,2,0:1:0:0:
320,332,167004,1,2,0:1:0:0:
164,208,167181,6,0,B|132:220|132:220|104:208|56:212,1,104,4|0,0:0|0:0,0:0:0:0:
88,304,167710,1,2,0:0:0:0:
136,116,167887,2,0,L|132:52,1,52,8|0,0:0|0:0,0:0:0:0:
24,180,168240,2,0,L|16:244,1,52,4|0,0:0|0:0,0:0:0:0:
88,304,168592,5,8,0:3:0:0:
164,208,168769,1,0,0:0:0:0:
284,232,168945,1,8,0:3:0:0:
136,116,169122,1,8,0:3:0:0:
232,320,169298,2,0,P|284:332|344:312,1,104,12|2,0:0|0:1,0:0:0:0:
388,236,169828,1,2,0:1:0:0:
240,144,170004,6,0,P|251:195|285:234,1,104,4|0,0:0|0:0,0:0:0:0:
340,152,170534,1,2,0:1:0:0:
184,60,170710,2,0,L|116:68,1,52,8|0,0:0|0:0,0:0:0:0:
340,52,171063,2,0,L|408:44,1,52,2|0,0:1|0:0,0:0:0:0:
240,144,171416,6,0,L|220:200,1,52,4|0,0:0|0:0,0:0:0:0:
308,332,171769,2,0,L|325:283,1,52,2|2,0:1|0:1,0:0:0:0:
188,324,172122,2,0,B|148:328|148:328|120:344|120:344|84:348,1,104,12|2,0:0|0:1,0:0:0:0:
92,248,172651,1,2,0:1:0:0:
256,248,172828,6,0,P|320:236|388:200,1,104,4|0,0:0|0:0,0:0:0:0:
216,160,173357,2,0,B|180:160|152:140|152:140|148:104,1,104,4|0,0:0|0:0,0:0:0:0:
344,136,173887,2,0,P|376:137|404:132,1,52,4|0,0:0|0:0,0:0:0:0:
256,24,174240,6,0,B|243:56|243:56|261:85|261:85|240:128|256:172,1,155.999995239258,4|0,2:0|0:0,0:0:0:0:
268,188,175651,6,0,B|288:256|240:320|240:320|272:308|308:308,1,195,4|0,0:0|0:0,0:0:0:0:
148,232,176356,2,0,P|116:224|12:240,1,130,8|2,0:0|0:0,0:0:0:0:
232,96,177062,2,0,L|320:92,1,65,2|0,0:0|0:0,0:0:0:0:
392,192,177415,2,0,P|312:204|268:188,1,130,0|8,0:0|0:0,0:0:0:0:
460,100,178121,1,2,0:0:0:0:
504,208,178298,1,2,0:0:0:0:
344,88,178474,6,0,L|332:16,1,65,2|0,0:0|0:0,0:0:0:0:
268,188,178827,2,0,L|260:268,1,65
392,316,179180,2,0,P|408:240|392:192,1,130,10|0,0:0|0:0,0:0:0:0:
344,88,179709,1,0,0:0:0:0:
268,171,179886,2,0,P|327:195|392:192,1,130,2|0,0:0|0:0,0:0:0:0:
220,260,180415,2,0,L|148:268,1,65,0|10,0:0|0:0,0:0:0:0:
392,316,180945,1,0,0:0:0:0:
244,64,181298,5,4,0:0:0:0:
268,172,181474,1,0,0:0:0:0:
380,200,181651,2,0,B|432:196|468:160|468:160|472:120,1,130,2|8,0:0|0:0,0:0:0:0:
156,136,182356,2,0,L|88:144,1,65
244,64,182709,2,0,L|312:52,1,65,2|0,0:0|0:0,0:0:0:0:
136,24,183062,2,0,L|68:16,1,65
8,104,183415,1,10,0:0:0:0:
272,216,183768,1,2,0:0:0:0:
8,336,184121,5,2,0:0:0:0:
112,368,184298,1,0,0:0:0:0:
144,268,184474,1,0,0:0:0:0:
40,236,184651,1,0,0:0:0:0:
112,368,184827,2,0,P|172:364|232:320,1,130,10|0,0:0|0:0,0:0:0:0:
244,216,185356,1,0,0:0:0:0:
336,340,185533,2,0,P|380:348|408:344,1,65,2|0,0:0|0:0,0:0:0:0:
496,152,185886,2,0,P|462:146|424:152,1,65
376,240,186239,1,10,0:0:0:0:
368,252,186592,1,0,0:0:0:0:
360,264,186945,6,0,B|340:284|340:284|296:256|240:268,1,130,4|0,0:0|0:0,0:0:0:0:
160,328,187474,1,0,0:0:0:0:
176,192,187651,2,0,L|188:60,1,130,8|2,0:0|0:0,0:0:0:0:
80,240,188356,2,0,L|8:232,1,65,2|0,0:0|0:0,0:0:0:0:
160,328,188709,2,0,L|92:336,1,65
232,248,189062,2,0,P|288:248|352:292,1,130,8|2,0:0|0:0,0:0:0:0:
264,348,189592,1,2,0:0:0:0:
324,172,189768,6,0,P|326:143|320:100,1,65,2|0,0:0|0:0,0:0:0:0:
416,220,190121,2,0,P|440:240|472:252,1,65
412,116,190474,2,0,L|280:104,1,130,10|0,0:0|0:0,0:0:0:0:
204,172,191003,1,0,0:0:0:0:
48,80,191180,1,2,0:0:0:0:
48,80,191356,2,0,L|196:72,1,130
324,172,191886,1,10,0:0:0:0:
32,308,192239,1,0,0:0:0:0:
132,48,192592,5,4,0:0:0:0:
204,172,192768,1,0,0:0:0:0:
296,64,192945,2,0,P|334:62|376:68,1,65,2|0,0:0|0:0,0:0:0:0:
440,184,193298,2,0,B|396:208|344:196|344:196|324:172,1,130,8|0,0:0|0:0,0:0:0:0:
296,64,193827,1,0,0:0:0:0:
228,180,194003,1,2,0:0:0:0:
388,104,194180,1,0,0:0:0:0:
376,252,194356,2,0,L|384:320,1,65
216,288,194709,2,0,B|172:284|172:284|128:296|128:296|84:292,1,130,10|2,0:0|0:0,0:0:0:0:
156,60,195415,6,0,P|224:40|292:60,1,130,2|0,0:0|0:0,0:0:0:0:
356,144,195945,1,0,0:0:0:0:
356,144,196033,1,0,0:0:0:0:
356,144,196121,2,0,P|352:164|352:212,1,65,10|0,0:0|0:0,0:0:0:0:
456,76,196474,2,0,P|448:32|436:8,1,65
460,188,196827,2,0,B|460:232|484:284|484:284|448:280,1,130,2|0,0:0|0:0,0:0:0:0:
356,272,197356,1,0,0:0:0:0:
276,368,197533,5,10,0:0:0:0:
288,200,197709,1,8,0:0:0:0:
108,300,197886,1,8,0:3:0:0:
192,192,198062,1,4,0:3:0:0:
40,108,198239,6,0,P|21:176|28:244,1,130,4|0,0:0|0:0,0:0:0:0:
108,300,198768,1,2,0:0:0:0:
192,192,198945,2,0,P|192:140|184:108,1,65,8|0,0:0|0:0,0:0:0:0:
232,292,199298,2,0,P|272:264|296:180,2,130,2|0|0,0:0|0:0|0:0,0:0:0:0:
192,192,200180,1,0,0:0:0:0:
316,84,200356,2,0,P|372:112|400:180,1,130,8|2,0:0|0:0,0:0:0:0:
84,196,201062,6,0,P|88:160|148:92,1,130,2|0,0:0|0:0,0:0:0:0:
256,180,201592,2,0,P|188:192|180:192,1,65,2|8,0:0|0:0,0:0:0:0:
344,240,201945,1,0,0:0:0:0:
344,240,202121,2,0,B|400:220|452:232|452:232|468:200,1,130,2|0,0:0|0:0,0:0:0:0:
440,84,202650,1,0,0:0:0:0:
344,128,202827,2,0,L|192:120,2,130,0|10|0,0:0|0:0|0:0,0:0:0:0:
116,164,203886,6,0,P|108:108|156:36,1,130,4|0,0:0|0:0,0:0:0:0:
200,220,204415,1,2,0:0:0:0:
112,264,204592,2,0,P|64:272|40:272,1,65,8|0,0:0|0:0,0:0:0:0:
200,220,204945,2,0,B|260:240|260:240|340:240,1,130,2|0,0:0|0:0,0:0:0:0:
504,68,205650,2,0,L|436:68,1,65
388,156,206003,1,10,0:0:0:0:
388,156,206356,1,2,0:0:0:0:
144,80,206709,6,0,P|196:64|284:80,1,130,2|0,0:0|0:0,0:0:0:0:
140,180,207239,1,2,0:0:0:0:
140,180,207415,2,0,P|196:216|232:280,1,130,12|2,0:0|0:0,0:0:0:0:
420,152,208121,1,8,0:3:0:0:
320,204,208298,1,0,0:0:0:0:
448,336,208474,1,8,0:3:0:0:
504,240,208650,1,8,0:3:0:0:
332,316,208827,2,0,B|300:320|268:312|268:312|236:304|204:312,1,130,12|0,0:0|0:0,0:0:0:0:
408,248,209533,5,4,0:0:0:0:
244,84,209886,2,0,L|236:152,1,65,0|2,0:0|0:0,0:0:0:0:
320,204,210239,2,0,B|352:176|352:176|364:84,1,130,8|2,0:0|0:0,0:0:0:0:
148,208,210945,2,0,B|128:240|128:240|140:344,1,130,2|0,0:0|0:0,0:0:0:0:
368,180,211650,2,0,B|400:152|400:152|412:60,1,130,8|2,0:0|0:0,0:0:0:0:
132,112,212356,5,2,0:0:0:0:
300,260,212709,2,0,L|368:264,1,65,0|2,0:0|0:0,0:0:0:0:
220,320,213062,2,0,P|152:288|80:284,1,130,8|2,0:0|0:0,0:0:0:0:
292,160,213768,2,0,P|344:160|428:128,1,130
140,336,214474,2,0,P|72:304|0:300,1,130,12|2,0:0|0:0,0:0:0:0:
372,240,215180,6,0,P|400:200|404:112,1,130,4|0,0:0|0:0,0:0:0:0:
228,168,215709,1,0,0:0:0:0:
228,168,215886,2,0,L|292:160,1,65,8|0,0:0|0:0,0:0:0:0:
140,104,216239,2,0,L|68:96,1,65
240,64,216592,1,4,0:0:0:0:
272,319,216945,1,0,0:0:0:0:
384,176,217298,1,12,0:0:0:0:
128,208,217650,1,0,0:0:0:0:
232,224,217827,1,0,0:0:0:0:
244,208,217915,1,0,0:0:0:0:
256,192,218003,5,12,0:0:0:0:
112,248,218180,1,8,0:0:0:0:
192,112,218356,1,8,0:0:0:0:
328,196,218533,1,8,0:0:0:0:
328,196,218886,1,8,0:3:0:0:
396,92,219062,1,8,0:3:0:0:
392,272,219239,1,8,0:3:0:0:
212,223,219415,6,0,B|173:200|160:161|181:117|229:113|256:139|256:139|289:108|348:122|360:183|335:225|278:217|256:278,1,416,4|2,0:0|0:0,0:0:0:0:
192,216,232121,6,0,B|160:212|128:228|128:228|96:244|60:236,2,136.499995834351,2|0|2,0:0|0:0|0:0,0:0:0:0:
376,300,233886,1,0,0:0:0:0:
312,212,234239,1,0,0:0:0:0:
408,160,234592,1,0,0:0:0:0:
332,80,234945,6,0,P|280:64|196:92,2,136.499995834351,2|0|2,0:0|0:0|0:0,0:0:0:0:
168,320,236709,1,0,0:0:0:0:
152,212,237062,1,0,0:0:0:0:
252,256,237415,1,0,0:0:0:0:
68,280,237768,6,0,P|44:232|60:152,2,136.499995834351,2|0|2,0:0|0:0|0:0,0:0:0:0:
328,308,239533,1,0,0:0:0:0:
368,204,239886,1,0,0:0:0:0:
332,100,240239,1,0,0:0:0:0:
228,68,240592,6,0,P|164:68|80:104,1,136.499995834351,2|0,0:0|0:0,0:0:0:0:
332,100,241650,1,0,0:0:0:0:
248,176,242003,2,0,P|228:244|244:336,1,159.249995140076,2|2,0:0|0:1,0:0:0:0:
260,344,242709,6,2,B|268:352|268:352|280:296|268:236,1,113.75,2|0,2:1|0:0,0:1:0:0:
248,176,243415,6,0,B|160:204|100:156|100:156|80:216,1,214.500006546021,4|0,0:0|0:0,0:0:0:0:
188,72,244121,2,0,P|116:32|44:40,1,143.000004364014,8|2,0:0|0:0,0:0:0:0:
216,272,244827,2,0,P|258:273|300:264,1,71.5000021820069,2|0,0:0|0:0,0:0:0:0:
440,232,245180,2,0,P|427:259|416:312,1,71.5000021820069
348,168,245533,2,0,B|380:116|360:64|360:64|328:52,1,143.000004364014,8|2,0:0|0:0,0:0:0:0:
204,32,246062,1,2,0:0:0:0:
120,124,246239,6,0,L|48:120,1,71.5000021820069,2|0,0:0|0:0,0:0:0:0:
208,224,246592,2,0,L|128:228,1,71.5000021820069
258,100,246945,2,0,P|326:120|396:108,1,143.000004364014,10|0,0:0|0:0,0:0:0:0:
496,32,247474,1,0,0:0:0:0:
496,32,247650,2,0,L|488:192,1,143.000004364014,2|0,0:0|0:0,0:0:0:0:
360,240,248180,1,0,0:0:0:0:
396,108,248356,1,10,0:0:0:0:
464,332,248709,1,0,0:0:0:0:
260,148,249062,5,6,0:0:0:0:
396,108,249239,1,0,0:0:0:0:
212,52,249415,2,0,P|124:40|56:52,1,143.000004364014,2|8,0:0|0:0,0:0:0:0:
228,248,250121,2,0,P|268:252|316:240,1,71.5000021820069
396,108,250474,1,2,0:0:0:0:
260,148,250650,1,0,0:0:0:0:
328,44,250827,1,0,0:0:0:0:
376,196,251003,1,0,0:0:0:0:
472,48,251180,1,10,0:0:0:0:
212,52,251533,1,2,0:0:0:0:
308,280,251886,5,2,0:0:0:0:
376,196,252062,2,0,P|388:112|372:32,1,143.000004364014
476,232,252592,2,0,L|488:304,1,71.5000021820069,10|0,0:0|0:0,0:0:0:0:
392,356,252945,1,0,0:0:0:0:
308,280,253121,1,0,0:0:0:0:
204,336,253298,2,0,B|148:352|96:332|96:332|128:320,1,143.000004364014,2|0,0:0|0:0,0:0:0:0:
308,280,253827,1,0,0:0:0:0:
144,216,254003,1,10,0:0:0:0:
440,120,254356,1,0,0:0:0:0:
100,64,254709,6,0,L|264:52,1,143.000004364014,4|0,0:0|0:0,0:0:0:0:
360,184,255239,1,0,0:0:0:0:
360,184,255415,2,0,L|212:172,1,143.000004364014,8|2,0:0|0:0,0:0:0:0:
28,352,256121,2,0,P|40:320|44:280,1,71.5000021820069,2|0,0:0|0:0,0:0:0:0:
76,116,256474,2,0,P|82:157|100:196,1,71.5000021820069
280,288,256827,2,0,P|220:260|140:272,1,143.000004364014,8|2,0:0|0:0,0:0:0:0:
200,368,257356,1,2,0:0:0:0:
380,332,257533,6,0,P|388:296|384:252,1,71.5000021820069,2|0,0:0|0:0,0:0:0:0:
332,144,257886,1,0,0:0:0:0:
280,288,258062,1,0,0:0:0:0:
232,100,258239,2,0,P|292:44|360:40,1,143.000004364014,10|0,0:0|0:0,0:0:0:0:
440,112,258768,1,0,0:0:0:0:
292,244,258945,1,2,0:0:0:0:
292,244,259121,2,0,L|144:236,1,143.000004364014
60,160,259650,1,10,0:0:0:0:
344,352,260003,1,0,0:0:0:0:
360,36,260356,5,4,0:0:0:0:
264,124,260533,1,0,0:0:0:0:
172,32,260709,2,0,P|113:25|28:44,1,143.000004364014,2|8,0:0|0:0,0:0:0:0:
344,224,261415,2,0,L|428:224,1,71.5000021820069
264,124,261768,1,2,0:0:0:0:
184,216,261945,2,0,B|164:252|164:252|168:308|220:340,1,143.000004364014
336,316,262474,2,0,L|424:304,1,71.5000021820069,10|0,0:0|0:0,0:0:0:0:
456,152,262827,2,0,L|368:140,1,71.5000021820069,2|0,0:0|0:0,0:0:0:0:
188,36,263180,6,0,P|268:12|336:36,1,143.000004364014,2|0,0:0|0:0,0:0:0:0:
264,124,263709,1,0,0:0:0:0:
96,148,263886,2,0,P|52:100|40:16,1,143.000004364014,10|0,0:0|0:0,0:0:0:0:
188,36,264415,1,0,0:0:0:0:
168,240,264592,2,0,B|120:268|64:260|64:260|48:296,1,143.000004364014,2|0,0:0|0:0,0:0:0:0:
260,296,265121,5,0,0:0:0:0:
268,272,265209,1,0,0:0:0:0:
276,248,265298,1,12,0:0:0:0:
408,136,265474,1,0,0:0:0:0:
420,172,265562,1,0,0:0:0:0:
432,208,265650,2,0,L|412:280,1,71.5000021820069,12|0,0:0|0:0,0:0:0:0:
292,164,266003,6,0,P|296:84|416:20,1,214.500006546021,4|0,0:0|0:0,0:0:0:0:
188,80,266709,2,0,B|136:92|136:92|48:68,1,143.000004364014,8|2,0:0|0:0,0:0:0:0:
408,136,267415,1,2,0:0:0:0:
320,212,267592,2,0,P|312:292|344:352,1,143.000004364014
460,352,268121,2,0,P|476:320|484:280,1,71.5000021820069,8|0,0:0|0:0,0:0:0:0:
408,136,268474,1,2,0:0:0:0:
320,212,268650,1,2,0:0:0:0:
376,44,268827,5,2,0:0:0:0:
228,120,269003,2,0,L|152:116,2,71.5000021820069,0|0|0,0:0|0:0|0:0,0:0:0:0:
320,212,269533,2,0,P|388:244|468:232,1,143.000004364014,10|0,0:0|0:0,0:0:0:0:
408,136,270062,1,0,0:0:0:0:
232,284,270239,1,2,0:0:0:0:
152,196,270415,2,0,P|96:176|8:196,1,143.000004364014
80,288,270945,1,10,0:0:0:0:
316,48,271298,1,0,0:0:0:0:
352,356,271650,5,4,0:0:0:0:
288,224,271827,1,0,0:0:0:0:
456,252,272003,2,0,P|424:260|384:264,1,71.5000021820069,2|0,0:0|0:0,0:0:0:0:
228,132,272356,2,0,P|304:120|380:160,1,143.000004364014,8|0,0:0|0:0,0:0:0:0:
128,328,273062,1,2,0:0:0:0:
56,240,273239,2,0,L|64:160,1,71.5000021820069
128,328,273592,1,0,0:0:0:0:
68,124,273768,1,10,0:0:0:0:
280,332,274121,1,2,0:0:0:0:
432,68,274474,5,2,0:0:0:0:
300,132,274650,1,0,0:0:0:0:
328,32,274827,1,0,0:0:0:0:
404,164,275003,1,0,0:0:0:0:
232,212,275180,2,0,P|192:132|212:64,1,143.000004364014,10|0,0:0|0:0,0:0:0:0:
328,32,275709,1,0,0:0:0:0:
368,268,275886,1,2,0:0:0:0:
232,212,276062,2,0,L|148:228,1,71.5000021820069,8|0,0:0|0:0,0:0:0:0:
404,164,276415,5,0,0:0:0:0:
404,164,276503,1,0,0:0:0:0:
404,164,276592,2,0,L|488:176,1,71.5000021820069,12|0,0:0|0:0,0:0:0:0:
228,76,276945,2,0,L|140:92,1,71.5000021820069
316,280,277298,6,0,P|332:204|304:128,1,143.000004364014,4|0,0:0|0:0,0:0:0:0:
200,320,277827,1,0,0:0:0:0:
316,280,278003,2,0,P|360:280|396:288,1,71.5000021820069,8|0,0:0|0:0,0:0:0:0:
188,212,278356,2,0,P|154:220|96:220,1,71.5000021820069,2|0,0:0|0:0,0:0:0:0:
272,120,278709,1,2,0:0:0:0:
16,168,279062,1,0,0:0:0:0:
328,272,279415,1,8,0:0:0:0:
176,44,279768,1,2,0:0:0:0:
272,120,279945,1,2,0:0:0:0:
444,56,280121,6,0,B|460:41|460:41|412:12|344:28,1,143.000004364014,2|0,0:0|0:0,0:0:0:0:
272,120,280650,1,0,0:0:0:0:
272,120,280739,1,0,0:0:0:0:
272,120,280827,2,0,L|256:196,1,71.5000021820069,12|0,0:0|0:0,0:0:0:0:
328,272,281180,2,0,L|336:360,1,71.5000021820069
504,212,281533,6,0,B|452:208|452:208|412:176|412:176|360:172,1,155.999995239258,6|0,0:0|0:0,0:0:0:0:
116,324,282062,2,0,B|180:324|224:288|224:288|232:240,1,155.999995239258,6|0,0:0|0:0,0:0:0:0:
220,20,282592,2,0,P|212:44|216:104,1,77.999997619629,6|0,0:0|0:0,0:0:0:0:
360,172,282945,5,4,0:0:0:0:
316,68,283121,1,0,0:0:0:0:
168,188,283298,2,0,P|208:196|264:188,1,71.5000021820069,2|0,0:0|0:0,0:0:0:0:
88,104,283650,2,0,P|56:168|72:248,1,143.000004364014,8|0,0:0|0:0,0:0:0:0:
446,236,284356,1,2,0:0:0:0:
446,236,284533,2,0,P|455:166|424:104,1,143.000004364014,0|0,0:0|0:0,0:0:0:0:
360,300,285062,2,0,L|372:380,1,71.5000021820069,10|0,0:0|0:0,0:0:0:0:
344,188,285415,1,2,0:0:0:0:
60,308,285768,6,0,P|136:328|208:304,1,143.000004364014,2|0,0:0|0:0,0:0:0:0:
248,200,286298,1,0,0:0:0:0:
12,140,286474,2,0,P|60:192|140:216,1,143.000004364014,10|0,0:0|0:0,0:0:0:0:
248,200,287003,1,0,0:0:0:0:
256,180,287092,1,0,0:0:0:0:
264,160,287180,1,12,0:0:0:0:
60,308,287533,1,8,0:3:0:0:
408,264,287886,1,4,0:3:0:0:
144,40,288239,1,4,0:0:0:0:
244,344,288592,6,0,P|268:280|264:204,1,130,4|0,0:0|0:0,0:0:0:0:
208,128,289121,1,2,0:0:0:0:
380,216,289298,2,0,L|460:224,1,65,8|0,0:0|0:0,0:0:0:0:
448,64,289650,2,0,L|308:76,1,130,2|0,0:0|0:0,0:0:0:0:
208,128,290180,1,0,0:0:0:0:
232,32,290356,1,0,0:0:0:0:
288,188,290533,1,0,0:0:0:0:
112,152,290709,2,0,P|64:116|44:48,1,130,8|2,0:0|0:0,0:0:0:0:
64,320,291415,6,0,B|92:304|92:304|200:324,1,130,4|0,0:0|0:0,0:0:0:0:
300,344,291945,1,2,0:0:0:0:
396,284,292121,2,0,L|408:216,1,65,8|0,0:0|0:0,0:0:0:0:
288,100,292474,2,0,P|276:172|288:228,1,130,2|0,0:0|0:0,0:0:0:0:
396,284,293003,1,0,0:0:0:0:
480,148,293180,2,0,P|488:96|488:76,1,65
308,80,293533,2,0,P|240:96|160:88,1,130,10|0,0:0|0:0,0:0:0:0:
88,328,294239,6,0,P|60:248|64:188,1,130,4|0,0:0|0:0,0:0:0:0:
140,116,294768,1,2,0:0:0:0:
268,248,294945,2,0,L|184:240,1,65,8|0,0:0|0:0,0:0:0:0:
344,164,295298,2,0,B|392:184|440:168|440:168|464:132,1,130,2|0,0:0|0:0,0:0:0:0:
296,12,295827,1,0,0:0:0:0:
472,24,296003,1,0,0:0:0:0:
316,148,296180,1,0,0:0:0:0:
384,72,296356,1,10,0:0:0:0:
416,328,296709,1,2,0:0:0:0:
128,268,297062,6,0,P|200:244|260:256,1,130,4|0,0:0|0:0,0:0:0:0:
204,352,297592,1,2,0:0:0:0:
160,192,297768,2,0,L|152:104,1,65,12|0,0:0|0:0,0:0:0:0:
296,52,298121,2,0,L|280:172,1,97.5,2|8,0:0|0:3,0:0:0:0:
276,184,298474,5,8,0:0:0:0:
152,92,298650,1,8,0:0:0:0:
320,32,298827,1,8,0:3:0:0:
272,216,299003,1,8,0:3:0:0:
148,60,299180,5,2,0:0:0:0:
340,128,299356,1,0,0:0:0:0:
176,192,299533,1,2,0:0:0:0:
296,52,299709,1,8,0:3:0:0:
268,248,299886,6,0,P|216:288|136:296,1,130,4|0,0:0|0:0,0:0:0:0:
360,296,300415,1,2,0:0:0:0:
360,296,300592,2,0,L|500:312,1,130,8|2,0:0|0:0,0:0:0:0:
176,192,301298,2,0,L|32:212,1,130
344,80,302003,2,0,L|484:100,1,130,8|2,0:0|0:0,0:0:0:0:
196,300,302709,6,0,P|172:232|176:160,1,130,4|0,0:0|0:0,0:0:0:0:
256,16,303239,1,2,0:0:0:0:
344,80,303415,2,0,P|368:148|364:220,1,130,8|2,0:0|0:0,0:0:0:0:
76,224,304121,2,0,P|68:144|92:80,1,130
472,176,304827,2,0,P|456:248|420:304,1,130,10|0,0:0|0:0,0:0:0:0:
64,320,305533,6,0,B|120:304|168:324|168:324|184:296,1,130,4|0,0:0|0:0,0:0:0:0:
220,208,306062,1,0,0:0:0:0:
288,332,306239,1,8,0:0:0:0:
68,220,306592,1,0,0:0:0:0:
364,160,306945,2,0,L|436:164,1,65,2|0,0:0|0:0,0:0:0:0:
248,104,307298,2,0,L|168:108,1,65
304,272,307650,2,0,B|320:324|288:372|288:372|256:368,1,130,12|0,0:0|0:0,0:0:0:0:
132,300,308180,1,0,0:0:0:0:
256,192,308356,5,4,0:0:0:0:
256,192,308445,12,4,310474,0:3:0:0:
68,96,311180,6,0,L|60:164,1,65,4|0,0:0|0:0,0:0:0:0:
192,148,311533,2,0,L|204:220,1,65,0|2,0:0|0:0,0:0:0:0:
324,164,311886,2,0,B|388:172|432:140|432:140|416:128,1,130,8|2,0:0|0:0,0:0:0:0:
312,64,312415,1,0,0:0:0:0:
232,224,312592,2,0,L|224:296,1,65,4|0,0:0|0:0,0:0:0:0:
344,340,312945,2,0,L|336:256,1,65,2|0,0:0|0:0,0:0:0:0:
456,116,313298,2,0,P|464:184|432:248,1,130,8|2,0:0|0:0,0:0:0:0:
356,164,313827,1,0,0:0:0:0:
392,32,314003,6,0,P|428:16|472:12,1,65,4|0,0:0|0:0,0:0:0:0:
288,76,314356,2,0,P|251:74|220:64,1,65,0|2,0:0|0:0,0:0:0:0:
356,164,314709,2,0,P|372:232|360:304,1,130,8|2,0:0|0:0,0:0:0:0:
276,360,315239,1,0,0:0:0:0:
128,292,315415,2,0,L|224:284,1,65,4|0,0:0|0:0,0:0:0:0:
192,164,315768,2,0,L|264:184,1,65,2|0,0:0|0:0,0:0:0:0:
316,72,316121,2,0,L|436:152,1,130,8|2,0:0|0:0,0:0:0:0:
92,200,316827,5,4,0:0:0:0:
92,200,317003,1,0,0:0:0:0:
16,120,317180,2,0,P|8:88|4:40,1,65,0|2,0:0|0:0,0:0:0:0:
128,92,317533,2,0,P|188:64|260:64,1,130,8|2,0:0|0:0,0:0:0:0:
356,116,318062,1,0,0:0:0:0:
220,204,318239,2,0,P|152:212|92:200,1,130,4|2,0:0|0:0,0:0:0:0:
16,120,318768,1,0,0:0:0:0:
20,280,318945,2,0,L|12:348,1,65,8|0,0:0|0:0,0:0:0:0:
92,200,319298,2,0,L|100:128,1,65,2|0,0:0|0:0,0:0:0:0:
156,288,319650,6,0,P|220:304|292:280,1,130,4|0,0:0|0:0,0:0:0:0:
340,196,320180,1,2,0:0:0:0:
340,196,320356,2,0,P|408:184|476:204,1,130,8|2,0:0|0:0,0:0:0:0:
400,288,320886,1,0,0:0:0:0:
220,196,321062,2,0,L|204:120,1,65,4|0,0:0|0:0,0:0:0:0:
280,288,321415,1,2,0:0:0:0:
340,196,321592,1,0,0:0:0:0:
308,92,321768,2,0,P|306:57|316:24,1,65,8|0,0:0|0:0,0:0:0:0:
440,168,322121,2,0,P|440:220|436:236,1,65,2|0,0:0|0:0,0:0:0:0:
280,288,322474,6,0,B|248:276|216:288|216:288|184:300|152:288,1,130,4|0,0:0|0:0,0:0:0:0:
88,200,323003,1,2,0:0:0:0:
188,152,323180,2,0,P|197:124|204:84,1,65,8|0,0:0|0:0,0:0:0:0:
76,28,323533,2,0,P|80:70|92:96,1,65,2|0,0:0|0:0,0:0:0:0:
228,248,323886,2,0,P|268:212|288:124,1,130,4|2,0:0|0:0,0:0:0:0:
244,44,324415,1,0,0:0:0:0:
396,112,324592,2,0,L|472:120,1,65,8|0,0:0|0:0,0:0:0:0:
376,232,324945,2,0,L|456:256,1,65,2|0,0:0|0:0,0:0:0:0:
272,160,325298,6,0,B|240:184|240:184|140:176,1,130,4|0,0:0|0:0,0:0:0:0:
244,44,325827,1,2,0:0:0:0:
96,80,326003,2,0,L|16:72,1,65,8|0,0:0|0:0,0:0:0:0:
244,44,326356,2,0,L|316:52,1,65,2|0,0:0|0:0,0:0:0:0:
380,132,326709,1,4,0:0:0:0:
308,208,326886,1,0,0:0:0:0:
472,280,327062,1,2,0:0:0:0:
476,180,327239,1,0,0:0:0:0:
308,208,327415,2,0,L|300:276,2,65,8|0|2,0:0|0:0|0:0,0:0:0:0:
380,132,327945,1,0,0:0:0:0:
204,176,328121,6,0,P|120:168|72:136,1,130,4|0,0:0|0:0,0:0:0:0:
48,40,328650,1,2,0:0:0:0:
236,72,328827,2,0,P|308:64|364:24,1,130,8|2,0:0|0:0,0:0:0:0:
320,176,329356,1,0,0:0:0:0:
320,176,329533,2,0,L|316:252,1,65,4|0,0:0|0:0,0:0:0:0:
428,288,329886,2,0,L|436:360,1,65,2|0,0:0|0:0,0:0:0:0:
476,192,330239,1,8,0:0:0:0:
220,308,330592,1,2,0:0:0:0:
156,220,330768,1,0,0:0:0:0:
220,132,330945,6,0,L|224:52,1,65,4|0,0:0|0:0,0:0:0:0:
80,112,331298,2,0,L|16:104,1,65,0|2,0:0|0:0,0:0:0:0:
156,220,331650,2,0,P|224:240|284:216,1,130,8|2,0:0|0:0,0:0:0:0:
344,120,332180,1,0,0:0:0:0:
344,120,332268,1,0,0:0:0:0:
344,120,332356,5,8,0:0:0:0:
220,132,332533,1,8,0:0:0:0:
312,28,332709,1,8,0:0:0:0:
444,112,332886,1,8,0:0:0:0:
320,244,333062,5,8,0:0:0:0:
344,120,333239,1,8,0:0:0:0:
424,264,333415,1,8,0:0:0:0:
228,292,333592,1,8,0:0:0:0:
228,104,333768,6,0,P|240:140|244:180,1,65,4|0,0:0|0:0,0:0:0:0:
127,324,334121,2,0,P|123:292|128:260,1,65,0|2,0:0|0:0,0:0:0:0:
344,248,334474,2,0,P|288:288|228:292,1,130,8|2,0:0|0:0,0:0:0:0:
128,260,335003,1,0,0:0:0:0:
76,168,335180,2,0,P|100:160|144:156,1,65,4|0,0:0|0:0,0:0:0:0:
308,156,335533,2,0,P|272:164|244:164,1,65,2|0,0:0|0:0,0:0:0:0:
64,56,335886,2,0,P|132:44|204:56,1,130,8|2,0:0|0:0,0:0:0:0:
308,156,336415,1,0,0:0:0:0:
456,92,336592,6,0,L|384:88,1,65,4|0,0:0|0:0,0:0:0:0:
376,236,336945,1,0,0:0:0:0:
468,200,337121,1,2,0:0:0:0:
308,156,337298,2,0,P|288:88|308:24,1,130,8|2,0:0|0:0,0:0:0:0:
232,224,337827,1,0,0:0:0:0:
128,204,338003,2,0,P|88:140|84:76,1,130,4|2,0:0|0:0,0:0:0:0:
232,224,338533,1,0,0:0:0:0:
332,184,338709,2,0,P|351:155|364:120,1,65,8|0,0:0|0:0,0:0:0:0:
256,40,339062,2,0,P|248:88|252:112,1,65,2|0,0:0|0:0,0:0:0:0:
424,280,339415,6,0,B|392:260|392:260|284:284,1,130,4|0,0:0|0:0,0:0:0:0:
212,348,339945,1,2,0:0:0:0:
212,348,340121,2,0,P|136:348|76:304,1,130,8|2,0:0|0:0,0:0:0:0:
164,180,340650,2,0,L|171:244,1,65,0|4,0:0|0:0,0:0:0:0:
40,224,341003,1,0,0:0:0:0:
72,120,341180,2,0,L|60:40,1,65,2|0,0:0|0:0,0:0:0:0:
200,84,341533,2,0,P|244:92|272:92,1,65,8|0,0:0|0:0,0:0:0:0:
420,56,341886,1,2,0:0:0:0:
328,12,342062,1,0,0:0:0:0:
384,168,342239,6,0,L|376:240,1,65,4|0,0:0|0:0,0:0:0:0:
232,284,342592,1,0,0:0:0:0:
280,188,342768,1,2,0:0:0:0:
108,184,342945,2,0,P|144:196|192:196,1,65,8|0,0:0|0:0,0:0:0:0:
268,88,343298,1,2,0:0:0:0:
164,96,343474,1,0,0:0:0:0:
280,188,343650,6,0,P|316:176|348:152,2,65,4|0|0,0:0|0:0|0:0,0:0:0:0:
108,184,344180,1,0,0:0:0:0:
100,192,344268,1,0,0:0:0:0:
92,200,344356,1,12,0:0:0:0:
368,240,344709,1,2,0:0:0:0:
156,316,345062,6,0,P|224:324|296:308,1,130,4|0,0:0|0:0,0:0:0:0:
368,240,345592,1,2,0:0:0:0:
268,100,345768,2,0,P|196:96|140:116,1,130,8|2,0:0|0:0,0:0:0:0:
84,208,346298,1,0,0:0:0:0:
192,328,346474,2,0,P|260:336|332:320,1,130,4|2,0:0|0:0,0:0:0:0:
404,252,347003,1,0,0:0:0:0:
316,88,347180,2,0,P|245:71|187:81,1,130,8|2,0:0|0:0,0:0:0:0:
116,162,347709,1,0,0:0:0:0:
304,188,347886,6,0,B|352:184|352:184|428:128,1,130,4|0,0:0|0:0,0:0:0:0:
316,88,348415,1,2,0:0:0:0:
204,220,348592,2,0,B|183:263|183:263|193:357,1,130,8|2,0:0|0:0,0:0:0:0:
284,280,349121,1,0,0:0:0:0:
224,116,349298,2,0,B|196:76|196:76|110:38,1,130,4|0,0:0|0:0,0:0:0:0:
131,155,349827,1,0,0:0:0:0:
304,188,350003,1,12,0:0:0:0:
60,256,350356,1,0,0:0:0:0:
344,300,350709,6,0,L|424:292,1,65,4|0,0:0|0:0,0:0:0:0:
304,188,351062,2,0,P|301:155|308:112,1,65
224,276,351415,2,0,B|192:264|156:272|156:272|120:280|88:268,1,130,4|0,0:0|0:0,0:0:0:0:
184,368,351945,1,0,0:0:0:0:
184,368,352033,1,0,0:0:0:0:
184,368,352121,1,12,0:0:0:0:
344,300,352474,1,8,0:3:0:0:
132,176,352827,1,8,0:3:0:0:
396,92,353180,1,4,0:3:0:0:
84,24,353533,5,6,0:0:0:0:
256,192,353621,12,0,381856,0:0:0:0:
