osu file format v14

[General]
AudioFilename: The Door Into Summer.mp3
AudioLeadIn: 0
PreviewTime: 265323
Countdown: 0
SampleSet: None
StackLeniency: 0.2
Mode: 0
LetterboxInBreaks: 0
EpilepsyWarning: 1
WidescreenStoryboard: 1

[Editor]
Bookmarks: 43698,64360,76365,97532,140365,173698,195032,216198,232198,253698,286865,330031
DistanceSpacing: 1.6
BeatDivisor: 4
GridSize: 4
TimelineZoom: 1.6

[Metadata]
Title:Fall of Fall ~ The Door Into Summer
TitleUnicode:フォールオブフォール ~ The Door Into Summer
Artist:Demetori
ArtistUnicode:Demetori
Creator:GoldenWolf
Version:Waterfall of Nine Heavens
Source:東方風神録 ~ Mountain of Faith.
Tags:C91 Lebenstrieb & Todestrieb Heavy Metal Guitar Drums Inubashiri Momiji Touhou Project Fuujinroku Akimeku Taki Autumnal ZUN woof alheak
BeatmapID:1217462
BeatmapSetID:574853

[Difficulty]
HPDrainRate:6
CircleSize:4.5
OverallDifficulty:9
ApproachRate:9.2
SliderMultiplier:1.6
SliderTickRate:1

[Events]
//Background and Video events
0,0,"orz171.jpg",0,0
//Break Periods
//Storyboard Layer 0 (Background)
//Storyboard Layer 1 (Fail)
//Storyboard Layer 2 (Pass)
//Storyboard Layer 3 (Foreground)
//Storyboard Sound Samples

[TimingPoints]
379,363.636363636364,4,2,1,5,1,0
379,-200,4,2,1,5,0,0
5712,363.636363636364,4,2,1,5,1,0
5712,-200,4,2,1,5,0,0
11045,363.636363636364,4,2,1,5,1,0
11045,-200,4,2,1,5,0,0
16378,363.636363636364,4,2,1,5,1,0
16378,-200,4,2,1,5,0,0
17712,363.636363636364,4,2,1,5,1,0
17712,-200,4,2,1,5,0,0
18712,363.636363636364,4,2,1,5,1,0
18712,-200,4,2,1,5,0,0
19712,363.636363636364,4,2,1,5,1,0
19712,-200,4,2,1,5,0,0
20365,363.636363636364,4,2,1,35,1,0
20365,-66.6666666666667,4,2,1,35,0,0
21032,333.333333333333,4,3,4,100,1,0
21532,-100,4,3,1,100,0,0
21699,333.333333333333,4,3,4,70,1,0
24032,-100,4,3,2,70,0,0
24865,-100,4,3,4,70,0,0
26365,-66.6666666666667,4,3,4,85,0,0
26448,-66.6666666666667,4,3,1,5,0,0
26532,-100,4,3,4,85,0,0
26615,-100,4,3,1,5,0,0
26698,-100,4,3,4,85,0,0
26865,-100,4,3,2,85,0,0
27032,-100,4,3,4,70,0,0
29365,-200,4,3,4,70,0,0
29698,-83.3333333333333,4,3,2,70,0,0
30032,-100,4,3,4,70,0,0
30865,-100,4,3,4,85,0,0
31198,-100,4,3,12,85,0,0
31365,-100,4,3,4,85,0,0
31698,-100,4,3,11,85,0,0
31865,-100,4,3,10,85,0,0
32198,-100,4,3,1,100,0,0
32365,-100,4,3,4,70,0,0
34698,-100,4,3,2,70,0,0
35532,-100,4,3,4,70,0,0
37032,-66.6666666666667,4,3,4,85,0,0
37115,-66.6666666666667,4,3,4,70,0,0
37198,-100,4,3,4,85,0,0
37282,-100,4,3,4,5,0,0
37365,-100,4,3,4,85,0,0
37532,-100,4,3,3,85,0,0
37698,-100,4,3,4,70,0,0
40032,-200,4,3,1,70,0,0
40365,-83.3333333333333,4,3,1,70,0,0
40698,-100,4,3,4,70,0,0
41532,-100,4,3,4,85,0,0
41782,-100,4,3,12,85,0,0
41865,-100,4,3,4,85,0,0
42115,-100,4,3,11,85,0,0
42198,-100,4,3,4,85,0,0
42865,-66.6666666666667,4,3,2,85,0,0
43365,-142.857142857143,4,3,4,70,0,0
43448,-142.857142857143,4,3,4,5,0,0
43698,-100,4,3,5,70,0,0
45532,-100,4,3,7,70,0,0
45865,-100,4,3,4,70,0,0
46365,-100,4,3,4,70,0,0
47865,-100,4,3,7,85,0,0
48198,-100,4,3,2,70,0,0
48532,-100,4,3,5,70,0,0
49532,-100,4,3,4,70,0,0
49698,-100,4,3,5,70,0,0
51032,-100,4,3,3,70,0,0
51532,-100,4,3,2,70,0,0
52032,-142.857142857143,4,3,1,85,0,0
52365,-142.857142857143,4,3,4,70,0,0
52865,-100,4,3,7,70,0,0
53365,-100,4,3,7,85,0,0
53532,-100,4,3,1,85,0,0
53698,-100,4,3,5,70,0,0
54865,-100,4,3,4,70,0,0
55032,-100,4,3,5,70,0,0
56198,-100,4,3,7,70,0,0
56365,-100,4,3,5,70,0,0
57532,-83.3333333333333,4,3,4,70,0,0
57782,-83.3333333333333,4,3,4,5,0,0
57865,-100,4,3,4,70,0,0
58532,-100,4,3,7,70,0,0
58698,-100,4,3,7,85,0,0
58865,-100,4,3,2,70,0,0
59032,-100,4,3,5,70,0,0
60198,-100,4,3,4,70,0,0
60365,-100,4,3,5,70,0,0
61365,-100,4,3,7,70,0,0
61698,-100,4,3,2,85,0,0
62032,-100,4,3,7,70,0,0
62198,-100,4,3,7,85,0,0
62365,-100,4,3,7,70,0,0
62698,-100,4,3,7,85,0,0
62865,-100,4,3,7,55,0,0
63032,-100,4,3,1,85,0,0
64032,-100,4,3,11,85,0,0
64198,-100,4,3,10,85,0,0
64365,-100,4,3,1,100,0,0
64532,-100,4,3,5,70,0,0
65532,-100,4,3,7,70,0,0
66032,-100,4,3,4,70,0,0
66365,-100,4,3,1,85,0,0
66698,-100,4,3,10,85,0,0
67032,-100,4,3,2,85,0,0
67198,-100,4,3,5,70,0,0
68198,-66.6666666666667,4,3,7,70,0,0
68698,-100,4,3,7,70,0,0
69032,-100,4,3,1,85,0,0
69198,-100,4,3,12,85,0,0
69365,-100,4,3,11,85,0,0
69532,-100,4,3,10,85,0,0
69698,-100,4,3,1,70,0,0
69865,-100,4,3,12,85,0,0
70198,-100,4,3,3,70,0,0
70698,-100,4,3,11,85,0,0
71032,-100,4,3,2,85,0,0
71198,-100,4,3,10,85,0,0
71532,-100,4,3,3,85,0,0
71865,-100,4,3,12,85,0,0
72032,-100,4,3,11,85,0,0
72198,-100,4,3,10,85,0,0
72365,-100,4,3,1,85,0,0
73032,-80,4,3,2,85,0,0
73365,-80,4,3,3,85,0,0
73698,-100,4,3,7,85,0,0
74198,-200,4,3,7,85,0,0
74532,-100,4,3,7,85,0,0
75198,-200,4,3,7,85,0,0
75282,-200,4,3,7,5,0,0
75698,-74.0740740740741,4,3,1,85,0,0
75782,-74.0740740740741,4,3,1,70,0,0
75865,-74.0740740740741,4,3,1,85,0,0
75948,-74.0740740740741,4,3,1,70,0,0
76032,-74.0740740740741,4,3,1,85,0,0
76115,-74.0740740740741,4,3,1,70,0,0
76198,-74.0740740740741,4,3,1,85,0,0
76282,-74.0740740740741,4,3,1,70,0,0
76365,-66.6666666666667,4,3,1,100,0,1
76532,-66.6666666666667,4,3,4,70,0,1
79032,-66.6666666666667,4,3,2,85,0,1
79198,-66.6666666666667,4,3,4,70,0,1
81365,-66.6666666666667,4,3,1,70,0,1
81698,-66.6666666666667,4,3,3,85,0,1
81782,-66.6666666666667,4,3,4,70,0,1
84032,-66.6666666666667,4,3,2,70,0,1
84365,-100,4,3,5,85,0,0
84865,-100,4,3,7,85,0,0
85698,-100,4,3,2,85,0,0
86032,-100,4,3,3,85,0,0
86532,-100,4,3,3,70,0,0
86698,-100,4,3,12,85,0,0
86865,-100,4,3,11,85,0,0
87032,-66.6666666666667,4,3,1,100,0,1
87198,-66.6666666666667,4,3,4,70,0,1
89698,-66.6666666666667,4,3,2,85,0,1
89782,-66.6666666666667,4,3,4,70,0,1
92032,-66.6666666666667,4,3,1,70,0,1
92365,-66.6666666666667,4,3,3,85,0,1
92448,-66.6666666666667,4,3,4,70,0,1
95032,-100,4,3,1,85,0,0
95198,-100,4,3,4,70,0,0
96698,-100,4,3,7,70,0,0
97032,-100,4,3,7,100,0,0
97532,-100,4,3,1,100,0,0
97698,-100,4,3,9,70,0,0
100032,-100,4,3,3,85,0,0
100365,-100,4,3,2,85,0,0
100448,-100,4,3,9,70,0,0
102365,-66.6666666666667,4,3,2,70,0,0
102448,-66.6666666666667,4,3,2,5,0,0
102532,-100,4,3,9,70,0,0
102615,-100,4,3,9,5,0,0
102698,-100,4,3,9,70,0,0
102865,-100,4,3,1,85,0,0
103032,-100,4,3,9,70,0,0
105032,-95.2380952380952,4,3,9,70,0,0
105365,-200,4,3,1,85,0,0
105698,-83.3333333333333,4,3,2,85,0,0
106032,-100,4,3,9,70,0,0
107198,-100,4,3,9,85,0,0
108198,-100,4,3,1,85,0,0
108365,-100,4,3,5,70,0,0
110698,-100,4,3,3,70,0,0
111032,-100,4,3,2,70,0,0
111198,-100,4,3,5,70,0,0
112698,-100,4,3,7,70,0,0
113032,-66.6666666666667,4,3,1,85,0,0
113115,-66.6666666666667,4,3,1,5,0,0
113198,-100,4,3,1,85,0,0
113282,-100,4,3,1,5,0,0
113365,-100,4,3,1,85,0,0
113532,-100,4,3,1,85,0,0
113698,-100,4,3,9,70,0,0
116032,-200,4,3,2,70,0,0
116365,-83.3333333333333,4,3,3,70,0,0
116865,-100,4,3,7,85,0,0
117365,-100,4,3,9,85,0,0
117698,-200,4,3,9,100,0,0
117782,-200,4,3,9,5,0,0
118865,-66.6666666666667,4,3,1,100,0,0
119032,-66.6666666666667,4,3,1,70,0,0
119365,-142.857142857143,4,3,7,85,0,0
119698,-100,4,3,5,70,0,0
121532,-100,4,3,7,70,0,0
121698,-100,4,3,5,70,0,0
123865,-100,4,3,7,70,0,0
124198,-100,4,3,3,85,0,0
124365,-100,4,3,4,70,0,0
124865,-100,4,3,5,70,0,0
127032,-100,4,3,3,70,0,0
127532,-100,4,3,2,70,0,0
128032,-100,4,3,3,70,0,0
128365,-100,4,3,4,70,0,0
129532,-100,4,3,1,85,0,0
129698,-100,4,3,4,70,0,0
130198,-100,4,3,5,70,0,0
132198,-100,4,3,7,70,0,0
132365,-100,4,3,5,70,0,0
133532,-83.3333333333333,4,3,5,70,0,0
133782,-83.3333333333333,4,3,5,5,0,0
133865,-100,4,3,5,70,0,0
134365,-100,4,3,4,70,0,0
134532,-100,4,3,7,70,0,0
134865,-100,4,3,2,85,0,0
135032,-100,4,3,4,70,0,0
135532,-100,4,3,5,70,0,0
136282,-100,4,3,5,55,0,0
136365,-100,4,3,5,70,0,0
136448,-100,4,3,5,55,0,0
136532,-100,4,3,5,70,0,0
137365,-100,4,3,4,70,0,0
137698,-100,4,3,3,70,0,0
138032,-100,4,3,4,70,0,0
138698,-100,4,3,3,70,0,0
138948,-100,4,3,3,5,0,0
139032,-100,4,3,2,85,0,0
139143,-100,4,3,1,40,0,0
139254,-100,4,3,1,55,0,0
139365,-100,4,3,1,70,0,0
139476,-100,4,3,1,85,0,0
139698,-100,4,3,12,85,0,0
139921,-100,4,3,11,85,0,0
140143,-100,4,3,10,85,0,0
140365,-100,4,3,1,100,0,0
141698,-100,4,3,2,100,0,0
143032,-100,4,3,3,100,0,0
144365,-100,4,3,2,100,0,0
144532,-100,4,3,4,85,0,0
144948,-100,4,3,4,70,0,0
145032,-100,4,3,4,85,0,0
145198,-100,4,3,12,85,0,0
145365,-100,4,3,11,85,0,0
145532,-100,4,3,10,85,0,0
145698,-100,4,3,1,85,0,0
145865,-100,4,3,12,85,0,0
146032,-100,4,3,11,85,0,0
146198,-100,4,3,1,85,0,0
146532,-100,4,3,11,85,0,0
146698,-100,4,3,10,85,0,0
146865,-100,4,3,1,85,0,0
147198,-100,4,3,11,85,0,0
147365,-100,4,3,10,85,0,0
147532,-100,4,3,1,85,0,0
147698,-100,4,3,3,85,0,0
147865,-100,4,3,12,85,0,0
148032,-100,4,3,11,85,0,0
148198,-100,4,3,10,85,0,0
148365,-100,4,3,7,85,0,0
149698,-100,4,3,9,100,0,0
150198,-133.333333333333,4,3,2,100,0,0
150532,-100,4,3,9,100,0,0
151198,-133.333333333333,4,3,3,100,0,0
151532,-100,4,3,1,100,0,0
152365,-66.6666666666667,4,3,1,100,0,1
152532,-66.6666666666667,4,3,4,70,0,1
155032,-66.6666666666667,4,3,2,85,0,1
155198,-66.6666666666667,4,3,4,70,0,1
157365,-66.6666666666667,4,3,2,70,0,1
157698,-66.6666666666667,4,3,1,85,0,1
157865,-66.6666666666667,4,3,4,70,0,1
160365,-100,4,3,5,85,0,0
160865,-100,4,3,7,85,0,0
161698,-100,4,3,2,85,0,0
162032,-100,4,3,3,85,0,0
162448,-100,4,3,3,70,0,0
162532,-100,4,3,3,85,0,0
162615,-100,4,3,3,70,0,0
162698,-100,4,3,11,85,0,0
162865,-100,4,3,10,85,0,0
163032,-66.6666666666667,4,3,1,100,0,1
163198,-66.6666666666667,4,3,4,70,0,1
165698,-66.6666666666667,4,3,2,85,0,1
165865,-66.6666666666667,4,3,4,70,0,1
168365,-66.6666666666667,4,3,3,85,0,1
168532,-66.6666666666667,4,3,4,70,0,1
171032,-100,4,3,1,85,0,0
171198,-100,4,3,4,70,0,0
172698,-100,4,3,7,70,0,0
173032,-100,4,3,1,85,0,0
173115,-100,4,3,1,55,0,0
173198,-100,4,3,1,85,0,0
173365,-100,4,3,11,85,0,0
173532,-100,4,3,10,85,0,0
173698,-100,4,3,2,100,0,0
173782,-100,4,3,9,70,0,0
176032,-100,4,3,2,70,0,0
176365,-100,4,3,3,70,0,0
176448,-100,4,3,9,70,0,0
177698,-100,4,3,2,70,0,0
178032,-100,4,3,3,85,0,0
178115,-100,4,3,2,70,0,0
178365,-100,4,3,1,85,0,0
178448,-100,4,3,12,85,0,0
178532,-100,4,3,1,85,0,0
178698,-100,4,3,11,85,0,0
178865,-100,4,3,1,85,0,0
179032,-83.3333333333333,4,3,2,85,0,0
179115,-83.3333333333333,4,3,4,70,0,0
181032,-83.3333333333333,4,3,1,85,0,0
181282,-83.3333333333333,4,3,12,85,0,0
181365,-83.3333333333333,4,3,1,85,0,0
181448,-83.3333333333333,4,3,11,85,0,0
181532,-83.3333333333333,4,3,1,85,0,0
181698,-66.6666666666667,4,3,1,85,0,0
181865,-66.6666666666667,4,3,12,85,0,0
182032,-66.6666666666667,4,3,1,85,0,0
182365,-66.6666666666667,4,3,12,85,0,0
182532,-66.6666666666667,4,3,1,85,0,0
182865,-66.6666666666667,4,3,12,85,0,0
183032,-66.6666666666667,4,3,1,85,0,0
183365,-66.6666666666667,4,3,12,85,0,0
183532,-58.8235294117647,4,3,1,85,0,0
184032,-66.6666666666667,4,3,11,85,0,0
184198,-66.6666666666667,4,3,10,85,0,0
184365,-76.9230769230769,4,3,1,100,0,0
184448,-76.9230769230769,4,3,9,70,0,0
187032,-76.9230769230769,4,3,2,85,0,0
187115,-76.9230769230769,4,3,9,70,0,0
189032,-76.9230769230769,4,3,2,70,0,0
189198,-76.9230769230769,4,3,9,70,0,0
189365,-76.9230769230769,4,3,2,70,0,0
189698,-76.9230769230769,4,3,2,85,0,0
189782,-76.9230769230769,4,3,9,70,0,0
192365,-76.9230769230769,4,3,2,85,0,0
192448,-76.9230769230769,4,3,9,70,0,0
194032,-66.6666666666667,4,3,2,85,0,0
194698,-66.6666666666667,4,3,12,85,0,0
194782,-66.6666666666667,4,3,11,85,0,0
194865,-66.6666666666667,4,3,1,85,0,0
194948,-66.6666666666667,4,3,10,85,0,0
195032,-66.6666666666667,4,3,2,100,0,0
195115,-66.6666666666667,4,3,9,70,0,0
196365,-66.6666666666667,4,3,3,85,0,0
196448,-66.6666666666667,4,3,9,70,0,0
197198,-66.6666666666667,4,3,9,85,0,0
197282,-66.6666666666667,4,3,9,70,0,0
197448,-66.6666666666667,4,3,12,85,0,0
197532,-66.6666666666667,4,3,11,85,0,0
197615,-66.6666666666667,4,3,10,85,0,0
197698,-66.6666666666667,4,3,2,85,0,0
197782,-66.6666666666667,4,3,9,70,0,0
198698,-66.6666666666667,4,3,2,70,0,0
198782,-66.6666666666667,4,3,2,85,0,0
199032,-66.6666666666667,4,3,7,85,0,0
199115,-66.6666666666667,4,3,9,70,0,0
199698,-66.6666666666667,4,3,9,85,0,0
199782,-66.6666666666667,4,3,12,85,0,0
199865,-66.6666666666667,4,3,11,85,0,0
199948,-66.6666666666667,4,3,9,85,0,0
200115,-66.6666666666667,4,3,11,85,0,0
200198,-66.6666666666667,4,3,10,85,0,0
200365,-66.6666666666667,4,3,3,100,0,0
200448,-66.6666666666667,4,3,5,70,0,0
202698,-66.6666666666667,4,3,5,85,0,0
203032,-66.6666666666667,4,3,2,85,0,0
203115,-66.6666666666667,4,3,9,70,0,0
204365,-66.6666666666667,4,3,3,85,0,0
204698,-66.6666666666667,4,3,2,85,0,0
205032,-66.6666666666667,4,3,1,85,0,0
205532,-66.6666666666667,4,3,1,100,0,0
205698,-66.6666666666667,4,3,9,70,0,0
207032,-100,4,3,9,70,0,0
207865,-50,4,3,9,70,0,0
208198,-75.187969924812,4,3,9,70,0,0
208615,-100,4,3,9,70,0,0
208782,-100,4,3,9,5,0,0
208865,-100,4,3,9,70,0,0
209282,-75.187969924812,4,3,9,70,0,0
209698,-100,4,3,9,70,0,0
210115,-100,4,3,9,5,0,0
210198,-100,4,3,9,70,0,0
213782,-100,4,3,9,5,0,0
213865,-100,4,3,9,70,0,0
215698,-100,4,3,4,85,0,0
215865,-100,4,3,11,85,0,0
216032,-100,4,3,10,85,0,0
216198,-100,4,3,1,100,0,0
216698,-142.857142857143,4,3,9,70,0,0
216948,-142.857142857143,4,3,9,5,0,0
217032,-100,4,3,9,70,0,0
217282,-100,4,3,9,5,0,0
217365,-100,4,3,9,70,0,0
217448,-100,4,3,9,5,0,0
217532,-133.333333333333,4,3,9,70,0,0
218032,-133.333333333333,4,3,9,70,0,0
218282,-133.333333333333,4,3,9,5,0,0
218365,-133.333333333333,4,3,2,70,0,0
218615,-133.333333333333,4,3,9,5,0,0
218698,-100,4,3,9,70,0,0
219032,-100,4,3,9,5,0,0
219198,-100,4,3,9,70,0,0
220198,-83.3333333333333,4,3,9,70,0,0
220532,-100,4,3,9,70,0,0
220698,-112.359550561798,4,3,9,70,0,0
221032,-100,4,3,9,70,0,0
221698,-133.333333333333,4,3,9,70,0,0
222365,-100,4,3,9,70,0,0
222865,-133.333333333333,4,3,9,70,0,0
223365,-133.333333333333,4,3,9,70,0,0
224032,-100,4,3,9,70,0,0
224282,-100,4,3,9,5,0,0
224532,-100,4,3,9,70,0,0
224865,-66.6666666666667,4,3,9,70,0,0
225532,-100,4,3,2,70,0,0
226365,-100,4,3,9,70,0,0
226698,-100,4,3,11,70,0,0
227032,-133.333333333333,4,3,1,100,0,0
227115,-133.333333333333,4,3,4,70,0,0
228198,-100,4,3,1,85,0,0
228365,-100,4,3,4,70,0,0
229698,-100,4,3,1,100,0,0
229782,-100,4,3,4,70,0,0
230365,-100,4,3,7,70,0,0
231032,-100,4,3,1,85,0,0
231115,-100,4,3,11,85,0,0
231198,-100,4,3,1,85,0,0
231365,-76.9230769230769,4,3,12,85,0,0
231532,-76.9230769230769,4,3,1,85,0,0
231698,-76.9230769230769,4,3,11,85,0,0
232032,-76.9230769230769,4,3,10,85,0,0
232198,-100,4,3,1,100,0,0
232365,-100,4,3,4,70,0,0
234865,-100,4,3,2,70,0,0
235032,-100,4,3,4,70,0,0
237032,-100,4,3,7,70,0,0
237532,-100,4,3,1,85,0,0
237698,-100,4,3,4,70,0,0
240198,-100,4,3,2,70,0,0
240365,-100,4,3,4,70,0,0
241365,-100,4,3,7,70,0,0
241698,-100,4,3,7,85,0,0
242032,-100,4,3,12,85,0,0
242087,-100,4,3,12,85,0,0
242143,-100,4,3,12,85,0,0
242198,-100,4,3,7,85,0,0
242865,-100,4,3,1,85,0,0
243032,-100,4,3,4,70,0,0
245032,-100,4,3,7,70,0,0
245532,-100,4,3,3,85,0,0
245698,-100,4,3,9,70,0,0
247698,-100,4,3,4,70,0,0
248198,-100,4,3,2,85,0,0
248365,-100,4,3,9,70,0,0
250865,-76.9230769230769,4,3,2,85,0,0
251532,-66.6666666666667,4,3,3,85,0,0
252032,-66.6666666666667,4,3,1,85,0,0
252198,-50,4,3,1,85,0,0
253032,-50,4,3,12,85,0,0
253198,-50,4,3,1,85,0,0
253365,-50,4,3,11,85,0,0
253532,-50,4,3,1,85,0,0
253698,-100,4,3,7,85,0,0
254032,-100,4,3,5,70,0,0
254865,-100,4,3,7,70,0,0
255365,-100,4,3,4,70,0,0
255698,-100,4,3,4,85,0,0
256032,-100,4,3,11,85,0,0
256198,-100,4,3,2,85,0,0
256532,-100,4,3,5,70,0,0
257365,-100,4,3,4,70,0,0
257532,-100,4,3,12,70,0,0
257698,-100,4,3,11,70,0,0
257754,-100,4,3,10,70,0,0
257865,-66.6666666666667,4,3,4,85,0,0
258198,-100,4,3,12,85,0,0
258365,-66.6666666666667,4,3,4,85,0,0
258448,-100,4,3,11,85,0,0
258532,-100,4,3,10,85,0,0
258865,-66.6666666666667,4,3,2,85,0,0
259365,-100,4,3,9,85,0,0
261698,-100,4,3,1,85,0,0
262032,-100,4,3,2,85,0,0
263032,-200,4,3,3,85,0,0
263532,-200,4,3,2,85,0,0
264032,-200,4,3,1,85,0,0
264365,-200,4,3,1,100,0,0
264865,-100,4,3,7,100,0,0
265698,-66.6666666666667,4,3,1,100,0,1
265782,-66.6666666666667,4,3,4,70,0,1
268365,-66.6666666666667,4,3,2,85,0,1
268448,-66.6666666666667,4,3,4,70,0,1
270698,-66.6666666666667,4,3,3,70,0,1
271032,-66.6666666666667,4,3,2,100,0,1
271115,-66.6666666666667,4,3,4,70,0,1
273365,-66.6666666666667,4,3,2,70,0,1
273698,-100,4,3,1,85,0,0
274198,-100,4,3,7,85,0,0
275032,-100,4,3,2,85,0,0
275365,-100,4,3,3,85,0,0
275698,-100,4,3,1,85,0,0
276032,-100,4,3,11,85,0,0
276198,-100,4,3,10,85,0,0
276365,-66.6666666666667,4,3,1,100,0,1
276448,-66.6666666666667,4,3,4,70,0,1
277198,-58.8235294117647,4,3,4,70,0,1
277365,-66.6666666666667,4,3,4,70,0,1
279032,-66.6666666666667,4,3,2,85,0,1
279115,-66.6666666666667,4,3,4,70,0,1
280032,-66.6666666666667,4,3,1,70,0,1
280365,-66.6666666666667,4,3,9,70,0,1
281365,-66.6666666666667,4,3,2,70,0,1
281698,-62.5,4,3,3,85,0,1
281782,-66.6666666666667,4,3,9,70,0,1
282865,-66.6666666666667,4,3,2,70,0,1
283032,-66.6666666666667,4,3,9,70,0,1
284032,-66.6666666666667,4,3,3,70,0,1
284365,-100,4,3,1,100,0,0
284532,-100,4,3,5,85,0,0
286032,-100,4,3,4,85,0,0
286532,-100,4,3,7,85,0,0
286865,-100,4,3,1,100,0,0
287032,-100,4,3,9,70,0,0
291698,-66.6666666666667,4,3,4,85,0,0
291782,-66.6666666666667,4,3,1,5,0,0
291865,-100,4,3,4,85,0,0
291948,-100,4,3,1,5,0,0
292032,-100,4,3,1,100,0,0
292198,-100,4,3,2,100,0,0
292365,-100,4,3,9,70,0,0
295032,-100,4,3,3,85,0,0
295115,-100,4,3,9,70,0,0
296198,-100,4,3,9,85,0,0
296532,-100,4,3,12,85,0,0
296698,-100,4,3,9,85,0,0
297032,-100,4,3,11,85,0,0
297198,-100,4,3,10,85,0,0
297532,-100,4,3,1,100,0,0
297698,-100,4,3,9,70,0,0
300198,-100,4,3,2,85,0,0
300365,-100,4,3,9,70,0,0
302365,-100,4,3,9,85,0,0
302448,-100,4,3,1,5,0,0
302532,-100,4,3,1,85,0,0
302615,-100,4,3,1,5,0,0
302698,-100,4,3,1,85,0,0
302865,-100,4,3,3,85,0,0
303032,-100,4,3,9,70,0,0
305032,-100,4,3,4,70,0,0
305532,-100,4,3,2,85,0,0
305698,-100,4,3,9,70,0,0
306698,-100,4,3,3,85,0,0
306865,-100,4,3,9,85,0,0
307115,-100,4,3,12,85,0,0
307365,-100,4,3,9,85,0,0
307615,-100,4,3,11,85,0,0
307865,-100,4,3,9,85,0,0
308198,-100,4,3,12,85,0,0
308254,-100,4,3,11,85,0,0
308310,-100,4,3,10,85,0,0
308365,-100,4,3,9,100,0,0
308698,333.333333333333,4,3,1,100,1,0
308781,-100,4,3,1,5,0,0

[Colours]
Combo1 : 212,212,212
Combo2 : 164,78,49
Combo3 : 49,101,164
Combo4 : 164,49,106
Combo5 : 231,92,46
Combo6 : 46,129,231
Combo7 : 231,46,138
Combo8 : 127,127,127

[HitObjects]
209,179,379,102,0,L|212:220,1,40
302,179,742,2,0,L|300:220,1,40,2|0,0:0|0:0,0:0:0:0:
203,180,5712,6,0,L|207:224,1,40
308,180,6075,2,0,L|304:224,1,40,2|0,0:0|0:0,0:0:0:0:
196,180,11045,102,0,L|202:219,1,40
314,180,11408,2,0,L|308:219,1,40,2|0,0:0|0:0,0:0:0:0:
190,180,16378,6,0,L|196:219,1,40
320,180,16741,2,0,L|314:219,1,40,2|0,0:0|0:0,0:0:0:0:
183,180,17712,102,0,L|192:219,1,40
327,180,18075,2,0,L|318:219,1,40,2|0,0:0|0:0,0:0:0:0:
178,180,18712,6,0,L|188:219,1,40
333,181,19075,2,0,L|323:219,1,40,2|0,0:0|0:0,0:0:0:0:
172,181,19712,102,0,L|183:219,1,40
338,181,20075,2,0,L|328:219,1,40,2|0,0:0|0:0,0:0:0:0:
108,120,20365,6,0,B|84:174|84:174|102:234,1,120.000004577637
404,120,20728,2,0,B|428:174|428:174|410:234,1,120.000004577637,2|0,0:0|0:0,0:0:0:0:
256,64,21032,101,8,0:0:0:0:
256,320,21198,1,6,0:0:0:0:
256,320,21532,22,0,B|248:268|248:268|272:224|272:224|264:168,1,160,6|4,0:0|0:0,0:0:0:0:
180,208,21949,1,4,0:0:0:0:
168,216,22032,1,10,0:0:0:0:
156,224,22365,5,6,0:0:0:0:
8,152,22532,1,4,0:0:0:0:
144,232,22699,2,0,P|152:272|156:316,1,80,10|4,0:0|0:0,0:0:0:0:
256,320,22949,1,4,0:0:0:0:
270,324,23032,5,6,0:0:0:0:
250,232,23199,1,4,0:0:0:0:
342,260,23365,1,10,0:0:0:0:
322,168,23532,1,4,0:0:0:0:
270,324,23698,1,6,0:0:0:0:
270,324,24032,86,0,P|230:328|190:336,1,80,10|4,0:0|0:0,0:0:0:0:
322,168,24365,2,0,P|362:164|402:156,1,80,6|4,0:0|0:0,0:0:0:0:
270,324,24698,1,10,0:0:0:0:
322,168,24865,1,4,0:0:0:0:
326,161,25198,5,4,0:0:0:0:
270,324,25365,1,10,0:0:0:0:
330,153,25532,2,0,P|370:150|412:152,1,80,4|6,0:0|0:0,0:0:0:0:
490,165,25782,1,4,0:0:0:0:
497,167,25866,1,4,0:0:0:0:
504,169,25949,1,4,0:0:0:0:
511,171,26032,1,10,0:0:0:0:
366,248,26198,1,4,0:0:0:0:
224,120,26365,6,0,P|253:117|284:112,1,60.0000022888184,4|0,0:0|2:0,0:0:0:0:
188,156,26532,2,0,P|209:156|230:161,1,40,4|0,0:0|2:0,0:0:0:0:
144,128,26698,1,10,0:0:0:0:
339,188,26865,86,0,P|379:116|351:48,1,160,6|4,0:0|0:0,0:0:0:0:
224,120,27282,1,4,0:0:0:0:
240,116,27365,1,10,0:0:0:0:
256,112,27698,5,6,0:0:0:0:
80,60,27865,1,4,0:0:0:0:
272,108,28032,2,0,P|312:116|352:120,1,80,10|4,0:0|0:0,0:0:0:0:
432,125,28282,1,4,0:0:0:0:
447,126,28365,1,6,0:0:0:0:
463,126,28448,1,4,0:0:0:0:
479,125,28532,1,4,0:0:0:0:
495,123,28615,1,4,0:0:0:0:
511,122,28698,5,10,0:0:0:0:
392,41,28865,1,4,0:0:0:0:
472,209,29032,1,6,0:0:0:0:
475,223,29365,86,0,P|472:250|462:278,1,40,10|4,0:0|0:0,0:0:0:0:
430,221,29698,2,0,P|461:164|500:241,1,191.999994140625,6|10,0:0|0:0,0:0:0:0:
352,336,30198,1,4,0:0:0:0:
208,228,30365,2,0,P|214:204|215:183,1,40,4|0,0:0|0:0,0:0:0:0:
297,189,30532,2,0,P|293:165|285:145,1,40,4|0,0:0|0:0,0:0:0:0:
362,117,30698,1,10,0:0:0:0:
136,68,30865,5,4,0:0:0:0:
156,89,30948,1,4,0:0:0:0:
183,101,31031,1,8,0:0:0:0:
213,100,31114,1,8,0:0:0:0:
240,87,31198,2,0,L|244:48,1,40,8|4,0:0|0:0,0:0:0:0:
297,189,31365,2,0,L|293:228,1,40,4|4,0:0|0:0,0:0:0:0:
376,32,31532,5,8,0:0:0:0:
378,24,31615,1,8,0:0:0:0:
380,16,31698,2,0,L|420:12,1,40,8|4,0:0|0:0,0:0:0:0:
512,124,31865,2,0,L|472:128,1,40,8|8,0:0|0:0,0:0:0:0:
368,180,32032,1,4,0:0:0:0:
372,188,32115,1,4,0:0:0:0:
376,196,32198,86,0,B|367:249|367:249|387:297|387:297|379:353,1,160,6|4,0:0|0:0,0:0:0:0:
300,308,32615,1,4,0:0:0:0:
288,300,32698,1,10,0:0:0:0:
276,292,33032,5,6,0:0:0:0:
120,352,33198,1,4,0:0:0:0:
264,284,33365,2,0,P|272:244|276:204,1,80,10|4,0:0|0:0,0:0:0:0:
274,116,33615,1,4,0:0:0:0:
273,102,33698,5,6,0:0:0:0:
192,152,33865,1,4,0:0:0:0:
276,196,34032,1,10,0:0:0:0:
357,146,34198,1,4,0:0:0:0:
192,152,34365,1,6,0:0:0:0:
192,152,34698,86,0,P|188:192|180:232,1,80,10|4,0:0|0:0,0:0:0:0:
357,146,35032,2,0,P|361:106|369:66,1,80,6|4,0:0|0:0,0:0:0:0:
192,152,35365,1,10,0:0:0:0:
357,146,35532,1,4,0:0:0:0:
364,152,35865,5,4,0:0:0:0:
184,148,36032,1,10,0:0:0:0:
368,156,36198,2,0,P|364:192|356:236,1,80,4|4,0:0|0:0,0:0:0:0:
332,320,36448,1,4,0:0:0:0:
330,327,36532,1,4,0:0:0:0:
328,334,36615,1,4,0:0:0:0:
326,341,36698,1,10,0:0:0:0:
272,180,36865,1,4,0:0:0:0:
440,92,37032,6,0,P|442:121|448:152,1,60.0000022888184,4|4,0:0|0:0,0:0:0:0:
404,56,37198,2,0,P|403:73|398:98,1,40,8|0,0:0|0:0,0:0:0:0:
436,16,37365,1,8,0:0:0:0:
504,216,37532,86,0,P|456:236|368:180,1,160,6|4,0:0|0:0,0:0:0:0:
440,92,37948,1,4,0:0:0:0:
444,106,38032,1,10,0:0:0:0:
448,120,38365,5,6,0:0:0:0:
264,68,38532,1,4,0:0:0:0:
452,136,38698,2,0,P|444:172|436:216,1,80,10|4,0:0|0:0,0:0:0:0:
423,302,38948,1,4,0:0:0:0:
422,317,39031,1,6,0:0:0:0:
422,333,39114,1,4,0:0:0:0:
423,349,39198,1,4,0:0:0:0:
425,365,39281,1,4,0:0:0:0:
426,381,39364,5,10,0:0:0:0:
504,276,39532,1,4,0:0:0:0:
316,308,39698,1,6,0:0:0:0:
308,320,40032,86,0,P|296:344|288:372,1,40,10|4,0:0|0:0,0:0:0:0:
340,344,40365,2,0,P|348:280|272:320,1,191.999994140625,6|10,0:0|0:0,0:0:0:0:
425,287,40865,1,4,0:0:0:0:
312,184,41032,2,0,P|284:188|272:192,1,40,2|0,0:0|0:0,0:0:0:0:
200,256,41198,2,0,P|172:252|160:248,1,40,4|0,0:0|0:0,0:0:0:0:
104,168,41365,1,10,0:0:0:0:
232,72,41532,5,4,0:0:0:0:
248,79,41615,1,4,0:0:0:0:
264,86,41698,2,0,L|224:96,1,40,8|8,0:0|0:0,0:0:0:0:
364,140,41865,1,4,0:0:0:0:
380,133,41948,1,4,0:0:0:0:
396,126,42031,2,0,L|356:114,1,40,8|8,0:0|0:0,0:0:0:0:
480,76,42198,1,4,0:0:0:0:
496,80,42281,1,4,0:0:0:0:
512,84,42365,5,8,0:0:0:0:
408,200,42532,1,8,0:0:0:0:
276,12,42698,1,8,0:0:0:0:
24,104,42865,86,0,P|24:192|92:120,1,240.000009155274,6|4,0:0|0:0,0:0:0:0:
50,149,43365,2,0,P|36:188|24:236,1,83.9999974365235,10|0,0:0|2:0,0:0:0:0:
26,229,43698,6,0,B|48:231|68:227|68:227|96:255|96:255|132:235|172:239,1,160,6|10,0:0|0:0,0:0:0:0:
280,352,44198,2,0,P|205:374|152:318,1,160,4|4,0:0|0:0,0:0:0:0:
251,175,44698,1,10,0:0:0:0:
226,300,44865,1,4,0:0:0:0:
246,157,45032,2,0,P|242:117|232:78,1,80,6|0,0:0|0:0,0:0:0:0:
130,215,45365,1,10,0:0:0:0:
146,48,45532,6,0,P|189:-2|282:2,1,160,6|4,0:0|0:0,0:0:0:0:
426,145,46032,1,10,0:0:0:0:
431,162,46365,1,6,0:0:0:0:
308,125,46532,1,4,0:0:0:0:
401,36,46698,1,10,0:0:0:0:
310,142,46865,86,0,L|317:204,1,40,4|0,0:0|0:0,0:0:0:0:
371,240,47032,2,0,L|378:302,1,40,2|0,0:0|0:0,0:0:0:0:
335,349,47198,1,4,0:0:0:0:
452,253,47365,1,10,0:0:0:0:
311,200,47532,5,0,0:0:0:0:
385,140,47698,1,6,0:0:0:0:
297,107,47865,1,6,0:0:0:0:
420,4,48032,1,8,0:0:0:0:
208,75,48198,6,0,B|200:127|200:127|224:171|224:171|216:227,1,160,6|4,0:0|0:0,0:0:0:0:
51,194,48698,2,0,P|90:183|130:187,1,80,10|0,0:0|0:0,0:0:0:0:
221,244,48948,1,0,0:0:0:0:
225,261,49032,1,6,0:0:0:0:
316,299,49198,1,4,0:0:0:0:
394,242,49365,1,10,0:0:0:0:
297,107,49532,86,0,B|221:131|221:131|134:118,1,160,6|4,0:0|0:0,0:0:0:0:
263,15,50032,1,10,0:0:0:0:
311,117,50198,2,0,L|332:162,1,40
160,21,50365,1,6,0:0:0:0:
128,130,50531,1,4,0:0:0:0:
273,2,50698,1,10,0:0:0:0:
49,47,50865,1,4,0:0:0:0:
200,219,51032,6,0,P|212:257|214:298,1,80,10|4,0:0|0:0,0:0:0:0:
114,193,51365,1,4,0:0:0:0:
270,154,51532,2,0,P|258:116|256:75,1,80,10|4,0:0|0:0,0:0:0:0:
356,180,51865,1,4,0:0:0:0:
299,318,52032,6,0,B|305:347|331:364|331:364|361:354|375:327,2,111.999996582031,10|6|6,0:0|0:0|0:0,0:0:0:0:
361,140,52865,2,0,L|354:193,1,40,4|4,0:0|0:0,0:0:0:0:
347,259,53032,1,8,0:0:0:0:
241,181,53198,1,6,0:0:0:0:
452,148,53365,1,8,0:0:0:0:
234,22,53532,86,0,B|242:74|242:74|218:118|218:118|226:174,1,160,6|4,0:0|0:0,0:0:0:0:
257,365,54032,2,0,P|269:318|265:282,1,80,10|0,0:0|0:0,0:0:0:0:
177,250,54282,1,0,0:0:0:0:
161,245,54365,1,6,0:0:0:0:
86,306,54532,1,4,0:0:0:0:
175,340,54698,1,10,0:0:0:0:
147,150,54865,6,0,P|174:78|253:66,1,160,6|4,0:0|0:0,0:0:0:0:
369,172,55365,1,10,0:0:0:0:
222,138,55532,1,4,0:0:0:0:
374,189,55698,2,0,P|385:229|385:268,1,80,6|0,0:0|0:0,0:0:0:0:
244,375,56032,1,8,0:0:0:0:
464,306,56198,6,0,B|424:318|387:297|387:297|353:326|311:321,1,160,6|4,0:0|0:0,0:0:0:0:
149,286,56698,2,0,P|187:298|236:292,1,80,8|0,0:0|0:0,0:0:0:0:
286,238,56948,1,0,0:0:0:0:
289,221,57032,1,6,0:0:0:0:
243,138,57198,1,4,0:0:0:0:
195,219,57365,1,10,0:0:0:0:
187,29,57532,86,0,P|183:72|116:32,1,143.999995605469,6|0,0:0|2:0,0:0:0:0:
153,47,57865,2,0,P|170:96|175:126,2,80,10|2|0,0:0|0:0|0:0,0:0:0:0:
141,237,58365,1,6,0:0:0:0:
279,194,58532,1,6,0:0:0:0:
72,145,58698,1,8,0:0:0:0:
297,95,58865,6,0,B|312:150|279:194|279:194|298:218|299:247,1,160,6|4,0:0|0:0,0:0:0:0:
411,360,59365,2,0,P|400:312|406:272,1,80,10|0,0:0|0:0,0:0:0:0:
459,223,59615,1,0,0:0:0:0:
476,218,59698,1,6,0:0:0:0:
419,142,59865,1,4,0:0:0:0:
465,57,60032,1,10,0:0:0:0:
291,81,60198,6,0,P|244:122|256:226,1,160,6|4,0:0|0:0,0:0:0:0:
162,78,60698,1,10,0:0:0:0:
298,65,60865,2,0,L|350:56,1,40
99,191,61032,1,6,0:0:0:0:
238,230,61198,1,4,0:0:0:0:
88,110,61365,2,0,B|3:83,1,80,10|4,0:0|0:0,0:0:0:0:
194,45,61698,86,0,P|190:86|204:126,1,80,10|4,0:0|0:0,0:0:0:0:
278,206,62032,1,6,0:0:0:0:
379,74,62198,2,0,P|384:114|372:152,1,80,8|6,0:0|0:0,0:0:0:0:
271,222,62532,1,4,0:0:0:0:
87,166,62698,2,0,B|163:190,1,80,8|0,0:0|0:0,0:0:0:0:
410,266,63032,6,0,B|334:290,1,80,6|4,0:0|0:0,0:0:0:0:
226,322,63365,1,8,0:0:0:0:
356,180,63532,2,0,P|361:158|361:132,1,40,4|4,0:0|0:0,0:0:0:0:
289,39,63698,1,8,0:0:0:0:
248,12,63782,1,8,0:0:0:0:
200,12,63865,1,8,0:0:0:0:
155,30,63948,1,8,0:0:0:0:
108,85,64032,5,8,0:0:0:0:
114,108,64115,1,4,0:0:0:0:
84,172,64198,1,8,0:0:0:0:
94,186,64282,1,4,0:0:0:0:
104,257,64365,85,10,0:0:0:0:
188,188,64532,1,8,0:0:0:0:
114,269,64698,1,6,0:0:0:0:
126,278,65032,1,6,0:0:0:0:
140,285,65365,1,6,0:0:0:0:
188,188,65532,6,0,P|184:152|176:108,1,80,10|4,0:0|0:0,0:0:0:0:
323,248,65865,2,0,P|315:287|311:327,1,80,10|6,0:0|0:0,0:0:0:0:
311,327,66365,2,0,L|272:320,1,40,8|8,0:0|0:0,0:0:0:0:
392,216,66532,2,0,L|431:223,1,40,8|8,0:0|0:0,0:0:0:0:
294,120,66698,5,8,0:0:0:0:
271,126,66781,1,4,0:0:0:0:
210,87,66864,1,8,0:0:0:0:
199,100,66948,1,4,0:0:0:0:
119,104,67031,85,10,0:0:0:0:
188,188,67198,1,8,0:0:0:0:
107,114,67364,1,6,0:0:0:0:
98,126,67698,1,6,0:0:0:0:
91,140,68031,1,6,0:0:0:0:
188,188,68198,6,0,P|208:236|164:280,1,120.000004577637,10|4,0:0|0:0,0:0:0:0:
232,280,68448,2,0,P|244:252|244:220,1,60.0000022888184,0|10,2:0|0:0,0:0:0:0:
120,216,68698,5,4,0:0:0:0:
316,272,68865,1,10,0:0:0:0:
108,212,69032,1,4,0:0:0:0:
328,276,69198,85,8,0:0:0:0:
296,168,69365,1,8,0:0:0:0:
392,108,69532,1,8,0:0:0:0:
360,0,69699,5,6,0:0:0:0:
404,112,69865,1,8,0:0:0:0:
284,164,70032,2,0,P|244:152|204:144,1,80,4|4,0:0|0:0,0:0:0:0:
328,276,70365,2,0,P|408:292|464:244,1,160,10|8,0:0|0:0,0:0:0:0:
385,208,70865,1,4,0:0:0:0:
228,276,71032,6,0,P|187:285|148:298,1,80,6|8,3:0|3:0,3:0:0:0:
76,156,71365,1,4,0:0:0:0:
95,160,71448,1,4,0:0:0:0:
114,165,71531,1,4,0:0:0:0:
134,171,71614,1,4,0:0:0:0:
152,177,71698,86,0,B|188:160|188:160|232:152,1,80,10|4,0:0|0:0,0:0:0:0:
303,300,72032,2,0,B|267:283|267:283|223:275,1,80,4|4,0:0|0:0,0:0:0:0:
432,156,72365,2,0,P|440:116|444:76,1,80,6|4,0:0|0:0,0:0:0:0:
292,96,72698,2,0,P|284:56|280:16,1,80,4|4,0:0|0:0,0:0:0:0:
452,232,73032,6,0,B|492:204|492:204|508:156,1,100,10|4,0:0|0:0,0:0:0:0:
278,181,73282,1,4,0:0:0:0:
268,176,73365,2,0,B|228:148|228:148|212:100,1,100,10|4,0:0|0:0,0:0:0:0:
424,88,73615,1,4,0:0:0:0:
434,83,73699,5,8,0:0:0:0:
236,240,73865,2,0,P|200:228|156:220,1,80,8|4,0:0|0:0,0:0:0:0:
336,332,74198,2,0,B|376:328|376:328|408:351,1,80,10|4,0:0|0:0,0:0:0:0:
417,357,74615,1,4,0:0:0:0:
425,363,74699,85,8,0:0:0:0:
253,158,74865,2,0,P|217:170|173:178,1,80,8|4,0:0|0:0,0:0:0:0:
353,66,75198,2,0,B|405:71|405:71|446:41,1,100,10|0,0:0|2:0,0:0:0:0:
443,43,75698,6,0,B|436:72|436:72|432:96,1,54.0000002059937,8|8,0:0|0:0,0:0:0:0:
384,288,75865,2,0,B|376:259|376:259|372:235,1,54.0000002059937,8|8,0:0|0:0,0:0:0:0:
284,20,76032,2,0,B|276:48|276:48|272:72,1,54.0000002059937,8|8,0:0|0:0,0:0:0:0:
224,264,76199,2,0,B|216:235|216:235|212:211,1,54.0000002059937,8|8,0:0|0:0,0:0:0:0:
43,26,76365,53,6,0:0:0:0:
162,153,76532,2,0,P|221:177|276:166,1,120.000004577637,0|10,0:0|0:0,0:0:0:0:
132,44,76865,1,0,0:0:0:0:
150,164,77032,1,6,0:0:0:0:
328,67,77198,1,4,0:0:0:0:
283,178,77365,1,10,0:0:0:0:
485,186,77532,2,0,P|426:176|372:199,1,120.000004577637,4|2,0:0|0:0,0:0:0:0:
188,350,77865,85,4,0:0:0:0:
202,138,78032,2,0,B|181:188|211:234|211:234|170:275|170:275|220:268|247:303,1,240.000009155274,10|6,0:0|0:0,0:0:0:0:
281,381,78532,1,4,0:0:0:0:
121,211,78698,1,10,0:0:0:0:
356,258,78865,1,0,0:0:0:0:
314,0,79032,5,6,0:0:0:0:
388,93,79198,2,0,P|456:117|509:106,1,120.000004577637,4|10,0:0|0:0,0:0:0:0:
201,7,79532,2,0,L|215:132,1,120.000004577637,4|2,0:0|0:0,0:0:0:0:
327,384,79865,2,0,L|341:259,1,120.000004577637,4|10,0:0|0:0,0:0:0:0:
0,278,80198,6,0,B|46:270|85:295|85:295|120:223|202:192,1,240.000009155274,4|4,0:0|0:0,0:0:0:0:
450,260,80698,2,0,P|390:266|333:249,1,120.000004577637,10|0,0:0|0:0,0:0:0:0:
126,49,81032,1,6,0:0:0:0:
71,181,81198,1,4,0:0:0:0:
408,130,81365,1,10,0:0:0:0:
424,125,81698,85,6,0:0:0:0:
353,30,81865,2,0,P|300:4|236:20,1,120.000004577637,4|10,0:0|0:0,0:0:0:0:
55,185,82198,2,0,B|63:124|63:124|45:59,1,120.000004577637,4|2,0:0|0:0,0:0:0:0:
288,95,82532,2,0,B|279:155|279:155|298:221,1,120.000004577637,4|10,0:0|0:0,0:0:0:0:
512,116,82865,6,0,P|443:68|386:198,1,240.000009155274,4|4,0:0|0:0,0:0:0:0:
447,276,83365,1,10,0:0:0:0:
460,266,83698,1,6,0:0:0:0:
441,146,83864,1,4,0:0:0:0:
386,331,84032,1,10,0:0:0:0:
253,190,84198,2,0,L|330:213,1,60.0000022888184,4|4,0:0|0:0,0:0:0:0:
473,256,84365,85,10,0:0:0:0:
210,328,84532,1,4,0:0:0:0:
302,300,84698,1,4,0:0:0:0:
47,202,84865,37,10,0:0:0:0:
137,236,85032,2,0,L|185:255,1,40,4|0,0:0|0:0,0:0:0:0:
259,30,85198,1,10,0:0:0:0:
274,126,85365,2,0,L|286:209,1,80,4|8,0:0|0:0,0:0:0:0:
141,105,85698,37,6,0:0:0:0:
427,61,85865,1,4,0:0:0:0:
405,154,86032,1,10,0:0:0:0:
121,6,86198,37,4,0:0:0:0:
161,204,86365,2,0,L|170:262,1,40,8|8,0:0|0:0,0:0:0:0:
405,154,86532,2,0,L|394:197,1,40,8|8,0:0|0:0,0:0:0:0:
141,105,86698,5,8,0:0:0:0:
81,144,86781,1,4,0:0:0:0:
62,214,86865,1,8,0:0:0:0:
80,283,86948,1,4,0:0:0:0:
135,330,87032,5,6,0:0:0:0:
274,168,87198,2,0,P|330:150|389:158,1,120.000004577637,4|10,0:0|0:0,0:0:0:0:
240,278,87532,1,4,0:0:0:0:
261,160,87698,1,6,0:0:0:0:
445,258,87865,1,4,0:0:0:0:
399,146,88031,1,10,0:0:0:0:
296,347,88198,86,0,B|237:360|237:360|181:343,1,120.000004577637,4|6,0:0|0:0,0:0:0:0:
6,277,88532,1,4,0:0:0:0:
240,278,88698,2,0,B|274:278|293:224|248:191|210:214|210:214|235:164|209:109,1,240.000009155274,10|4,0:0|0:0,0:0:0:0:
154,40,89198,1,4,0:0:0:0:
305,147,89365,1,10,0:0:0:0:
103,163,89532,1,4,0:0:0:0:
204,357,89698,5,6,0:0:0:0:
275,262,89865,2,0,P|330:234|391:248,1,120.000004577637,4|10,0:0|0:0,0:0:0:0:
114,177,90198,2,0,B|122:239|122:239|101:314,1,120.000004577637,4|6,0:0|0:0,0:0:0:0:
396,232,90532,2,0,B|388:170|388:170|409:95,1,120.000004577637,4|10,0:0|0:0,0:0:0:0:
70,69,90865,6,0,P|113:152|221:86,1,240.000009155274,4|4,0:0|0:0,0:0:0:0:
424,27,91365,2,0,P|366:15|311:37,1,120.000004577637,10|4,0:0|0:0,0:0:0:0:
256,201,91698,1,6,0:0:0:0:
145,82,91865,1,4,0:0:0:0:
475,144,92032,1,10,0:0:0:0:
491,138,92365,85,6,0:0:0:0:
452,252,92532,2,0,P|398:277|340:266,1,120.000004577637,4|10,0:0|0:0,0:0:0:0:
77,151,92865,2,0,B|80:198|80:198|92:219|92:219|95:272,1,120.000004577637,4|6,0:0|0:0,0:0:0:0:
309,374,93198,2,0,B|311:325|311:325|323:304|323:304|326:257,1,120.000004577637,4|10,0:0|0:0,0:0:0:0:
280,44,93532,6,0,P|222:66|161:58,2,120.000004577637,4|6|4,0:0|0:0|0:0,0:0:0:0:
202,236,94032,1,10,0:0:0:0:
258,166,94198,2,0,P|316:144|377:152,2,120.000004577637,4|6|4,0:0|0:0|0:0,0:0:0:0:
443,208,94698,1,10,0:0:0:0:
398,55,94865,1,4,0:0:0:0:
366,271,95032,85,6,0:0:0:0:
382,267,95365,1,2,0:0:0:0:
398,263,95698,1,2,0:0:0:0:
414,259,96032,1,2,0:0:0:0:
463,184,96365,85,2,0:0:0:0:
422,104,96698,1,2,0:0:0:0:
283,174,96865,2,0,L|232:171,1,40,4|4,0:0|0:0,0:0:0:0:
147,166,97032,1,8,0:0:0:0:
373,179,97198,1,8,0:0:0:0:
373,179,97532,6,0,B|320:188|320:188|272:168|272:168|216:176,1,160,6|4,0:0|0:0,0:0:0:0:
324,264,98032,2,0,L|408:248,1,80,4|4,0:0|0:0,0:0:0:0:
312,256,98365,1,10,0:0:0:0:
384,360,98532,1,4,0:0:0:0:
373,179,98698,6,0,P|336:160|296:156,1,80,0|4,0:0|0:0,0:0:0:0:
293,157,98948,1,4,0:0:0:0:
288,158,99032,1,6,0:0:0:0:
388,92,99198,1,4,0:0:0:0:
283,159,99365,1,4,0:0:0:0:
452,208,99532,85,4,0:0:0:0:
278,162,99698,2,0,P|238:170|194:174,1,80,10|4,0:0|0:0,0:0:0:0:
403,5,100032,5,6,0:0:0:0:
373,179,100198,1,0,0:0:0:0:
184,32,100365,1,6,0:0:0:0:
214,206,100531,1,0,0:0:0:0:
388,92,100698,1,4,0:0:0:0:
199,119,100865,2,0,P|159:111|115:107,1,80,4|10,0:0|0:0,0:0:0:0:
229,293,101198,5,4,0:0:0:0:
295,192,101365,1,0,0:0:0:0:
124,268,101532,2,0,P|84:276|44:272,1,80,4|6,0:0|0:0,0:0:0:0:
40,270,101782,1,4,0:0:0:0:
35,268,101865,1,4,0:0:0:0:
214,206,102032,1,4,0:0:0:0:
30,266,102198,1,4,0:0:0:0:
244,380,102365,86,0,P|272:372|304:368,1,60.0000022888184,10|0,0:0|2:0,0:0:0:0:
216,340,102532,2,0,P|235:345|257:348,1,40,10|0,0:0|2:0,0:0:0:0:
229,293,102698,1,6,0:0:0:0:
496,284,102865,6,0,P|448:332|360:324,1,160,6|4,0:0|0:0,0:0:0:0:
428,160,103365,2,0,P|420:192|412:240,1,80,8|4,0:0|0:0,0:0:0:0:
436,144,103698,1,10,0:0:0:0:
496,284,103865,1,4,0:0:0:0:
368,104,104032,6,0,P|396:76|436:64,1,80,0|4,0:0|0:0,0:0:0:0:
440,64,104282,1,4,0:0:0:0:
446,64,104365,1,6,0:0:0:0:
292,24,104532,1,4,0:0:0:0:
452,64,104698,1,4,0:0:0:0:
236,124,104865,85,4,0:0:0:0:
460,64,105032,2,0,P|448:96|436:144,1,83.9999974365235,10|4,0:0|0:0,0:0:0:0:
420,336,105365,6,0,P|424:312|424:296,1,40,10|4,0:0|0:0,0:0:0:0:
369,333,105698,2,0,P|401:381|457:301,1,191.999994140625,6|4,0:0|0:0,0:0:0:0:
340,196,106198,2,0,P|316:192|296:192,1,40,4|0,0:0|0:0,0:0:0:0:
240,272,106365,2,0,P|220:271|200:267,1,40,10|0,0:0|0:0,0:0:0:0:
104,176,106532,2,0,P|96:140|120:96,1,80,4|0,0:0|0:0,0:0:0:0:
248,144,106865,1,4,0:0:0:0:
168,148,107032,1,6,0:0:0:0:
312,100,107198,5,4,0:0:0:0:
240,272,107365,2,0,P|228:304|216:352,1,80,8|4,0:0|0:0,0:0:0:0:
320,88,107698,1,8,0:0:0:0:
370,336,107865,1,8,0:0:0:0:
131,256,108032,1,8,0:0:0:0:
404,128,108198,86,0,P|450:184|427:261,1,160,6|4,0:0|0:0,0:3:0:0:
356,208,108615,1,4,0:0:0:0:
368,204,108698,1,10,0:0:0:0:
380,200,109032,5,6,0:0:0:0:
248,144,109198,1,4,0:0:0:0:
392,196,109365,2,0,P|428:204|472:208,1,80,10|4,0:0|0:0,0:0:0:0:
324,280,109615,1,4,0:0:0:0:
312,276,109698,5,6,0:0:0:0:
260,176,109865,1,6,0:0:0:0:
392,196,110032,1,10,0:0:0:0:
340,96,110198,1,4,0:0:0:0:
312,276,110365,1,6,0:0:0:0:
312,276,110698,86,0,P|272:280|232:288,1,80,10|4,0:0|0:0,0:0:0:0:
340,96,111032,2,0,P|380:92|420:84,1,80,6|0,0:0|0:0,0:0:0:0:
312,276,111365,1,10,0:0:0:0:
340,96,111532,1,4,0:0:0:0:
336,88,111865,5,4,0:0:0:0:
316,284,112032,1,10,0:0:0:0:
332,80,112198,2,0,P|296:64|256:56,1,80,4|6,0:0|0:0,0:0:0:0:
163,54,112448,1,4,0:0:0:0:
153,55,112532,1,6,0:0:0:0:
143,57,112614,1,4,0:0:0:0:
133,58,112697,1,10,0:0:0:0:
276,164,112865,1,4,0:0:0:0:
456,72,113032,6,0,P|448:100|452:132,1,60.0000022888184,8|0,0:0|2:0,0:0:0:0:
416,52,113198,2,0,P|405:69|402:91,1,40,8|0,0:0|2:0,0:0:0:0:
392,16,113365,1,8,0:0:0:0:
508,188,113532,86,0,P|452:212|376:160,1,160,6|4,0:0|0:0,0:0:0:0:
456,72,113948,1,4,0:0:0:0:
454,90,114032,1,10,0:0:0:0:
452,108,114365,5,6,0:0:0:0:
296,12,114532,1,4,0:0:0:0:
450,126,114698,2,0,P|460:164|464:208,1,80,10|4,0:0|0:0,0:0:0:0:
468,296,114948,1,4,0:0:0:0:
467,311,115031,1,6,0:0:0:0:
465,327,115114,1,4,0:0:0:0:
463,343,115198,1,4,0:0:0:0:
460,359,115281,1,4,0:0:0:0:
456,375,115364,5,10,0:0:0:0:
324,256,115532,1,4,0:0:0:0:
450,126,115698,1,6,0:0:0:0:
450,126,116032,86,0,P|424:128|404:132,1,40,10|4,0:0|0:0,0:0:0:0:
456,180,116365,2,0,B|496:152|496:152|500:104|500:104|464:72,1,143.999995605469,6|4,0:0|0:0,0:0:0:0:
388,216,116698,1,8,0:0:0:0:
240,144,116865,6,0,B|216:100|216:100|236:32,1,120,6|4,0:0|0:0,0:0:0:0:
292,220,117198,1,8,0:0:0:0:
420,52,117365,6,0,P|360:40|308:64,1,120,6|4,0:0|0:0,0:0:0:0:
372,140,117698,2,0,B|396:140|413:107|361:87|328:124|352:160|352:160|397:215|353:279,1,240,8|0,0:0|2:0,0:0:0:0:
308,248,118865,86,0,P|408:252|340:324,1,240.000009155274,6|4,0:0|0:0,0:0:0:0:
357,272,119365,2,0,P|388:264|441:256,1,83.9999974365235,10|0,0:0|2:0,0:0:0:0:
439,256,119698,6,0,B|436:236|424:220|424:220|444:188|444:188|420:160|424:108,1,160,6|10,0:0|0:0,0:0:0:0:
357,272,120198,2,0,P|413:332|489:324,1,160,4|4,0:0|0:0,0:0:0:0:
288,200,120698,1,10,0:0:0:0:
316,356,120865,1,4,0:0:0:0:
439,256,121032,2,0,P|428:220|420:176,1,80,6|0,0:0|0:0,0:0:0:0:
488,56,121365,1,10,0:0:0:0:
292,108,121532,6,0,P|232:84|136:68,1,160,6|4,0:0|0:0,0:0:0:0:
160,247,122032,2,0,P|240:255|288:199,1,160,10|6,0:0|0:0,0:0:0:0:
207,175,122532,1,4,0:0:0:0:
360,267,122698,2,0,P|396:259|440:256,1,80,10|4,0:0|0:0,0:0:0:0:
447,257,122948,1,4,0:0:0:0:
455,259,123032,85,2,2:3:0:0:
303,373,123198,1,4,0:0:0:0:
160,247,123365,1,10,0:0:0:0:
356,191,123532,2,0,P|368:225|360:269,1,80,0|6,0:0|0:0,0:0:0:0:
184,144,123865,2,0,P|172:110|180:66,1,80,6|8,0:0|0:0,0:0:0:0:
420,92,124198,6,0,B|364:104|364:104|320:88|320:88|264:100,1,160,6|4,0:0|0:0,0:0:0:0:
292,260,124698,2,0,P|352:284|436:240,1,160,10|6,0:0|0:0,0:0:0:0:
356,191,125198,1,4,0:0:0:0:
208,304,125365,1,10,0:0:0:0:
148,72,125532,6,0,B|184:144|184:144|164:224,1,160,4|4,0:0|0:0,0:0:0:0:
76,156,126032,1,10,0:0:0:0:
264,116,126198,1,0,0:0:0:0:
56,152,126365,1,6,0:0:0:0:
233,212,126532,1,4,0:0:0:0:
36,148,126698,1,10,0:0:0:0:
208,304,126865,1,4,0:0:0:0:
392,92,127032,86,0,P|396:52|380:16,1,80,10|4,0:0|0:0,0:0:0:0:
344,180,127365,1,4,0:0:0:0:
185,124,127532,2,0,P|181:84|197:48,1,80,10|4,0:0|0:0,0:0:0:0:
233,212,127865,1,4,0:0:0:0:
445,178,128032,5,10,0:0:0:0:
440,192,128365,1,6,0:0:0:0:
436,204,128698,1,6,0:0:0:0:
352,232,128865,1,4,0:0:0:0:
352,232,128948,1,4,0:0:0:0:
352,232,129032,2,0,P|360:264|368:316,1,80,8|6,0:0|0:0,0:0:0:0:
233,212,129365,1,8,0:0:0:0:
396,36,129532,6,0,P|340:84|260:72,1,160,6|4,0:0|0:0,0:0:0:0:
484,72,130032,2,0,P|496:104|508:152,1,80,10|0,0:0|0:0,0:0:0:0:
352,232,130365,1,6,0:0:0:0:
200,131,130532,2,0,P|164:119|120:111,1,80,4|10,0:0|0:0,0:0:0:0:
304,336,130865,86,0,P|376:348|436:292,1,160,4|4,0:0|0:0,0:0:0:0:
240,248,131365,1,10,0:0:0:0:
140,340,131532,1,4,0:0:0:0:
40,248,131698,2,0,P|32:212|16:172,1,80,6|0,0:0|0:0,0:0:0:0:
128,36,132032,1,10,0:0:0:0:
240,248,132198,6,0,P|320:256|368:200,1,160,6|4,0:0|0:0,0:0:0:0:
112,182,132698,2,0,P|128:254|140:342,1,160,10|6,0:0|0:0,0:0:0:0:
240,248,133198,1,4,0:0:0:0:
112,182,133365,1,10,0:0:0:0:
264,64,133532,6,0,P|304:104|244:132,1,143.999995605469,4|0,0:0|2:0,0:0:0:0:
268,104,133865,2,0,P|308:112|348:124,1,80,4|8,0:0|0:0,0:0:0:0:
240,248,134198,2,0,P|200:256|160:268,1,80,6|10,0:0|0:0,0:0:0:0:
112,72,134532,1,6,0:0:0:0:
220,336,134698,1,10,0:0:0:0:
52,20,134865,86,0,P|128:-4|184:44,1,160,6|4,0:0|0:0,0:0:0:0:
36,272,135365,2,0,P|24:188|4:116,1,160,10|6,0:0|0:0,0:0:0:0:
240,248,135865,1,4,0:0:0:0:
264,64,136032,1,10,0:0:0:0:
164,280,136198,2,0,P|223:328|295:303,1,160,6|4,0:0|0:0,0:0:0:0:
384,144,136698,5,10,0:0:0:0:
360,332,136865,1,4,0:0:0:0:
396,136,137032,1,6,0:0:0:0:
372,324,137199,1,4,0:0:0:0:
192,192,137365,2,0,P|204:152|212:112,1,80,10|4,0:0|0:0,0:0:0:0:
16,152,137698,5,10,0:0:0:0:
52,316,137865,1,4,0:0:0:0:
56,328,138032,1,6,0:0:0:0:
248,128,138198,1,8,0:0:0:0:
212,292,138365,1,6,0:0:0:0:
208,304,138532,1,4,0:0:0:0:
72,68,138698,86,0,P|118:35|178:41,1,120,10|0,0:0|2:0,0:0:0:0:
248,128,139032,6,0,P|256:152|260:180,2,53.3333333333333,6|8|8,0:0|0:0|0:0,0:0:0:0:
128,160,139365,2,0,P|136:136|140:108,2,53.3333333333333,8|8|8,0:0|0:0|0:0,0:0:0:0:
112,276,139698,5,8,0:0:0:0:
155,330,139809,1,4,0:0:0:0:
223,340,139920,1,8,0:0:0:0:
280,300,140032,1,4,0:0:0:0:
336,260,140143,1,8,0:0:0:0:
405,270,140254,1,4,0:0:0:0:
448,325,140365,85,6,0:0:0:0:
112,276,141698,5,6,0:0:0:0:
415,193,143032,5,6,0:0:0:0:
243,105,144365,86,0,P|201:115|160:116,1,80,6|4,0:0|0:0,0:0:0:0:
271,33,144698,2,0,P|315:79|308:146,1,120,10|8,0:0|0:0,0:0:0:0:
255,181,145032,1,8,0:0:0:0:
344,145,145198,1,4,0:0:0:0:
419,204,145365,6,0,L|406:295,1,80,4|4,0:0|0:0,0:0:0:0:
241,274,145698,2,0,L|275:359,1,80,6|8,0:0|0:0,0:0:0:0:
62,328,146032,2,0,L|152:341,1,80,8|4,0:0|0:0,0:0:0:0:
271,157,146365,2,0,L|180:170,1,80,10|4,0:0|0:0,0:0:0:0:
48,188,146698,1,4,0:0:0:0:
130,239,146865,1,0,0:0:0:0:
79,102,147032,6,0,L|52:27,1,80,6|4,0:0|0:0,0:0:0:0:
152,126,147365,1,8,0:0:0:0:
183,135,147448,1,4,0:0:0:0:
215,129,147532,1,4,0:0:0:0:
242,112,147615,1,4,0:0:0:0:
299,62,147698,2,0,P|339:52|378:51,1,80,10|4,0:0|0:0,0:0:0:0:
322,202,148032,2,0,P|282:192|243:191,1,80,4|4,0:0|0:0,0:0:0:0:
69,361,148365,86,0,B|60:321|60:321|66:277,1,80,6|0,0:0|2:0,0:0:0:0:
229,199,148698,2,0,B|238:239|238:239|232:277,1,80,6|0,0:0|2:0,0:0:0:0:
56,268,149032,2,0,L|67:188,1,80,6|0,0:0|2:0,0:0:0:0:
242,292,149365,2,0,L|229:371,1,80,6|4,0:0|0:0,0:0:0:0:
149,279,149615,1,4,0:0:0:0:
206,203,149698,5,10,0:0:0:0:
229,199,149948,1,6,0:0:0:0:
368,201,150198,2,0,B|308:211|308:211|249:194,1,120.000004577637,10|4,0:0|0:0,0:0:0:0:
221,104,150615,1,4,0:0:0:0:
314,123,150698,2,0,P|336:88|341:49,1,80,10|4,0:0|0:0,0:0:0:0:
220,9,150948,2,0,P|210:47|217:87,1,80,10|4,0:0|0:0,0:0:0:0:
435,140,151198,6,0,P|458:195|436:260,1,120.000004577637,10|4,0:0|0:0,0:0:0:0:
361,291,151615,1,4,0:0:0:0:
368,201,151698,1,8,0:0:0:0:
155,243,151865,1,8,0:0:0:0:
142,232,152365,5,6,0:0:0:0:
242,67,152532,2,0,B|223:124|223:124|231:188,1,120.000004577637,4|10,0:0|0:0,0:0:0:0:
152,8,152865,1,0,0:0:0:0:
258,61,153032,1,6,0:0:0:0:
129,221,153198,1,4,0:0:0:0:
244,191,153365,1,10,0:0:0:0:
341,384,153532,2,0,B|360:327|360:327|352:263,1,120.000004577637,4|2,0:0|0:0,0:0:0:0:
182,122,153865,5,4,0:0:0:0:
414,201,154032,2,0,B|388:174|340:176|340:176|381:135|381:135|348:89|373:33,1,240.000009155274,10|6,0:0|0:0,0:0:0:0:
453,79,154532,1,4,0:0:0:0:
276,105,154698,1,10,0:0:0:0:
352,267,154865,1,0,0:0:0:0:
130,225,155032,5,6,0:0:0:0:
192,124,155198,2,0,P|203:63|182:6,1,120.000004577637,4|10,0:0|0:0,0:0:0:0:
6,252,155532,2,0,B|63:233|63:233|122:240,1,120.000004577637,4|2,0:0|0:0,0:0:0:0:
418,164,155865,2,0,B|361:183|361:183|301:175,1,120.000004577637,4|10,0:0|0:0,0:0:0:0:
427,372,156198,86,0,P|398:281|352:363,1,240.000009155274,4|4,0:0|0:0,0:0:0:0:
222,363,156698,2,0,P|280:374|337:357,1,120.000004577637,10|0,0:0|0:0,0:0:0:0:
446,167,157032,1,6,0:0:0:0:
512,383,157198,1,4,0:0:0:0:
161,279,157365,1,10,0:0:0:0:
144,283,157698,5,6,0:0:0:0:
215,188,157865,2,0,P|222:133|200:71,1,120.000004577637,4|10,0:0|0:0,0:0:0:0:
66,51,158198,2,0,L|186:66,1,120.000004577637,4|2,0:0|0:0,0:0:0:0:
439,192,158532,2,0,L|319:206,1,120.000004577637,4|10,0:0|0:0,0:0:0:0:
98,357,158865,6,0,B|108:289|51:252|51:252|118:229|120:160,1,240.000009155274,4|4,0:0|0:0,0:0:0:0:
9,334,159365,1,10,0:0:0:0:
0,348,159698,1,6,0:0:0:0:
29,164,159865,1,4,0:0:0:0:
170,269,160032,1,10,0:0:0:0:
121,90,160198,2,0,L|113:150,1,60.0000022888184,4|4,0:0|0:0,0:0:0:0:
88,316,160365,37,10,0:0:0:0:
227,172,160532,1,4,0:0:0:0:
187,272,160698,1,4,0:0:0:0:
371,164,160865,37,10,0:0:0:0:
286,230,161032,2,0,P|272:249|263:267,1,40,4|0,0:0|0:0,0:0:0:0:
310,23,161198,2,0,P|297:59|297:106,1,80,10|4,0:0|0:0,0:0:0:0:
345,317,161532,1,8,0:0:0:0:
503,174,161698,85,6,0:0:0:0:
272,222,161865,1,4,0:0:0:0:
311,110,162032,1,10,0:0:0:0:
156,252,162198,37,4,0:0:0:0:
120,41,162365,2,0,L|127:99,1,40,8|8,0:0|0:0,0:0:0:0:
166,266,162532,2,0,L|171:306,1,40,8|8,0:0|0:0,0:0:0:0:
269,29,162698,5,8,0:0:0:0:
342,25,162782,1,4,0:0:0:0:
395,74,162865,1,8,0:0:0:0:
392,146,162948,1,4,0:0:0:0:
340,197,163032,85,6,0:0:0:0:
211,117,163198,2,0,P|160:104|83:117,1,120.000004577637,4|10,0:0|0:0,0:0:0:0:
260,14,163532,1,4,0:0:0:0:
225,127,163698,1,6,0:0:0:0:
50,6,163865,1,4,0:0:0:0:
77,120,164031,1,10,0:0:0:0:
311,89,164198,2,0,B|372:80|372:80|432:105,1,120.000004577637,4|6,0:0|0:0,0:0:0:0:
160,52,164532,5,4,0:0:0:0:
212,239,164698,2,0,B|221:204|208:172|208:172|268:197|268:197|316:169|374:187,1,240.000009155274,10|6,0:0|0:0,0:0:0:0:
452,219,165198,1,4,0:0:0:0:
331,306,165365,1,10,0:0:0:0:
305,94,165532,1,4,0:0:0:0:
123,207,165698,5,6,0:0:0:0:
209,131,165865,2,0,P|225:91|217:9,1,120.000004577637,4|10,0:0|0:0,0:0:0:0:
22,226,166198,2,0,P|80:233|137:215,1,120.000004577637,4|6,0:0|0:0,0:0:0:0:
383,18,166532,2,0,L|372:143,1,120.000004577637,4|10,0:0|0:0,0:0:0:0:
303,329,166865,86,0,B|317:273|313:210|313:210|263:161|287:98,1,240.000009155274,4|4,0:0|0:0,0:0:0:0:
464,115,167365,2,0,P|459:173|418:219,1,120.000004577637,10|4,0:0|0:0,0:0:0:0:
211,242,167698,1,6,0:0:0:0:
398,377,167865,1,4,0:0:0:0:
91,349,168032,1,10,0:0:0:0:
75,352,168365,5,6,0:0:0:0:
106,237,168532,2,0,B|122:178|122:178|115:117,1,120.000004577637,4|10,0:0|0:0,0:0:0:0:
224,277,168865,2,0,P|276:301|336:288,1,120.000004577637,4|6,0:0|0:0,0:0:0:0:
354,121,169198,2,0,P|301:96|241:109,1,120.000004577637,4|10,0:0|0:0,0:0:0:0:
473,161,169532,6,0,B|457:220|457:220|463:278,2,120.000004577637,4|6|4,0:0|0:0|0:0,0:0:0:0:
274,287,170032,1,10,0:0:0:0:
289,199,170198,2,0,B|295:140|295:140|279:81,2,120.000004577637,4|6|4,0:0|0:0|0:0,0:0:0:0:
191,64,170698,1,10,0:0:0:0:
206,230,170865,1,4,0:0:0:0:
63,156,171032,37,6,0:0:0:0:
68,139,171365,1,2,0:0:0:0:
72,123,171698,1,2,0:0:0:0:
76,107,172032,1,2,0:0:0:0:
180,44,172365,5,2,0:0:0:0:
268,284,172698,1,2,0:0:0:0:
448,104,173032,2,0,L|397:114,1,40,8|8,0:0|0:0,0:0:0:0:
336,124,173198,1,4,0:0:0:0:
320,120,173282,1,4,0:0:0:0:
304,116,173365,1,8,0:0:0:0:
288,112,173448,1,4,0:0:0:0:
272,108,173532,2,0,L|224:96,1,40
157,168,173698,69,6,0:0:0:0:
167,206,173781,1,4,0:0:0:0:
160,244,173864,1,4,0:0:0:0:
135,275,173948,1,4,0:0:0:0:
98,291,174031,1,6,0:0:0:0:
92,288,174198,5,4,0:0:0:0:
132,296,174282,1,4,0:0:0:0:
172,304,174365,1,10,0:0:0:0:
212,312,174448,1,4,0:0:0:0:
252,320,174532,1,4,0:0:0:0:
260,320,174698,101,6,0:0:0:0:
300,312,174782,1,4,0:0:0:0:
340,304,174865,1,4,0:0:0:0:
380,296,174948,1,4,0:0:0:0:
420,288,175032,1,6,0:0:0:0:
426,284,175199,5,4,0:0:0:0:
389,268,175282,1,4,0:0:0:0:
364,237,175366,1,6,0:0:0:0:
357,199,175449,1,4,0:0:0:0:
367,161,175532,1,4,0:0:0:0:
372,153,175698,101,6,0:0:0:0:
332,161,175782,1,4,0:0:0:0:
292,169,175865,1,4,0:0:0:0:
164,44,176032,1,6,0:0:0:0:
204,52,176116,1,4,0:0:0:0:
244,60,176199,1,4,0:0:0:0:
224,236,176365,5,6,0:0:0:0:
186,247,176448,1,4,0:0:0:0:
146,242,176531,1,4,0:0:0:0:
113,220,176615,1,4,0:0:0:0:
92,186,176698,1,6,0:0:0:0:
96,180,176865,101,4,0:0:0:0:
100,220,176948,1,4,0:0:0:0:
104,260,177032,1,10,0:0:0:0:
108,300,177115,1,4,0:0:0:0:
112,340,177198,1,4,0:0:0:0:
116,348,177365,5,6,0:0:0:0:
151,330,177448,1,4,0:0:0:0:
190,322,177531,1,4,0:0:0:0:
230,325,177615,1,4,0:0:0:0:
267,339,177698,1,6,0:0:0:0:
272,344,177865,101,4,0:0:0:0:
280,304,177948,1,4,0:0:0:0:
288,264,178032,1,6,0:0:0:0:
296,224,178115,1,4,0:0:0:0:
304,184,178198,1,4,0:0:0:0:
128,32,178365,6,0,L|132:72,1,40,8|8,0:0|0:0,0:0:0:0:
264,56,178532,2,0,L|260:96,1,40,4|4,0:0|0:0,0:0:0:0:
192,164,178698,1,8,0:0:0:0:
193,176,178782,1,4,0:0:0:0:
194,187,178865,1,4,0:0:0:0:
195,198,178948,1,4,0:0:0:0:
196,209,179032,102,0,B|215:223|215:223|226:243,1,47.9999985351563,10|4,0:0|0:0,0:0:0:0:
272,344,179198,1,4,0:0:0:0:
320,336,179282,1,4,0:0:0:0:
368,328,179365,1,6,0:0:0:0:
416,320,179448,1,4,0:0:0:0:
496,300,179532,6,0,B|484:278|484:278|483:255,1,47.9999985351563,8|4,0:0|0:0,0:0:0:0:
476,76,179698,1,6,0:0:0:0:
428,68,179782,1,4,0:0:0:0:
380,60,179865,1,4,0:0:0:0:
332,52,179948,1,4,0:0:0:0:
251,39,180032,102,0,B|247:63|247:63|236:83,1,47.9999985351563,8|4,0:0|0:0,0:0:0:0:
48,120,180198,1,4,0:0:0:0:
52,168,180282,1,4,0:0:0:0:
56,216,180365,1,6,0:0:0:0:
60,264,180448,1,4,0:0:0:0:
68,345,180532,6,0,B|89:333|89:333|112:332,1,47.9999985351563,8|4,0:0|0:0,0:0:0:0:
272,368,180698,1,6,0:0:0:0:
280,320,180782,1,4,0:0:0:0:
288,272,180865,1,4,0:0:0:0:
296,224,180948,1,4,0:0:0:0:
228,192,181032,102,0,B|220:212|220:212|224:240,1,47.9999985351563,8|8,0:0|0:0,0:0:0:0:
364,248,181198,1,4,0:0:0:0:
372,232,181282,2,0,B|380:212|380:212|376:184,1,47.9999985351563,4|4,0:0|0:0,0:0:0:0:
312,80,181448,1,4,0:0:0:0:
304,96,181532,2,0,B|296:116|296:116|300:144,1,47.9999985351563,4|4,0:0|0:0,0:0:0:0:
456,56,181698,6,0,B|433:48|433:48|397:52,1,60.0000022888184,8|8,0:0|0:0,0:0:0:0:
228,192,181865,2,0,B|205:200|205:200|169:196,1,60.0000022888184,8|4,0:0|0:0,0:0:0:0:
24,88,182032,1,4,0:0:0:0:
16,80,182115,1,4,0:0:0:0:
8,72,182198,102,0,B|31:80|31:80|67:76,1,60.0000022888184,8|8,0:0|0:0,0:0:0:0:
245,100,182365,2,0,B|268:92|268:92|304:96,1,60.0000022888184,8|4,0:0|0:0,0:0:0:0:
476,152,182532,1,4,0:0:0:0:
488,148,182615,1,4,0:0:0:0:
500,144,182698,6,0,B|492:167|492:167|496:203,1,60.0000022888184,8|8,0:0|0:0,0:0:0:0:
352,332,182865,2,0,B|344:309|344:309|348:273,1,60.0000022888184,8|4,0:0|0:0,0:0:0:0:
245,100,183032,1,4,0:0:0:0:
233,96,183115,1,4,0:0:0:0:
221,92,183198,102,0,B|229:115|229:115|225:151,1,60.0000022888184,8|8,0:0|0:0,0:0:0:0:
92,292,183365,2,0,B|100:269|100:269|96:233,1,60.0000022888184,8|4,0:0|0:0,0:0:0:0:
68,32,183532,1,4,0:0:0:0:
66,24,183615,1,4,0:0:0:0:
64,16,183698,6,0,B|80:44|80:44|76:84,1,68.0000012969971,8|8,0:0|0:0,0:0:0:0:
354,101,183865,2,0,B|338:129|338:129|342:169,1,68.0000012969971,8|8,0:0|0:0,0:0:0:0:
160,328,184032,1,8,0:0:0:0:
161,333,184115,1,4,0:0:0:0:
162,338,184198,1,8,0:0:0:0:
163,343,184282,1,4,0:0:0:0:
164,348,184365,6,0,P|192:340|216:336,1,51.999997619629,6|0,0:0|0:0,0:0:0:0:
80,220,184532,2,0,P|52:212|28:208,3,51.999997619629,0|0|4|0,0:0|0:0|0:0|0:0,0:0:0:0:
224,144,184865,2,0,P|228:116|220:92,1,51.999997619629,4|0,0:0|0:0,0:0:0:0:
328,268,185032,2,0,P|324:296|332:320,3,51.999997619629,10|0|4|0,0:0|0:0|0:0|0:0,0:0:0:0:
424,128,185365,6,0,P|444:124|480:120,1,51.999997619629
248,232,185532,2,0,P|228:228|192:224,3,51.999997619629,4|4|6|0,0:0|0:0|0:0|0:0,0:0:0:0:
40,140,185865,2,0,P|36:116|40:88,1,51.999997619629
112,296,186032,2,0,P|116:320|112:348,3,51.999997619629,4|0|4|0,0:0|0:0|0:0|0:0,0:0:0:0:
224,144,186365,6,0,B|248:140|248:140|280:144,1,51.999997619629,10|0,0:0|0:0,0:0:0:0:
328,268,186532,1,4,0:0:0:0:
303,298,186615,1,0,0:0:0:0:
268,314,186698,1,0,0:0:0:0:
230,315,186782,1,0,0:0:0:0:
195,298,186865,2,0,B|188:272|188:272|176:248,1,51.999997619629,4|0,0:0|0:0,0:0:0:0:
352,144,187032,86,0,B|341:165|341:165|333:192,1,51.999997619629,6|0,0:0|0:0,0:0:0:0:
432,260,187198,1,0,0:0:0:0:
480,246,187281,1,0,0:0:0:0:
509,204,187364,1,4,0:0:0:0:
504,153,187448,1,0,0:0:0:0:
468,117,187532,6,0,B|444:108|444:108|416:104,1,51.999997619629,4|0,0:0|0:0,0:0:0:0:
264,212,187698,1,10,0:0:0:0:
214,224,187781,1,0,0:0:0:0:
167,203,187864,1,4,0:0:0:0:
142,159,187948,1,0,0:0:0:0:
149,108,188032,6,0,B|160:84|160:84|176:64,1,51.999997619629
376,44,188198,1,4,0:0:0:0:
396,90,188281,1,4,0:0:0:0:
378,138,188364,1,6,0:0:0:0:
333,160,188448,1,0,0:0:0:0:
284,144,188532,86,0,B|260:136|260:136|232:132,1,51.999997619629
88,224,188698,1,4,0:0:0:0:
98,274,188781,1,0,0:0:0:0:
135,309,188864,1,4,0:0:0:0:
185,319,188948,1,0,0:0:0:0:
232,299,189032,6,0,B|256:292|256:292|284:288,1,51.999997619629,10|0,0:0|0:0,0:0:0:0:
149,108,189198,2,0,B|143:131|143:131|133:158,1,51.999997619629,6|0,0:0|0:0,0:0:0:0:
356,131,189365,5,6,0:0:0:0:
346,122,189448,1,0,0:0:0:0:
336,113,189531,1,4,0:0:0:0:
328,103,189615,1,0,0:0:0:0:
320,92,189698,86,0,P|311:68|307:43,1,51.999997619629,6|0,0:0|0:0,0:0:0:0:
452,140,189865,2,0,P|447:165|438:189,3,51.999997619629,0|0|4|0,0:0|0:0|0:0|0:0,0:0:0:0:
288,232,190198,2,0,P|292:257|301:281,1,51.999997619629,4|0,0:0|0:0,0:0:0:0:
419,378,190365,2,0,P|428:353|432:328,3,51.999997619629,10|0|4|0,0:0|0:0|0:0|0:0,0:0:0:0:
233,300,190698,6,0,P|213:293|181:288,1,51.999997619629
16,364,190865,2,0,P|41:360|66:352,3,51.999997619629,4|0|6|0,0:0|0:0|0:0|0:0,0:0:0:0:
184,188,191198,2,0,P|158:191|133:199,1,51.999997619629
292,344,191365,2,0,P|316:352|342:355,3,51.999997619629,4|0|4|0,0:0|0:0|0:0|0:0,0:0:0:0:
440,148,191698,6,0,P|416:140|388:136,1,51.999997619629,10|0,0:0|0:0,0:0:0:0:
184,188,191865,1,4,0:0:0:0:
219,203,191948,1,0,0:0:0:0:
257,200,192031,1,0,0:0:0:0:
289,179,192115,1,0,0:0:0:0:
307,145,192198,2,0,B|312:116|312:116|320:92,1,51.999997619629,4|4,0:0|0:0,0:0:0:0:
500,108,192365,86,0,B|507:129|507:129|511:158,1,51.999997619629,6|4,0:0|0:0,0:0:0:0:
496,324,192532,1,0,0:0:0:0:
458,358,192615,1,0,0:0:0:0:
407,362,192698,1,4,0:0:0:0:
364,335,192782,1,0,0:0:0:0:
347,286,192865,6,0,B|332:264|332:264|312:248,1,51.999997619629,4|0,0:0|0:0,0:0:0:0:
72,332,193032,1,10,0:0:0:0:
115,359,193115,1,0,0:0:0:0:
166,359,193198,1,4,0:0:0:0:
208,330,193282,1,0,0:0:0:0:
228,283,193365,6,0,B|224:256|224:256|212:232,1,51.999997619629
80,152,193532,1,4,0:0:0:0:
56,106,193615,1,0,0:0:0:0:
66,56,193698,1,6,0:0:0:0:
104,22,193782,1,0,0:0:0:0:
155,19,193865,86,0,B|180:24|180:24|200:40,1,51.999997619629
308,188,194032,1,6,0:0:0:0:
357,201,194115,1,0,0:0:0:0:
405,184,194198,1,4,0:0:0:0:
435,143,194282,1,0,0:0:0:0:
435,91,194365,6,0,B|412:72|412:72|384:64,1,60.0000022888184,8|8,0:0|0:0,0:0:0:0:
156,192,194532,2,0,B|179:172|179:172|207:164,1,60.0000022888184,4|4,0:0|0:0,0:0:0:0:
364,335,194698,1,4,0:0:0:0:
363,341,194782,1,4,0:0:0:0:
362,347,194865,1,4,0:0:0:0:
361,353,194948,1,8,0:0:0:0:
360,359,195032,6,0,B|349:330|349:330|351:301,1,60.0000022888184,6|0,0:0|0:0,0:0:0:0:
378,160,195198,1,0,0:0:0:0:
378,160,195282,1,4,0:0:0:0:
378,160,195365,2,0,B|388:188|388:188|386:217,1,60.0000022888184,10|0,0:0|0:0,0:0:0:0:
231,206,195532,86,0,L|297:199,1,60.0000022888184,4|2,0:0|0:0,0:0:0:0:
170,334,195698,1,0,0:0:0:0:
170,334,195782,1,4,0:0:0:0:
170,334,195865,2,0,L|110:340,1,60.0000022888184,10|0,0:0|0:0,0:0:0:0:
29,383,196032,6,0,B|18:355|18:355|21:326,1,60.0000022888184,10|8,0:0|0:0,0:0:0:0:
250,290,196198,2,0,B|261:318|261:318|259:348,1,60.0000022888184,4|4,0:0|0:0,0:0:0:0:
35,214,196365,6,0,L|101:207,1,60.0000022888184,6|0,0:0|0:0,0:0:0:0:
225,118,196532,1,0,0:0:0:0:
225,118,196615,1,4,0:0:0:0:
225,118,196698,2,0,L|165:124,1,60.0000022888184,10|0,0:0|0:0,0:0:0:0:
315,133,196865,86,0,B|317:103|317:103|306:75,1,60.0000022888184,4|2,0:0|0:0,0:0:0:0:
439,15,197032,1,0,0:0:0:0:
439,15,197115,1,4,0:0:0:0:
439,15,197198,2,0,B|436:44|436:44|447:72,1,60.0000022888184,10|0,0:0|0:0,0:0:0:0:
503,183,197365,6,0,L|443:176,1,60.0000022888184,6|4,0:0|0:0,0:0:0:0:
275,213,197532,2,0,L|334:219,1,60.0000022888184,4|4,0:0|0:0,0:0:0:0:
475,288,197698,5,6,0:0:0:0:
479,306,197782,1,0,0:0:0:0:
483,325,197865,1,0,0:0:0:0:
487,344,197948,1,4,0:0:0:0:
491,363,198032,2,0,B|461:365|461:365|433:354,1,60.0000022888184,10|0,0:0|0:0,0:0:0:0:
334,219,198198,85,4,0:0:0:0:
338,201,198282,1,2,0:0:0:0:
342,182,198365,1,0,0:0:0:0:
346,163,198448,1,4,0:0:0:0:
350,144,198532,2,0,B|320:141|320:141|292:152,1,60.0000022888184,10|0,0:0|0:0,0:0:0:0:
146,241,198698,5,6,0:0:0:0:
121,286,198782,1,8,0:0:0:0:
127,337,198865,1,8,0:0:0:0:
161,374,198948,1,8,0:0:0:0:
211,383,199032,2,0,B|240:385|240:385|268:374,1,60.0000022888184,6|0,0:0|0:0,0:0:0:0:
216,188,199198,5,0,0:0:0:0:
199,184,199282,1,4,0:0:0:0:
182,180,199365,1,10,0:0:0:0:
165,176,199448,1,0,0:0:0:0:
148,172,199532,2,0,L|223:148,1,60.0000022888184,4|2,0:0|0:0,0:0:0:0:
333,120,199698,85,8,0:0:0:0:
350,116,199782,1,4,0:0:0:0:
367,112,199865,1,8,0:0:0:0:
384,108,199948,1,4,0:0:0:0:
401,104,200032,2,0,L|326:80,1,60.0000022888184,4|4,0:0|0:0,0:0:0:0:
100,27,200198,1,8,0:0:0:0:
100,27,200282,1,4,0:0:0:0:
100,27,200365,6,0,B|89:55|89:55|91:84,1,60.0000022888184,6|0,0:0|0:0,0:0:0:0:
139,229,200532,1,0,0:0:0:0:
139,229,200615,1,4,0:0:0:0:
139,229,200698,2,0,B|149:200|149:200|147:171,1,60.0000022888184,10|0,0:0|0:0,0:0:0:0:
0,179,200865,6,0,L|59:186,1,60.0000022888184,4|0,0:0|0:0,0:0:0:0:
195,324,201032,1,2,0:0:0:0:
195,324,201115,1,4,0:0:0:0:
195,324,201198,2,0,L|135:317,1,60.0000022888184,8|0,0:0|0:0,0:0:0:0:
260,242,201365,2,0,L|314:217,1,60.0000022888184,6|4,0:0|0:0,0:0:0:0:
240,139,201532,2,0,L|275:90,1,60.0000022888184,4|4,0:0|0:0,0:0:0:0:
177,0,201698,86,0,L|171:59,1,60.0000022888184,10|0,0:0|0:0,0:0:0:0:
128,222,201865,1,4,0:0:0:0:
128,222,201948,1,0,0:0:0:0:
128,222,202032,2,0,L|134:162,1,60.0000022888184,2|4,0:0|0:0,0:0:0:0:
288,79,202198,6,0,B|316:68|316:68|345:70,1,60.0000022888184,10|0,0:0|0:0,0:0:0:0:
484,152,202365,1,6,0:0:0:0:
484,152,202448,1,0,0:0:0:0:
484,152,202532,2,0,B|455:162|455:162|426:160,1,60.0000022888184,0|4,0:0|0:0,0:0:0:0:
213,122,202698,6,0,L|219:181,1,60.0000022888184,10|4,0:0|0:0,0:0:0:0:
350,278,202865,2,0,L|343:218,1,60.0000022888184,8|8,0:0|0:0,0:0:0:0:
202,271,203032,86,0,B|231:273|231:273|260:263,1,60.0000022888184,6|0,0:0|0:0,0:0:0:0:
359,127,203198,1,0,0:0:0:0:
359,127,203282,1,4,0:0:0:0:
359,127,203365,2,0,B|330:125|330:125|301:135,1,60.0000022888184,10|0,0:0|0:0,0:0:0:0:
187,262,203532,6,0,L|193:203,1,60.0000022888184,4|2,0:0|0:0,0:0:0:0:
118,81,203698,1,0,0:0:0:0:
118,81,203782,1,4,0:0:0:0:
118,81,203865,2,0,L|112:140,1,60.0000022888184,10|0,0:0|0:0,0:0:0:0:
100,299,204032,5,6,0:0:0:0:
139,343,204115,1,4,0:0:0:0:
197,356,204198,1,4,0:0:0:0:
252,331,204282,1,4,0:0:0:0:
281,278,204365,2,0,B|291:249|291:249|289:220,1,60.0000022888184,10|4,0:0|0:0,0:0:0:0:
244,56,204532,86,0,B|242:85|242:85|252:114,1,60.0000022888184,4|4,0:0|0:0,0:0:0:0:
386,131,204698,1,10,0:0:0:0:
386,131,204781,1,0,0:0:0:0:
386,131,204864,1,4,0:0:0:0:
408,122,204948,1,4,0:0:0:0:
438,124,205032,1,10,0:0:0:0:
465,146,205115,1,0,0:0:0:0:
471,187,205198,1,8,0:0:0:0:
443,226,205282,1,0,0:0:0:0:
422,275,205365,1,8,0:0:0:0:
432,334,205448,1,0,0:0:0:0:
494,372,205532,54,0,B|458:355|420:373|420:373|432:334|432:334|376:377|316:353,1,240.000009155274,6|4,0:0|0:0,0:0:0:0:
143,225,206032,1,6,0:0:0:0:
140,208,206365,1,10,0:0:0:0:
93,319,206532,1,4,0:0:0:0:
256,281,206698,1,6,0:0:0:0:
135,102,206865,1,4,0:0:0:0:
135,102,206948,1,4,0:0:0:0:
135,102,207032,6,0,B|115:102|95:112|95:112|77:102|57:103,2,80,6|8|2,0:0|0:0|0:0,0:0:0:0:
36,266,207532,2,0,P|35:226|49:189,1,80,4|10,0:0|0:0,0:0:0:0:
299,107,207865,86,0,P|282:169|232:109,1,159.599993424683,4|6,0:0|0:0,0:0:0:0:
223,109,208198,6,0,P|276:177|297:94,1,212.799991232911,4|4,0:0|0:0,0:0:0:0:
245,39,208615,6,0,P|284:19|323:22,1,80,0|0,2:0|2:0,0:0:0:0:
448,65,208865,1,0,0:0:0:0:
455,233,209032,2,0,P|438:198|434:157,1,80,10|4,0:0|0:0,0:0:0:0:
437,79,209282,86,0,B|441:118|441:118|460:154|460:154|450:193|450:193|454:232,1,160,0|4,2:0|0:0,0:0:0:0:
486,334,209615,1,4,0:0:0:0:
470,340,209698,6,0,P|430:342|391:330,1,80,6|8,0:0|0:0,0:0:0:0:
300,212,209948,2,0,P|307:251|327:285,1,80,0|0,2:0|2:0,0:0:0:0:
305,131,210198,1,0,0:0:0:0:
137,237,210365,2,0,P|177:228|216:239,1,80,10|4,0:0|0:0,0:0:0:0:
133,324,210615,2,0,B|53:314,1,80,0|0,2:0|2:0,0:0:0:0:
60,330,210865,6,0,B|140:340|140:340|173:319,1,120,6|0,0:0|2:0,0:0:0:0:
205,97,211198,2,0,B|194:142|223:181|223:181|175:183|157:237|201:279|244:254,2,240,4|10|4,0:0|0:0|0:0,0:0:0:0:
297,198,212282,1,4,0:0:0:0:
370,221,212365,86,0,P|413:225|450:213,1,80,6|8,0:0|0:0,0:0:0:0:
298,83,212698,2,0,P|293:103|294:122,1,40,2|0,0:0|2:0,0:0:0:0:
356,33,212865,2,0,B|312:41|298:83|298:83|287:24|232:-7|177:9,1,240,4|6,0:0|0:0,0:0:0:0:
95,182,213532,6,0,B|71:150|80:105|80:105|61:114|49:133,1,120,4|0,0:0|2:0,0:0:0:0:
48,242,213865,2,0,P|84:257|124:254,1,80,10|4,0:0|0:0,0:0:0:0:
242,138,214198,2,0,P|206:122|167:127,1,80,4|10,0:0|0:0,0:0:0:0:
239,307,214532,1,0,0:0:0:0:
330,233,214698,1,4,0:0:0:0:
425,322,214865,6,0,P|450:327|476:327,3,40,4|4|4|0,0:0|0:0|0:0|0:0,0:0:0:0:
342,220,215198,2,0,B|330:182|330:182|335:142,1,80,10|4,0:0|0:0,0:0:0:0:
222,313,215532,1,4,0:0:0:0:
255,141,215698,2,0,B|260:101|260:101|248:63,2,80,8|4|4,0:0|0:0|0:0,0:0:0:0:
48,72,216198,86,0,P|120:52|176:108,1,160,6|4,0:0|0:0,0:0:0:0:
116,212,216698,2,0,B|104:172|104:172|100:128,1,83.9999974365235,6|0,0:0|2:0,0:0:0:0:
120,108,217032,6,0,P|112:168|144:220,1,120,10|0,0:0|2:0,0:0:0:0:
260,224,217365,2,0,P|248:220|216:216,1,40,0|0,0:0|2:0,0:0:0:0:
201,135,217532,6,0,P|260:140|316:164,1,120.000004577637,4|8,0:0|0:0,0:0:0:0:
184,116,218032,2,0,P|217:87|259:70,1,90.0000034332277,2|0,0:0|2:0,0:0:0:0:
160,104,218365,2,0,P|163:60|181:18,1,90.0000034332277,6|0,0:0|2:0,0:0:0:0:
8,184,218698,86,0,P|76:200|16:120,1,240,6|4,0:0|0:0,0:0:0:0:
51,157,219365,6,0,P|84:161|105:167,1,53.3333333333333,6|0,0:0|0:0,0:0:0:0:
180,208,219587,1,0,0:0:0:0:
216,288,219698,2,0,P|220:312|220:340,1,53.3333333333333,10|0,0:0|0:0,0:0:0:0:
180,208,219921,2,0,P|176:184|176:156,1,53.3333333333333
428,264,220198,6,0,B|388:272|360:288|360:288|320:244|260:224,1,191.999994140625,4|8,0:0|0:0,0:0:0:0:
51,157,220698,86,0,P|84:161|105:167,2,53.3333333333333,6|0|0,0:0|0:0|0:0,0:0:0:0:
219,340,221032,5,10,0:0:0:0:
235,304,221115,1,0,0:0:0:0:
228,265,221198,1,4,0:0:0:0:
203,235,221282,1,0,0:0:0:0:
171,190,221365,5,6,0:0:0:0:
181,136,221448,1,0,0:0:0:0:
225,104,221532,1,4,0:0:0:0:
279,112,221615,1,0,0:0:0:0:
312,156,221698,86,0,B|328:192|322:240|322:240|364:168|452:164,1,240.000009155274,2|10,0:0|0:0,0:0:0:0:
380,352,222532,1,0,0:0:0:0:
328,364,222615,1,0,0:0:0:0:
284,336,222698,2,0,P|264:324|248:320,1,40
176,332,222865,6,0,P|216:336|248:224,1,180.000006866455,4|2,0:0|0:0,0:0:0:0:
328,364,223532,2,0,P|376:335|438:323,1,120.000004577637,4|4,0:0|0:0,0:0:0:0:
181,136,224032,6,0,B|261:152|261:152|297:136|297:136|377:152,1,200,6|0,0:0|2:0,0:0:0:0:
210,111,224532,2,0,B|262:121|262:121|292:168|292:168|344:178,1,160,8|0,0:0|0:0,0:0:0:0:
152,161,225032,86,0,P|288:112|163:52,1,360.000013732911
422,150,225698,6,0,B|380:152|342:178|342:178|296:116|209:111,1,240,6|0,0:0|0:0,0:0:0:0:
472,284,226365,6,0,P|464:308|456:340,1,53.3333333333333,10|0,0:0|0:0,0:0:0:0:
327,229,226587,2,0,P|335:205|343:173,1,53.3333333333333,0|4,0:0|0:0,0:0:0:0:
205,304,226810,2,0,P|197:328|189:360,1,53.3333333333333
104,192,227032,86,0,P|92:132|76:76,1,120,6|6,0:0|0:0,0:0:0:0:
184,180,227698,2,0,P|244:188|284:148,1,120.000004577637,10|6,0:0|0:0,0:0:0:0:
116,142,228198,6,0,B|104:194|104:194|132:238|132:238|120:294,1,160,6|4,0:0|0:0,0:0:0:0:
126,301,228865,1,4,0:0:0:0:
131,310,228948,1,4,0:0:0:0:
136,319,229032,6,0,P|164:320|188:328,1,53.3333333333333,10|0,0:0|0:0,0:0:0:0:
308,152,229254,2,0,P|280:151|256:143,1,53.3333333333333
396,304,229476,2,0,P|424:305|448:313,1,53.3333333333333
468,40,229698,86,0,P|400:28|332:84,1,160,6|4,0:0|0:0,0:0:0:0:
420,124,230198,1,4,0:0:0:0:
246,40,230365,2,0,P|210:28|166:20,1,80,10|4,0:0|0:0,0:0:0:0:
112,140,230615,1,4,0:0:0:0:
108,152,230698,2,0,P|144:140|188:132,1,80,10|4,0:0|0:0,0:0:0:0:
304,188,230948,1,4,0:0:0:0:
340,220,231032,5,8,0:0:0:0:
351,265,231115,1,8,0:0:0:0:
333,309,231198,1,4,0:0:0:0:
294,335,231282,1,4,0:0:0:0:
228,348,231365,6,0,P|204:340|176:336,1,51.999997619629,8|4,0:0|0:0,0:0:0:0:
28,348,231532,1,4,0:0:0:0:
22,350,231615,1,4,0:0:0:0:
16,352,231698,85,8,0:0:0:0:
56,320,231781,1,8,0:0:0:0:
65,271,231864,1,4,0:0:0:0:
38,225,231948,1,4,0:0:0:0:
14,179,232031,1,8,0:0:0:0:
23,128,232114,1,4,0:0:0:0:
59,96,232198,6,0,P|137:108|163:180,1,160,6|4,0:0|0:0,0:0:0:0:
88,167,232615,1,4,0:0:0:0:
212,77,232698,2,0,P|255:64|291:68,1,80,10|0,0:0|0:0,0:0:0:0:
176,188,232948,1,0,0:0:0:0:
261,155,233032,1,6,0:0:0:0:
213,307,233198,1,4,0:0:0:0:
252,170,233365,1,10,0:0:0:0:
315,335,233532,6,0,L|331:378,1,40,4|4,0:0|0:0,0:0:0:0:
243,185,233698,1,6,0:0:0:0:
443,244,233865,1,4,0:0:0:0:
317,316,234032,1,10,0:0:0:0:
376,86,234198,1,4,0:0:0:0:
407,341,234365,1,6,0:0:0:0:
147,215,234532,1,4,0:0:0:0:
443,154,234698,1,10,0:0:0:0:
239,351,234865,86,0,B|260:273|260:273|249:191,1,160,6|4,0:0|0:0,0:0:0:0:
49,243,235365,2,0,P|36:286|40:322,1,80,10|0,0:0|0:0,0:0:0:0:
169,264,235615,1,0,0:0:0:0:
64,236,235698,1,6,0:0:0:0:
263,183,235865,1,4,0:0:0:0:
80,228,236032,1,10,0:0:0:0:
148,55,236198,6,0,L|169:0,1,40,4|4,0:0|0:0,0:0:0:0:
96,220,236365,1,6,0:0:0:0:
269,102,236532,1,4,0:0:0:0:
156,70,236698,1,10,0:0:0:0:
319,267,236865,1,4,0:0:0:0:
67,127,237032,1,6,0:0:0:0:
253,22,237198,1,6,0:0:0:0:
113,213,237365,1,8,0:0:0:0:
344,195,237532,6,0,P|394:252|369:324,1,160,6|4,0:0|0:0,0:0:0:0:
231,231,237948,1,4,0:0:0:0:
338,181,238032,2,0,P|350:141|348:98,1,80,10|0,0:0|0:0,0:0:0:0:
319,267,238365,1,6,0:0:0:0:
258,67,238532,1,4,0:0:0:0:
215,226,238698,1,10,0:0:0:0:
150,55,238865,86,0,L|129:1,1,40,4|4,0:0|0:0,0:0:0:0:
220,210,239032,1,6,0:0:0:0:
29,140,239198,1,4,0:0:0:0:
144,72,239365,1,10,0:0:0:0:
74,286,239532,1,4,0:0:0:0:
266,168,239698,1,6,0:0:0:0:
45,131,239865,1,4,0:0:0:0:
195,300,240032,1,10,0:0:0:0:
272,127,240198,6,0,B|276:145|266:168|266:168|322:133|379:157,1,160,6|4,0:0|0:0,0:0:0:0:
183,132,240698,1,10,0:0:0:0:
390,76,240865,2,0,P|439:101|451:198,1,160,0|4,0:0|0:0,0:0:0:0:
250,190,241365,1,10,0:0:0:0:
444,213,241532,6,0,P|439:240|441:265,1,40,4|0,0:0|0:0,0:0:0:0:
471,382,241698,1,0,0:0:0:0:
471,382,241782,1,8,0:0:0:0:
471,382,241865,2,0,L|431:377,1,40,8|8,0:0|0:0,0:0:0:0:
320,336,242032,2,0,P|306:339|290:347,2,26.6666666666667,8|8|8,0:0|0:0|0:0,0:0:0:0:
173,380,242198,86,0,P|188:336|188:303,1,80,4|8,0:0|0:0,0:0:0:0:
133,226,242448,1,8,0:0:0:0:
148,264,242532,1,8,0:0:0:0:
180,288,242615,1,8,0:0:0:0:
219,293,242698,1,8,0:0:0:0:
256,277,242782,1,8,0:0:0:0:
283,237,242865,6,0,B|292:192|259:160|259:160|257:127|268:113|268:113|278:126|281:142,1,160,6|4,0:0|0:0,0:0:0:0:
209,218,243282,1,4,0:0:0:0:
359,256,243365,2,0,P|362:217|355:176,1,80,10|0,0:0|0:0,0:0:0:0:
293,33,243698,1,6,0:0:0:0:
444,124,243865,1,4,0:0:0:0:
221,95,244032,5,10,0:0:0:0:
392,39,244198,2,0,L|432:24,1,40,4|4,0:0|0:0,0:0:0:0:
306,142,244365,2,0,P|300:182|309:221,1,80,6|4,0:0|0:0,0:0:0:0:
378,366,244698,1,10,0:0:0:0:
390,177,244865,85,4,0:0:0:0:
200,301,245032,1,6,0:0:0:0:
383,272,245198,1,6,0:0:0:0:
133,215,245365,1,8,0:0:0:0:
188,366,245532,6,0,B|207:340|200:301|200:301|238:273|241:220,1,160,6|4,0:0|0:0,0:0:0:0:
111,320,246032,1,10,0:0:0:0:
207,134,246198,2,0,P|232:166|242:205,2,80,4|6|4,0:0|0:0|0:0,0:0:0:0:
75,77,246698,1,10,0:0:0:0:
328,35,246865,1,4,0:0:0:0:
328,35,246948,1,4,0:0:0:0:
328,35,247032,5,6,0:0:0:0:
374,46,247115,1,0,0:0:0:0:
402,94,247198,1,4,0:0:0:0:
394,158,247282,1,0,0:0:0:0:
346,211,247365,85,10,0:0:0:0:
337,266,247448,1,0,0:0:0:0:
359,308,247532,1,4,0:0:0:0:
394,325,247615,1,0,0:0:0:0:
411,251,247698,6,0,P|432:246|454:244,1,40,6|0,0:0|0:0,0:0:0:0:
240,315,247865,2,0,P|261:320|283:322,1,40,6|0,0:0|0:0,0:0:0:0:
153,250,248032,1,8,0:0:0:0:
131,216,248115,1,0,0:0:0:0:
125,176,248198,86,0,B|121:137|147:100|147:100|174:64|170:23,1,160,6|4,0:0|0:0,0:0:0:0:
94,39,248615,1,4,0:0:0:0:
201,161,248698,1,10,0:0:0:0:
361,61,248865,38,0,P|409:47|450:50,2,80,0|6|4,0:0|0:0|0:0,0:0:0:0:
502,92,249365,1,10,0:0:0:0:
224,51,249532,53,4,0:0:0:0:
246,60,249615,1,4,0:0:0:0:
269,65,249698,2,0,P|309:64|347:52,1,80,6|4,0:0|0:0,0:0:0:0:
111,13,250032,37,10,0:0:0:0:
144,238,250198,2,0,P|145:198|167:161,2,80,4|6|4,0:0|0:0|0:0,0:0:0:0:
75,111,250698,1,10,0:0:0:0:
224,380,250865,102,0,B|243:351|247:306|219:272|219:272|230:246|224:220|224:220|237:235|241:255,1,207.999990478516,6|0,0:0|0:0,0:0:0:0:
149,329,251365,1,8,0:0:0:0:
348,115,251532,2,0,B|308:86|246:98|217:143|217:143|214:95|268:74,1,240.000009155274,6|4,0:0|0:0,0:0:0:0:
427,32,252032,1,10,0:0:0:0:
296,190,252198,2,0,P|305:226|326:262,1,80,4|4,0:0|0:0,0:0:0:0:
454,367,252365,5,8,0:0:0:0:
185,333,252532,1,4,0:0:0:0:
417,282,252698,1,4,0:0:0:0:
192,318,252865,1,4,0:0:0:0:
248,140,253032,5,8,0:0:0:0:
227,88,253115,1,4,0:0:0:0:
176,64,253198,1,0,0:0:0:0:
121,77,253282,1,0,0:0:0:0:
85,140,253365,1,8,0:0:0:0:
116,146,253448,1,4,0:0:0:0:
147,151,253531,1,0,0:0:0:0:
178,157,253615,1,0,0:0:0:0:
248,140,253698,37,10,0:0:0:0:
48,76,253865,1,8,0:0:0:0:
253,148,254032,1,6,0:0:0:0:
257,157,254365,1,6,0:0:0:0:
260,166,254698,1,6,0:0:0:0:
132,244,254865,6,0,P|96:232|52:224,1,80,10|4,0:0|0:0,0:0:0:0:
260,336,255198,2,0,P|296:324|340:316,1,80,10|6,0:0|0:0,0:0:0:0:
337,316,255698,2,0,P|332:296|328:272,1,40,8|8,0:0|0:0,0:0:0:0:
132,244,255865,2,0,P|137:264|141:288,1,40,8|8,0:0|0:0,0:0:0:0:
260,166,256032,5,8,0:0:0:0:
265,143,256115,1,4,0:0:0:0:
204,92,256198,1,4,0:0:0:0:
200,76,256282,1,4,0:0:0:0:
264,28,256365,85,10,0:0:0:0:
178,244,256532,1,8,0:0:0:0:
272,22,256699,1,6,0:0:0:0:
281,18,257032,1,6,0:0:0:0:
290,15,257365,1,6,0:0:0:0:
178,244,257532,5,8,0:0:0:0:
108,268,257615,1,4,0:0:0:0:
38,292,257698,2,0,L|34:320,2,26.6666666666667,8|8|4,0:0|0:0|0:0,0:0:0:0:
60,100,257865,5,4,0:0:0:0:
61,91,257948,1,4,0:0:0:0:
62,82,258032,2,0,B|72:112|72:112|56:140,1,60.0000022888184,8|8,0:0|0:0,0:0:0:0:
240,112,258198,1,8,0:0:0:0:
239,121,258281,1,4,0:0:0:0:
238,130,258365,2,0,B|228:100|228:100|244:72,1,60.0000022888184,8|8,0:0|0:0,0:0:0:0:
108,268,258532,85,8,0:0:0:0:
157,314,258615,1,8,0:0:0:0:
223,303,258698,1,4,0:0:0:0:
252,242,258782,1,4,0:0:0:0:
287,185,258865,1,4,0:0:0:0:
353,173,258948,1,4,0:0:0:0:
394,228,259032,6,0,P|400:256|392:288,1,60.0000022888184,10|0,0:0|0:0,0:0:0:0:
168,156,259198,2,0,P|162:128|170:96,1,60.0000022888184
408,72,259365,2,0,P|368:84|328:92,1,80,6|4,0:0|0:0,0:0:0:0:
157,314,259698,2,0,P|197:302|237:294,1,80,10|0,0:0|0:0,0:0:0:0:
200,32,260032,5,6,0:0:0:0:
140,320,260198,1,4,0:0:0:0:
116,92,260365,2,0,P|188:76|246:135,1,160,10|6,0:0|0:0,0:0:0:0:
168,156,260865,1,4,0:0:0:0:
368,80,261032,86,0,P|400:72|448:64,1,80,10|4,0:0|0:0,0:0:0:0:
328,184,261365,2,0,P|360:176|408:168,1,80,10|4,0:0|0:0,0:0:0:0:
136,224,261698,6,0,B|104:204|104:204|92:164,1,80,10|4,0:0|0:0,0:0:0:0:
280,304,261948,1,0,0:0:0:0:
288,312,262032,2,0,B|268:344|268:344|228:356,1,80,10|4,0:0|0:0,0:0:0:0:
368,168,262282,1,0,0:0:0:0:
376,160,262366,2,0,B|408:180|408:180|420:220,1,80,10|4,0:0|0:0,0:0:0:0:
232,80,262615,1,0,0:0:0:0:
224,72,262699,2,0,B|244:40|244:40|284:28,1,80,10|4,0:0|0:0,0:0:0:0:
144,216,262948,1,4,0:0:0:0:
136,224,263032,6,0,L|128:144,1,80,10|4,0:0|0:0,0:0:0:0:
353,239,263448,1,4,0:0:0:0:
360,247,263532,2,0,L|368:167,1,80,10|4,0:0|0:0,0:0:0:0:
240,376,263948,1,4,0:0:0:0:
233,384,264032,2,0,L|228:344,1,40,10|4,0:0|0:0,0:0:0:0:
280,244,264365,85,8,0:0:0:0:
128,120,264615,1,8,0:0:0:0:
380,36,264865,1,10,0:0:0:0:
380,36,265698,37,6,0:0:0:0:
238,141,265865,2,0,P|177:147|127:119,1,120.000004577637,4|10,0:0|0:0,0:0:0:0:
320,100,266198,1,0,0:0:0:0:
288,228,266365,1,6,0:0:0:0:
468,196,266532,1,4,0:0:0:0:
384,298,266699,1,10,0:0:0:0:
127,119,266865,2,0,P|188:113|238:141,1,120.000004577637,4|2,0:0|0:0,0:0:0:0:
384,298,267198,5,4,0:0:0:0:
320,100,267365,2,0,B|319:137|300:168|300:168|336:216|336:216|288:252|292:320,1,240.000009155274,10|6,0:0|0:0,0:0:0:0:
404,155,267865,1,4,0:0:0:0:
232,214,268032,1,10,0:0:0:0:
384,298,268198,1,0,0:0:0:0:
60,236,268365,5,6,0:0:0:0:
132,180,268532,2,0,P|156:128|140:68,1,120.000004577637,4|10,0:0|0:0,0:0:0:0:
76,328,268865,2,0,B|120:372|184:356|184:356|228:308|300:312,1,240.000009155274,4|4,0:0|0:0,0:0:0:0:
444,360,269365,1,10,0:0:0:0:
320,232,269532,86,0,B|284:172|312:100|312:100|264:80|248:24,1,240.000009155274,4|4,0:0|0:0,0:0:0:0:
360,296,270032,2,0,P|304:308|256:272,1,120.000004577637,10|0,0:0|0:0,0:0:0:0:
468,160,270365,1,6,0:0:0:0:
228,200,270532,1,4,0:0:0:0:
444,360,270698,1,10,0:0:0:0:
452,368,271032,5,6,0:0:0:0:
360,296,271198,2,0,P|336:248|344:184,1,120.000004577637,4|10,0:0|0:0,0:0:0:0:
468,160,271532,2,0,B|412:180|412:180|352:172,1,120.000004577637,4|2,0:0|0:0,0:0:0:0:
112,212,271865,2,0,B|168:192|168:192|228:200,1,120.000004577637,4|10,0:0|0:0,0:0:0:0:
32,268,272198,6,0,B|4:224|20:168|20:168|48:144|48:144|60:96|36:48,1,240.000009155274,4|4,0:0|0:0,0:0:0:0:
108,328,272698,2,0,P|204:332|240:212,1,240.000009155274,10|6,0:0|0:0,0:0:0:0:
160,253,273198,1,4,0:0:0:0:
341,323,273365,1,10,0:0:0:0:
312,96,273532,2,0,L|320:156,1,60.0000022888184,4|4,0:0|0:0,0:0:0:0:
342,337,273698,37,8,0:0:0:0:
468,152,273865,1,4,0:0:0:0:
452,264,274032,1,4,0:0:0:0:
304,88,274198,37,10,0:0:0:0:
322,244,274365,1,4,0:0:0:0:
108,104,274532,1,10,0:0:0:0:
183,291,274698,2,0,L|192:212,1,80,4|8,0:0|0:0,0:0:0:0:
456,156,275032,85,6,0:0:0:0:
316,256,275198,1,4,0:0:0:0:
296,76,275365,1,10,0:0:0:0:
120,312,275532,37,4,0:0:0:0:
158,61,275698,2,0,L|164:20,1,40,8|8,0:0|0:0,0:0:0:0:
308,272,275865,2,0,L|302:313,1,40,8|8,0:0|0:0,0:0:0:0:
56,336,276032,5,8,0:0:0:0:
8,273,276115,1,4,0:0:0:0:
11,194,276198,1,8,0:0:0:0:
63,135,276281,1,4,0:0:0:0:
140,122,276365,85,0,0:0:0:0:
338,179,276532,2,0,P|382:167|458:155,1,120.000004577637,4|10,0:0|0:0,0:0:0:0:
216,288,276865,2,0,P|184:240|192:180,1,120.000004577637,4|6,0:0|0:0,0:0:0:0:
428,12,277198,2,0,B|424:36|436:68|436:68|396:76|372:120,1,136.000002593994,0|10,0:0|0:0,0:0:0:0:
427,350,277532,6,0,B|455:310|499:294|499:294|462:234|455:154,1,240.000009155274,4|4,0:0|0:0,0:0:0:0:
216,288,278032,2,0,P|316:304|376:196,1,240.000009155274,10|6,0:0|0:0,0:0:0:0:
200,160,278532,1,4,0:0:0:0:
160,336,278698,1,10,0:0:0:0:
192,144,278865,1,4,0:0:0:0:
380,300,279032,5,6,0:0:0:0:
296,128,279198,2,0,P|280:72|304:16,1,120.000004577637,4|10,0:0|0:0,0:0:0:0:
472,224,279532,2,0,B|418:252|378:300|378:300|324:277|263:270,1,240.000009155274,4|4,0:0|0:0,0:0:0:0:
16,264,280032,1,10,0:0:0:0:
20,268,280365,85,6,0:0:0:0:
116,48,280532,1,4,0:0:0:0:
192,336,280698,2,0,P|248:324|312:316,1,120.000004577637,10|4,0:0|0:0,0:0:0:0:
444,100,281032,5,6,0:0:0:0:
260,148,281198,1,4,0:0:0:0:
368,376,281365,1,10,0:0:0:0:
184,328,281531,1,4,0:0:0:0:
452,92,281698,6,0,B|480:140|444:196|444:196|476:220|476:220|436:256|448:328,1,256,6|10,0:0|0:0,0:0:0:0:
248,44,282198,2,0,P|304:20|364:28,1,120.000004577637,4|6,0:0|0:0,0:0:0:0:
160,160,282532,1,4,0:0:0:0:
28,104,282698,1,10,0:0:0:0:
184,328,282865,86,0,B|272:312|361:345|361:345|400:256|480:216,2,360.000013732911,6|10|4,0:0|0:0|0:0,0:0:0:0:
319,62,284032,1,10,0:0:0:0:
227,220,284198,1,4,0:0:0:0:
362,345,284365,85,6,0:0:0:0:
364,329,284698,1,2,0:0:0:0:
366,313,285032,1,2,0:0:0:0:
368,297,285365,1,2,0:0:0:0:
432,248,285699,5,2,0:0:0:0:
340,172,286032,1,2,0:0:0:0:
231,223,286198,2,0,L|225:172,1,40,4|4,0:0|0:0,0:0:0:0:
215,87,286365,1,8,0:0:0:0:
241,312,286531,1,10,0:0:0:0:
241,312,286865,86,0,B|154:302,2,80,6|0|4,0:0|0:0|0:0,0:0:0:0:
313,249,287282,1,4,0:0:0:0:
291,161,287365,1,10,0:0:0:0:
295,145,287698,5,6,0:0:0:0:
461,229,287865,1,4,0:0:0:0:
306,330,288032,1,10,0:0:0:0:
458,212,288198,1,4,0:0:0:0:
454,196,288282,1,4,0:0:0:0:
450,180,288365,1,6,0:0:0:0:
366,130,288532,1,4,0:0:0:0:
280,177,288698,1,10,0:0:0:0:
406,301,288865,1,4,0:0:0:0:
236,348,289031,1,6,0:0:0:0:
221,344,289365,5,10,0:0:0:0:
249,252,289531,1,4,0:0:0:0:
113,291,289698,2,0,P|73:291|30:276,1,80,6|0,0:0|0:0,0:0:0:0:
249,234,290031,1,10,0:0:0:0:
131,144,290198,1,4,0:0:0:0:
116,151,290531,85,4,0:0:0:0:
126,299,290698,1,10,0:0:0:0:
249,217,290865,1,4,0:0:0:0:
123,316,291031,1,6,0:0:0:0:
120,333,291115,1,4,0:0:0:0:
117,350,291198,1,4,0:0:0:0:
114,367,291281,1,4,0:0:0:0:
111,384,291365,1,10,0:0:0:0:
45,261,291531,1,4,0:0:0:0:
178,194,291698,6,0,P|176:222|184:253,1,60.0000022888184,6|0,0:0|2:0,0:0:0:0:
214,129,291865,2,0,P|200:144|191:162,1,40,6|0,0:0|2:0,0:0:0:0:
281,94,292031,1,8,0:0:0:0:
388,258,292198,6,0,B|475:279,2,80,6|0|4,0:0|0:0|0:0,0:0:0:0:
301,230,292615,1,4,0:0:0:0:
320,320,292698,1,10,0:0:0:0:
336,326,293032,85,6,0:0:0:0:
196,288,293198,1,4,0:0:0:0:
388,258,293365,1,10,0:0:0:0:
181,282,293531,1,4,0:0:0:0:
166,276,293615,1,4,0:0:0:0:
151,270,293698,2,0,L|97:246,1,40,6|4,0:0|0:0,0:0:0:0:
168,175,293865,2,0,L|146:120,1,40,4|4,0:0|0:0,0:0:0:0:
216,91,294031,1,10,0:0:0:0:
72,175,294198,1,4,0:0:0:0:
217,258,294365,1,6,0:0:0:0:
233,254,294698,5,10,0:0:0:0:
266,379,294865,1,4,0:0:0:0:
413,284,295031,2,0,P|455:273|493:277,1,80,6|0,0:0|0:0,0:0:0:0:
249,250,295365,1,10,0:0:0:0:
341,220,295531,1,4,0:0:0:0:
361,125,295698,1,6,0:0:0:0:
288,60,295865,1,4,0:0:0:0:
176,186,296031,2,0,P|134:197|96:193,1,80,10|4,0:0|0:0,0:0:0:0:
18,136,296281,1,4,0:0:0:0:
31,148,296365,5,8,0:0:0:0:
84,203,296448,1,8,0:0:0:0:
102,278,296531,2,0,P|105:302|104:322,1,40,8|4,0:0|0:0,0:0:0:0:
181,316,296698,2,0,P|177:340|171:359,1,40,4|4,0:0|0:0,0:0:0:0:
169,240,296865,1,8,0:0:0:0:
215,179,296948,1,8,0:0:0:0:
291,167,297032,2,0,P|310:166|330:169,1,40,8|4,0:0|0:0,0:0:0:0:
310,241,297199,2,0,P|328:244|347:253,1,40,8|8,0:0|0:0,0:0:0:0:
448,347,297365,1,4,0:0:0:0:
448,347,297448,1,4,0:0:0:0:
448,347,297532,86,0,L|455:255,2,80,6|0|4,0:0|0:0|0:0,0:0:0:0:
356,240,297948,1,4,0:0:0:0:
426,164,298032,1,10,0:0:0:0:
413,155,298365,5,6,0:0:0:0:
503,42,298532,1,4,0:0:0:0:
361,21,298698,1,10,0:0:0:0:
271,134,298865,1,4,0:0:0:0:
268,151,298948,1,4,0:0:0:0:
265,168,299032,1,6,0:0:0:0:
180,200,299198,1,4,0:0:0:0:
109,142,299365,1,10,0:0:0:0:
165,291,299532,5,4,0:0:0:0:
9,265,299698,1,6,0:0:0:0:
80,323,299865,1,4,0:0:0:0:
23,174,300032,1,10,0:0:0:0:
180,200,300198,2,0,B|219:205|219:205|263:192,2,80,4|4|4,0:0|0:0|0:0,0:0:0:0:
125,52,300698,1,10,0:0:0:0:
120,36,301032,85,6,0:0:0:0:
18,158,301198,1,4,0:0:0:0:
175,185,301365,1,10,0:0:0:0:
277,63,301532,1,4,0:0:0:0:
295,61,301615,1,4,0:0:0:0:
313,59,301698,2,0,L|361:53,1,40,6|4,0:0|0:0,0:0:0:0:
343,146,301865,2,0,L|387:164,1,40,4|4,0:0|0:0,0:0:0:0:
317,284,302032,1,10,0:0:0:0:
450,238,302198,1,4,0:0:0:0:
264,263,302365,2,0,P|283:270|303:271,1,40,6|0,0:0|2:0,0:0:0:0:
224,200,302532,2,0,P|237:214|254:225,1,40,8|0,0:0|2:0,0:0:0:0:
220,124,302698,1,8,0:0:0:0:
102,232,302865,6,0,P|61:246|19:241,2,80,6|0|4,0:0|0:0|0:0,0:0:0:0:
133,147,303282,1,4,0:0:0:0:
74,77,303365,1,10,0:0:0:0:
58,71,303698,5,6,0:0:0:0:
208,124,303865,1,4,0:0:0:0:
87,227,304032,1,10,0:0:0:0:
224,119,304198,1,4,0:0:0:0:
240,114,304282,1,4,0:0:0:0:
256,109,304365,2,0,L|319:89,1,40,6|4,0:0|0:0,0:0:0:0:
458,55,304532,1,4,0:0:0:0:
458,55,304615,1,4,0:0:0:0:
458,55,304698,1,10,0:0:0:0:
357,180,304865,1,4,0:0:0:0:
418,323,305032,1,6,0:0:0:0:
429,234,305198,1,6,0:0:0:0:
335,357,305365,1,8,0:0:0:0:
275,214,305532,86,0,B|259:174|259:174|222:149,2,80,0|0|4,0:0|0:0|0:0,0:0:0:0:
180,338,306032,2,0,B|137:333|137:333|102:304,1,80,8|0,0:0|0:0,0:0:0:0:
46,247,306282,1,0,0:0:0:0:
30,242,306365,1,6,0:0:0:0:
179,239,306532,1,4,0:0:0:0:
71,144,306698,1,10,0:0:0:0:
208,98,306865,2,0,P|232:99|252:107,1,40,4|4,0:0|0:0,0:0:0:0:
360,195,307032,5,8,0:0:0:0:
346,157,307115,1,8,0:0:0:0:
352,117,307198,1,4,0:0:0:0:
378,86,307282,1,4,0:0:0:0:
415,72,307365,1,4,0:0:0:0:
454,79,307448,1,4,0:0:0:0:
421,149,307532,5,8,0:0:0:0:
373,142,307615,1,8,0:0:0:0:
325,135,307698,1,4,0:0:0:0:
277,128,307782,1,4,0:0:0:0:
229,121,307865,1,4,0:0:0:0:
181,114,307948,1,4,0:0:0:0:
103,135,308032,86,0,P|88:166|89:215,1,80,8|8,0:0|0:0,0:0:0:0:
142,291,308254,2,0,P|132:283|124:273,1,26.6666666666667,8|8,0:0|0:0,0:0:0:0:
188,236,308365,5,4,0:0:0:0:
213,276,308448,1,4,0:0:0:0:
208,323,308531,1,4,0:0:0:0:
174,357,308614,1,4,0:0:0:0:
103,352,308698,5,10,0:0:0:0:
256,192,308781,12,0,330031,2:0:0:0:
