osu file format v14

[General]
AudioFilename: 08. Eastern Dream.mp3
AudioLeadIn: 2000
PreviewTime: 188995
Countdown: 0
SampleSet: Normal
StackLeniency: 0.7
Mode: 1
LetterboxInBreaks: 0
WidescreenStoryboard: 1

[Editor]
DistanceSpacing: 0.6
BeatDivisor: 4
GridSize: 32
TimelineZoom: 1

[Metadata]
Title:Crimson Belvedere ~ Eastern Dream
TitleUnicode:紅楼 ~ Eastern Dream
Artist:Demetori
ArtistUnicode:Demetori
Creator:Love
Version:Inner Oni
Source:Touhou
Tags:如臨深遠 ~雨縒煙柳~ Sinen ni Nozomu ga Gotoshi 6 six th6 The Embodiment of Scarlet Devil EoSD Marathon
BeatmapID:505636
BeatmapSetID:215257

[Difficulty]
HPDrainRate:5
CircleSize:5
OverallDifficulty:6
ApproachRate:5
SliderMultiplier:1.4
SliderTickRate:3

[Events]
//Background and Video events
0,0,"BG.jpg",0,150
//Break Periods
//Storyboard Layer 0 (Background)
//Storyboard Layer 1 (Fail)
//Storyboard Layer 2 (Pass)
//Storyboard Layer 3 (Foreground)
//Storyboard Sound Samples

[TimingPoints]
82,363.636363636364,4,1,3,50,1,0
23718,363.636363636364,4,1,1,50,1,8
46990,-100,4,1,1,70,0,8
142990,363.636363636364,7,1,1,70,1,0
145353,363.636363636364,7,1,1,70,1,0
147716,363.636363636364,7,1,1,70,1,0
150079,363.636363636364,7,1,1,70,1,0
152442,363.636363636364,7,1,1,70,1,0
154805,363.636363636364,7,1,1,70,1,0
157168,363.636363636364,7,1,1,70,1,0
159531,363.636363636364,9,1,1,70,1,0
162803,363.636363636364,4,1,1,70,1,0
188984,-100,4,1,1,70,0,1
235530,-100,4,1,1,70,0,0
257166,363.636363636364,4,1,1,70,1,0
257711,-100,4,1,2,40,0,0
283347,-100,4,1,1,40,0,0
284984,-100,4,1,1,50,0,0
285166,-100,4,1,1,60,0,0
285347,-100,4,1,1,70,0,0
286438,363.636363636364,4,1,1,70,1,0
321348,363.636363636364,9,1,1,70,1,0
323348,-100,9,1,2,70,0,0
324438,-100,9,1,1,70,0,0
347348,363.636363636364,9,1,1,70,1,0
366802,363.636363636364,9,1,1,70,1,0
397892,363.636363636364,4,1,1,70,1,0
397892,-100,4,1,1,70,0,1
406982,-100,4,1,1,50,0,1
407528,-100,4,1,1,60,0,1
408073,-100,4,1,1,70,0,1
409528,-100,4,1,1,70,0,0
458982,377.358490566038,4,1,1,70,1,0
461246,387.096774193548,4,1,1,70,1,0
462020,533.333333333333,6,1,1,70,1,0
462020,-71.4285714285714,6,1,1,70,0,0
468420,-66.6666666666667,6,1,1,70,0,0
470553,-60.6060606060606,6,1,1,70,0,0
471620,-57.1428571428571,6,1,1,70,0,0
472686,-54.054054054054,6,1,1,70,0,0
473753,-51.2820512820513,6,1,1,70,0,0
474820,266.666666666667,12,1,1,80,1,0
545220,-100,12,1,1,80,0,1
590020,-100,12,1,1,80,0,0
602886,-100,12,1,1,5,0,0

[Colours]
Combo1 : 102,253,207
Combo2 : 242,121,0
Combo3 : 187,86,254
Combo4 : 254,131,155

[HitObjects]
256,192,82,5,4,0:0:0:0:
256,192,2991,1,12,0:0:0:0:
256,192,5900,1,4,0:0:0:0:
256,192,8809,1,12,0:0:0:0:
256,192,11718,1,4,0:0:0:0:
256,192,14627,1,12,0:0:0:0:
256,192,17536,1,4,0:0:0:0:
256,192,20445,1,12,0:0:0:0:
256,192,23718,1,4,0:0:0:0:
256,192,24081,1,0,0:0:0:0:
256,192,24263,1,0,0:0:0:0:
256,192,24445,1,8,0:0:0:0:
256,192,24808,1,0,0:0:0:0:
256,192,24990,1,8,0:0:0:0:
256,192,25172,1,0,0:0:0:0:
256,192,25354,1,8,0:0:0:0:
256,192,25536,1,0,0:0:0:0:
256,192,25718,1,0,0:0:0:0:
256,192,25899,1,8,0:0:0:0:
256,192,26081,1,0,0:0:0:0:
256,192,26263,1,8,0:0:0:0:
256,192,26445,1,8,0:0:0:0:
256,192,26505,1,8,0:0:0:0:
256,192,26566,1,8,0:0:0:0:
256,192,26627,1,0,0:0:0:0:
256,192,26990,1,0,0:0:0:0:
256,192,27172,1,0,0:0:0:0:
256,192,27354,1,8,0:0:0:0:
256,192,27536,1,0,0:0:0:0:
256,192,27899,1,8,0:0:0:0:
256,192,28081,1,0,0:0:0:0:
256,192,28263,1,0,0:0:0:0:
256,192,28445,1,8,0:0:0:0:
256,192,28627,1,0,0:0:0:0:
256,192,28808,1,8,0:0:0:0:
256,192,28990,1,0,0:0:0:0:
256,192,29172,1,8,0:0:0:0:
256,192,29354,1,8,0:0:0:0:
256,192,29414,1,8,0:0:0:0:
256,192,29475,1,8,0:0:0:0:
256,192,29536,1,0,0:0:0:0:
256,192,29899,1,0,0:0:0:0:
256,192,30081,1,0,0:0:0:0:
256,192,30263,1,8,0:0:0:0:
256,192,30627,1,0,0:0:0:0:
256,192,30809,1,8,0:0:0:0:
256,192,30991,1,0,0:0:0:0:
256,192,31173,1,8,0:0:0:0:
256,192,31355,1,0,0:0:0:0:
256,192,31537,1,0,0:0:0:0:
256,192,31718,1,8,0:0:0:0:
256,192,31900,1,0,0:0:0:0:
256,192,32082,1,8,0:0:0:0:
256,192,32264,1,8,0:0:0:0:
256,192,32324,1,8,0:0:0:0:
256,192,32384,1,8,0:0:0:0:
256,192,32446,1,0,0:0:0:0:
256,192,32808,1,0,0:0:0:0:
256,192,32991,1,0,0:0:0:0:
256,192,33081,1,0,0:0:0:0:
256,192,33172,1,0,0:0:0:0:
256,192,33354,1,8,0:0:0:0:
256,192,33536,1,0,0:0:0:0:
256,192,33718,1,0,0:0:0:0:
256,192,33899,1,12,0:0:0:0:
256,192,34445,1,8,0:0:0:0:
256,192,34536,1,8,0:0:0:0:
256,192,34627,1,8,0:0:0:0:
256,192,34809,1,0,0:0:0:0:
256,192,34991,1,8,0:0:0:0:
256,192,35172,1,0,0:0:0:0:
256,192,35354,1,4,0:0:0:0:
256,192,35718,1,8,0:0:0:0:
256,192,35899,1,0,0:0:0:0:
256,192,35990,1,0,0:0:0:0:
256,192,36081,1,0,0:0:0:0:
256,192,36263,1,0,0:0:0:0:
256,192,36445,1,8,0:0:0:0:
256,192,36627,1,0,0:0:0:0:
256,192,36990,1,0,0:0:0:0:
256,192,37172,1,0,0:0:0:0:
256,192,37354,1,8,0:0:0:0:
256,192,37536,1,0,0:0:0:0:
256,192,37718,1,0,0:0:0:0:
256,192,37899,1,8,0:0:0:0:
256,192,38081,1,8,0:0:0:0:
256,192,38142,1,8,0:0:0:0:
256,192,38202,1,8,0:0:0:0:
256,192,38263,1,0,0:0:0:0:
256,192,38445,1,0,0:0:0:0:
256,192,38627,1,8,0:0:0:0:
256,192,38990,1,0,0:0:0:0:
256,192,39172,1,0,0:0:0:0:
256,192,39354,1,8,0:0:0:0:
256,192,39536,1,8,0:0:0:0:
256,192,39899,1,0,0:0:0:0:
256,192,40081,1,0,0:0:0:0:
256,192,40263,1,8,0:0:0:0:
256,192,40354,1,8,0:0:0:0:
256,192,40445,1,0,0:0:0:0:
256,192,40627,1,0,0:0:0:0:
256,192,40808,1,8,0:0:0:0:
256,192,40990,1,0,0:0:0:0:
256,192,41172,1,0,0:0:0:0:
256,192,41536,1,8,0:0:0:0:
256,192,41717,1,0,0:0:0:0:
256,192,41808,1,0,0:0:0:0:
256,192,41899,1,0,0:0:0:0:
256,192,42081,1,0,0:0:0:0:
256,192,42263,1,8,0:0:0:0:
256,192,42445,1,0,0:0:0:0:
256,192,42808,1,0,0:0:0:0:
256,192,42990,1,0,0:0:0:0:
256,192,43172,1,8,0:0:0:0:
256,192,43354,1,0,0:0:0:0:
256,192,43536,1,0,0:0:0:0:
256,192,43717,1,8,0:0:0:0:
256,192,44081,1,4,0:0:0:0:
256,192,44445,1,8,0:0:0:0:
256,192,44808,1,0,0:0:0:0:
256,192,44990,1,0,0:0:0:0:
256,192,45172,1,8,0:0:0:0:
256,192,45354,1,4,0:0:0:0:
256,192,45717,1,0,0:0:0:0:
256,192,45899,1,8,0:0:0:0:
256,192,46081,1,0,0:0:0:0:
256,192,46172,1,0,0:0:0:0:
256,192,46263,1,0,0:0:0:0:
256,192,46445,1,0,0:0:0:0:
256,192,46626,1,8,0:0:0:0:
256,192,46990,1,4,0:0:0:0:
256,192,47354,1,8,0:0:0:0:
256,192,47627,1,8,0:0:0:0:
256,192,47718,1,0,0:0:0:0:
256,192,47899,1,0,0:0:0:0:
256,192,48081,1,8,0:0:0:0:
256,192,48263,1,4,0:0:0:0:
256,192,48627,1,0,0:0:0:0:
256,192,48808,1,8,0:0:0:0:
256,192,48990,1,0,0:0:0:0:
256,192,49081,1,8,0:0:0:0:
256,192,49172,1,0,0:0:0:0:
256,192,49354,1,8,0:0:0:0:
256,192,49536,1,0,0:0:0:0:
256,192,49627,1,0,0:0:0:0:
256,192,49718,1,8,0:0:0:0:
256,192,49899,1,4,0:0:0:0:
256,192,50263,1,8,0:0:0:0:
256,192,50445,1,0,0:0:0:0:
256,192,50536,1,0,0:0:0:0:
256,192,50627,1,8,0:0:0:0:
256,192,50808,1,0,0:0:0:0:
256,192,50990,1,0,0:0:0:0:
256,192,51172,1,4,0:0:0:0:
256,192,51536,1,0,0:0:0:0:
256,192,51718,1,12,0:0:0:0:
256,192,51899,1,0,0:0:0:0:
256,192,51990,1,0,0:0:0:0:
256,192,52081,1,8,0:0:0:0:
256,192,52263,1,8,0:0:0:0:
256,192,52354,1,8,0:0:0:0:
256,192,52445,1,0,0:0:0:0:
256,192,52536,1,0,0:0:0:0:
256,192,52627,1,0,0:0:0:0:
256,192,52718,1,0,0:0:0:0:
256,192,52808,1,0,0:0:0:0:
256,192,52990,1,0,0:0:0:0:
256,192,53172,1,12,0:0:0:0:
256,192,53445,1,8,0:0:0:0:
256,192,53536,1,0,0:0:0:0:
256,192,53718,1,0,0:0:0:0:
256,192,53899,1,8,0:0:0:0:
256,192,54081,1,4,0:0:0:0:
256,192,54445,1,0,0:0:0:0:
256,192,54627,1,8,0:0:0:0:
256,192,54808,1,8,0:0:0:0:
256,192,54990,1,0,0:0:0:0:
256,192,55172,1,8,0:0:0:0:
256,192,55354,1,0,0:0:0:0:
256,192,55445,1,0,0:0:0:0:
256,192,55536,1,0,0:0:0:0:
256,192,55718,1,4,0:0:0:0:
256,192,56081,1,12,0:0:0:0:
256,192,56354,1,8,0:0:0:0:
256,192,56445,1,0,0:0:0:0:
256,192,56627,1,0,0:0:0:0:
256,192,56808,1,8,0:0:0:0:
256,192,56990,1,0,0:0:0:0:
256,192,57354,1,0,0:0:0:0:
256,192,57718,1,0,0:0:0:0:
256,192,58081,1,8,0:0:0:0:
256,192,58627,1,4,0:0:0:0:
256,192,58990,1,8,0:0:0:0:
256,192,59263,1,8,0:0:0:0:
256,192,59354,1,0,0:0:0:0:
256,192,59536,1,0,0:0:0:0:
256,192,59718,1,8,0:0:0:0:
256,192,59899,1,0,0:0:0:0:
256,192,59990,1,8,0:0:0:0:
256,192,60081,1,0,0:0:0:0:
256,192,60263,1,0,0:0:0:0:
256,192,60445,1,8,0:0:0:0:
256,192,60627,1,0,0:0:0:0:
256,192,60718,1,8,0:0:0:0:
256,192,60808,1,0,0:0:0:0:
256,192,60899,1,0,0:0:0:0:
256,192,60990,1,0,0:0:0:0:
256,192,61172,1,8,0:0:0:0:
256,192,61354,1,0,0:0:0:0:
256,192,61536,1,0,0:0:0:0:
256,192,61899,1,8,0:0:0:0:
256,192,62172,1,8,0:0:0:0:
256,192,62263,1,0,0:0:0:0:
256,192,62445,1,0,0:0:0:0:
256,192,62627,1,8,0:0:0:0:
256,192,62808,1,0,0:0:0:0:
256,192,63172,1,0,0:0:0:0:
256,192,63354,1,8,0:0:0:0:
256,192,63627,1,8,0:0:0:0:
256,192,63718,1,0,0:0:0:0:
256,192,63899,1,0,0:0:0:0:
256,192,64081,1,8,0:0:0:0:
256,192,64263,1,8,0:0:0:0:
256,192,64445,1,4,0:0:0:0:
256,192,64808,1,8,0:0:0:0:
256,192,65081,1,8,0:0:0:0:
256,192,65172,1,0,0:0:0:0:
256,192,65354,1,0,0:0:0:0:
256,192,65536,1,8,0:0:0:0:
256,192,65718,1,0,0:0:0:0:
256,192,65808,1,8,0:0:0:0:
256,192,65899,1,0,0:0:0:0:
256,192,66081,1,0,0:0:0:0:
256,192,66263,1,8,0:0:0:0:
256,192,66445,1,0,0:0:0:0:
256,192,66536,1,8,0:0:0:0:
256,192,66627,1,0,0:0:0:0:
256,192,66718,1,0,0:0:0:0:
256,192,66808,1,0,0:0:0:0:
256,192,66990,1,8,0:0:0:0:
256,192,67354,1,4,0:0:0:0:
256,192,67718,1,8,0:0:0:0:
256,192,68081,1,0,0:0:0:0:
256,192,68263,1,0,0:0:0:0:
256,192,68445,1,8,0:0:0:0:
256,192,68627,1,4,0:0:0:0:
256,192,68990,1,0,0:0:0:0:
256,192,69172,1,8,0:0:0:0:
256,192,69354,1,0,0:0:0:0:
256,192,69414,1,0,0:0:0:0:
256,192,69475,1,0,0:0:0:0:
256,192,69536,1,8,0:0:0:0:
256,192,69718,1,8,0:0:0:0:
256,192,69899,1,0,0:0:0:0:
256,192,70081,1,0,0:0:0:0:
256,192,70263,1,4,0:0:0:0:
256,192,70627,1,8,0:0:0:0:
256,192,70899,1,8,0:0:0:0:
256,192,70990,1,0,0:0:0:0:
256,192,71172,1,0,0:0:0:0:
256,192,71354,1,8,0:0:0:0:
256,192,71536,1,0,0:0:0:0:
256,192,71627,1,8,0:0:0:0:
256,192,71718,1,0,0:0:0:0:
256,192,71899,1,0,0:0:0:0:
256,192,72081,1,8,0:0:0:0:
256,192,72263,1,0,0:0:0:0:
256,192,72354,1,8,0:0:0:0:
256,192,72445,1,0,0:0:0:0:
256,192,72536,1,0,0:0:0:0:
256,192,72627,1,0,0:0:0:0:
256,192,72808,1,8,0:0:0:0:
256,192,72990,1,0,0:0:0:0:
256,192,73172,1,0,0:0:0:0:
256,192,73536,1,8,0:0:0:0:
256,192,73808,1,8,0:0:0:0:
256,192,73899,1,0,0:0:0:0:
256,192,74081,1,0,0:0:0:0:
256,192,74263,1,8,0:0:0:0:
256,192,74445,1,4,0:0:0:0:
256,192,74808,1,0,0:0:0:0:
256,192,74990,1,8,0:0:0:0:
256,192,75172,1,0,0:0:0:0:
256,192,75263,1,8,0:0:0:0:
256,192,75354,1,0,0:0:0:0:
256,192,75536,1,0,0:0:0:0:
256,192,75718,1,12,0:0:0:0:
256,192,76081,1,4,0:0:0:0:
256,192,76445,1,8,0:0:0:0:
256,192,76718,1,8,0:0:0:0:
256,192,76808,1,0,0:0:0:0:
256,192,76990,1,0,0:0:0:0:
256,192,77172,1,8,0:0:0:0:
256,192,77354,1,0,0:0:0:0:
256,192,77718,1,0,0:0:0:0:
256,192,77899,1,8,0:0:0:0:
256,192,78081,1,0,0:0:0:0:
256,192,78172,1,8,0:0:0:0:
256,192,78263,1,0,0:0:0:0:
256,192,78354,1,0,0:0:0:0:
256,192,78445,1,0,0:0:0:0:
256,192,78627,1,8,0:0:0:0:
256,192,78808,1,8,0:0:0:0:
256,192,78990,1,4,0:0:0:0:
256,192,79354,1,8,0:0:0:0:
256,192,79718,1,0,0:0:0:0:
256,192,79899,1,0,0:0:0:0:
256,192,79960,1,0,0:0:0:0:
256,192,80021,1,0,0:0:0:0:
256,192,80081,1,8,0:0:0:0:
256,192,80263,1,4,0:0:0:0:
256,192,80627,1,8,0:0:0:0:
256,192,80808,1,0,0:0:0:0:
256,192,80990,1,8,0:0:0:0:
256,192,81172,1,0,0:0:0:0:
256,192,81354,1,0,0:0:0:0:
256,192,81536,1,0,0:0:0:0:
256,192,81718,1,0,0:0:0:0:
256,192,81899,1,12,0:0:0:0:
256,192,82263,1,0,0:0:0:0:
256,192,82445,1,12,0:0:0:0:
256,192,82627,1,0,0:0:0:0:
256,192,82990,1,0,0:0:0:0:
256,192,83172,1,8,0:0:0:0:
256,192,83354,1,0,0:0:0:0:
256,192,83718,1,0,0:0:0:0:
256,192,84081,1,0,0:0:0:0:
256,192,84263,1,8,0:0:0:0:
256,192,84445,1,0,0:0:0:0:
256,192,84627,1,8,0:0:0:0:
256,192,84808,1,12,0:0:0:0:
256,192,85172,1,0,0:0:0:0:
256,192,85354,1,12,0:0:0:0:
256,192,85536,1,0,0:0:0:0:
256,192,85899,1,0,0:0:0:0:
256,192,86081,1,12,0:0:0:0:
256,192,86263,1,0,0:0:0:0:
256,192,86445,1,8,0:0:0:0:
256,192,86627,1,0,0:0:0:0:
256,192,86808,1,0,0:0:0:0:
256,192,86990,1,0,0:0:0:0:
256,192,87354,1,0,0:0:0:0:
256,192,87718,1,12,0:0:0:0:
256,192,88081,1,0,0:0:0:0:
256,192,88263,1,12,0:0:0:0:
256,192,88445,1,0,0:0:0:0:
256,192,88808,1,0,0:0:0:0:
256,192,88930,1,0,0:0:0:0:
256,192,89051,1,0,0:0:0:0:
256,192,89172,1,0,0:0:0:0:
256,192,89354,1,0,0:0:0:0:
256,192,89718,1,0,0:0:0:0:
256,192,89899,1,12,0:0:0:0:
256,192,90263,1,0,0:0:0:0:
256,192,90354,1,0,0:0:0:0:
256,192,90445,1,8,0:0:0:0:
256,192,90536,1,8,0:0:0:0:
256,192,90627,1,8,0:0:0:0:
256,192,90808,1,0,0:0:0:0:
256,192,90899,1,0,0:0:0:0:
256,192,90990,1,0,0:0:0:0:
256,192,91172,1,4,0:0:0:0:
256,192,91718,1,0,0:0:0:0:
256,192,91899,1,8,0:0:0:0:
256,192,92081,1,0,0:0:0:0:
256,192,92263,1,8,0:0:0:0:
256,192,92445,1,0,0:0:0:0:
256,192,92627,1,0,0:0:0:0:
256,192,92808,1,0,0:0:0:0:
256,192,92899,1,8,0:0:0:0:
256,192,92990,1,8,0:0:0:0:
256,192,93081,1,8,0:0:0:0:
256,192,93172,1,0,0:0:0:0:
256,192,93263,1,8,0:0:0:0:
256,192,93354,1,8,0:0:0:0:
256,192,93536,1,4,0:0:0:0:
256,192,93808,1,0,0:0:0:0:
256,192,93899,1,8,0:0:0:0:
256,192,94081,1,4,0:0:0:0:
256,192,94445,1,0,0:0:0:0:
256,192,94627,1,8,0:0:0:0:
256,192,94808,1,0,0:0:0:0:
256,192,94899,1,0,0:0:0:0:
256,192,94990,1,0,0:0:0:0:
256,192,95172,1,0,0:0:0:0:
256,192,95354,1,8,0:0:0:0:
256,192,95536,1,8,0:0:0:0:
256,192,95627,1,8,0:0:0:0:
256,192,95718,1,0,0:0:0:0:
256,192,95899,1,0,0:0:0:0:
256,192,96081,1,8,0:0:0:0:
256,192,96263,1,8,0:0:0:0:
256,192,96445,1,4,0:0:0:0:
256,192,96718,1,0,0:0:0:0:
256,192,96808,1,8,0:0:0:0:
256,192,96990,1,4,0:0:0:0:
256,192,97354,1,0,0:0:0:0:
256,192,97536,1,8,0:0:0:0:
256,192,97718,1,0,0:0:0:0:
256,192,97808,1,0,0:0:0:0:
256,192,97899,1,0,0:0:0:0:
256,192,98081,1,0,0:0:0:0:
256,192,98263,1,8,0:0:0:0:
256,192,98445,1,0,0:0:0:0:
256,192,98536,1,8,0:0:0:0:
256,192,98627,1,0,0:0:0:0:
256,192,98718,1,8,0:0:0:0:
256,192,98808,1,0,0:0:0:0:
256,192,98990,1,8,0:0:0:0:
256,192,99354,1,4,0:0:0:0:
256,192,99627,1,0,0:0:0:0:
256,192,99718,1,8,0:0:0:0:
256,192,99899,1,4,0:0:0:0:
256,192,100263,1,0,0:0:0:0:
256,192,100445,1,8,0:0:0:0:
256,192,100808,1,0,0:0:0:0:
256,192,100990,1,0,0:0:0:0:
256,192,101172,1,8,0:0:0:0:
256,192,101354,1,0,0:0:0:0:
256,192,101445,1,0,0:0:0:0:
256,192,101536,1,0,0:0:0:0:
256,192,101718,1,0,0:0:0:0:
256,192,101899,1,8,0:0:0:0:
256,192,102081,1,8,0:0:0:0:
256,192,102263,1,4,0:0:0:0:
256,192,102445,1,8,0:0:0:0:
256,192,102536,1,8,0:0:0:0:
256,192,102627,1,8,0:0:0:0:
256,192,102808,1,0,0:0:0:0:
256,192,103172,1,0,0:0:0:0:
256,192,103354,1,12,0:0:0:0:
256,192,103718,1,0,0:0:0:0:
256,192,103899,1,0,0:0:0:0:
256,192,104081,1,12,0:0:0:0:
256,192,104263,1,0,0:0:0:0:
256,192,104354,1,0,0:0:0:0:
256,192,104445,1,8,0:0:0:0:
256,192,104627,1,8,0:0:0:0:
256,192,104808,1,0,0:0:0:0:
256,192,104869,1,0,0:0:0:0:
256,192,104930,1,0,0:0:0:0:
256,192,104990,1,0,0:0:0:0:
256,192,105172,1,4,0:0:0:0:
256,192,105445,1,0,0:0:0:0:
256,192,105536,1,8,0:0:0:0:
256,192,105718,1,4,0:0:0:0:
256,192,106081,1,0,0:0:0:0:
256,192,106263,1,8,0:0:0:0:
256,192,106445,1,0,0:0:0:0:
256,192,106536,1,0,0:0:0:0:
256,192,106626,1,0,0:0:0:0:
256,192,106808,1,0,0:0:0:0:
256,192,106990,1,8,0:0:0:0:
256,192,107172,1,8,0:0:0:0:
256,192,107263,1,8,0:0:0:0:
256,192,107354,1,0,0:0:0:0:
256,192,107535,1,0,0:0:0:0:
256,192,107717,1,8,0:0:0:0:
256,192,107899,1,8,0:0:0:0:
256,192,108081,1,4,0:0:0:0:
256,192,108354,1,0,0:0:0:0:
256,192,108444,1,8,0:0:0:0:
256,192,108626,1,4,0:0:0:0:
256,192,108990,1,8,0:0:0:0:
256,192,109172,1,0,0:0:0:0:
256,192,109354,1,8,0:0:0:0:
256,192,109445,1,8,0:0:0:0:
256,192,109536,1,0,0:0:0:0:
256,192,109627,1,8,0:0:0:0:
256,192,109718,1,8,0:0:0:0:
256,192,109808,1,0,0:0:0:0:
256,192,109899,1,8,0:0:0:0:
256,192,109990,1,0,0:0:0:0:
256,192,110081,1,8,0:0:0:0:
256,192,110172,1,8,0:0:0:0:
256,192,110263,1,0,0:0:0:0:
256,192,110354,1,0,0:0:0:0:
256,192,110445,1,0,0:0:0:0:
256,192,110536,1,0,0:0:0:0:
256,192,110627,1,0,0:0:0:0:
256,192,110687,1,0,0:0:0:0:
256,192,110748,1,0,0:0:0:0:
256,192,110808,1,0,0:0:0:0:
256,192,110990,1,4,0:0:0:0:
256,192,111263,1,0,0:0:0:0:
256,192,111354,1,8,0:0:0:0:
256,192,111536,1,4,0:0:0:0:
256,192,111899,1,0,0:0:0:0:
256,192,112081,1,8,0:0:0:0:
256,192,112263,1,0,0:0:0:0:
256,192,112354,1,8,0:0:0:0:
256,192,112444,1,0,0:0:0:0:
256,192,112626,1,0,0:0:0:0:
256,192,112808,1,8,0:0:0:0:
256,192,112990,1,8,0:0:0:0:
256,192,113172,1,0,0:0:0:0:
256,192,113353,1,0,0:0:0:0:
256,192,113536,1,12,0:0:0:0:
256,192,113899,1,0,0:0:0:0:
256,192,114081,1,12,0:0:0:0:
256,192,114263,1,0,0:0:0:0:
256,192,114444,1,4,0:0:0:0:
256,192,114718,1,0,0:0:0:0:
256,192,114808,1,0,0:0:0:0:
256,192,114990,1,8,0:0:0:0:
256,192,115172,1,0,0:0:0:0:
256,192,115354,1,12,0:0:0:0:
256,192,115596,1,8,0:0:0:0:
256,192,115839,1,4,0:0:0:0:
256,192,116081,1,8,0:0:0:0:
256,192,116324,1,0,0:0:0:0:
256,192,116566,1,8,0:0:0:0:
256,192,116808,1,4,0:0:0:0:
256,192,118263,1,4,0:0:0:0:
256,192,118990,1,8,0:0:0:0:
256,192,119354,1,8,0:0:0:0:
256,192,119718,1,4,0:0:0:0:
256,192,120081,1,8,0:0:0:0:
256,192,120263,1,0,0:0:0:0:
256,192,120354,1,8,0:0:0:0:
256,192,120445,1,0,0:0:0:0:
256,192,120536,1,0,0:0:0:0:
256,192,120627,1,0,0:0:0:0:
256,192,120808,1,8,0:0:0:0:
256,192,120990,1,0,0:0:0:0:
256,192,121081,1,8,0:0:0:0:
256,192,121172,1,0,0:0:0:0:
256,192,121354,1,0,0:0:0:0:
256,192,121536,1,8,0:0:0:0:
256,192,121718,1,0,0:0:0:0:
256,192,121808,1,8,0:0:0:0:
256,192,121899,1,0,0:0:0:0:
256,192,121990,1,8,0:0:0:0:
256,192,122081,1,0,0:0:0:0:
256,192,122263,1,8,0:0:0:0:
256,192,122445,1,8,0:0:0:0:
256,192,122627,1,0,0:0:0:0:
256,192,122990,1,8,0:0:0:0:
256,192,123172,1,0,0:0:0:0:
256,192,123263,1,0,0:0:0:0:
256,192,123354,1,0,0:0:0:0:
256,192,123445,1,8,0:0:0:0:
256,192,123536,1,0,0:0:0:0:
256,192,123718,1,8,0:0:0:0:
256,192,123899,1,0,0:0:0:0:
256,192,123990,1,8,0:0:0:0:
256,192,124172,1,8,0:0:0:0:
256,192,124263,1,0,0:0:0:0:
256,192,124445,1,8,0:0:0:0:
256,192,124627,1,8,0:0:0:0:
256,192,124718,1,8,0:0:0:0:
256,192,124808,1,0,0:0:0:0:
256,192,124990,1,0,0:0:0:0:
256,192,125172,1,8,0:0:0:0:
256,192,125536,1,4,0:0:0:0:
256,192,125899,1,8,0:0:0:0:
256,192,126081,1,0,0:0:0:0:
256,192,126172,1,8,0:0:0:0:
256,192,126263,1,0,0:0:0:0:
256,192,126354,1,0,0:0:0:0:
256,192,126445,1,0,0:0:0:0:
256,192,126627,1,8,0:0:0:0:
256,192,126808,1,8,0:0:0:0:
256,192,126990,1,0,0:0:0:0:
256,192,127081,1,0,0:0:0:0:
256,192,127172,1,0,0:0:0:0:
256,192,127354,1,8,0:0:0:0:
256,192,127536,1,0,0:0:0:0:
256,192,127627,1,0,0:0:0:0:
256,192,127718,1,8,0:0:0:0:
256,192,127808,1,8,0:0:0:0:
256,192,127899,1,0,0:0:0:0:
256,192,128081,1,8,0:0:0:0:
256,192,128263,1,0,0:0:0:0:
256,192,128354,1,8,0:0:0:0:
256,192,128445,1,0,0:0:0:0:
256,192,128808,1,8,0:0:0:0:
256,192,128990,1,8,0:0:0:0:
256,192,129081,1,8,0:0:0:0:
256,192,129172,1,0,0:0:0:0:
256,192,129354,1,0,0:0:0:0:
256,192,129536,1,8,0:0:0:0:
256,192,129718,1,0,0:0:0:0:
256,192,129808,1,8,0:0:0:0:
256,192,129990,1,8,0:0:0:0:
256,192,130081,1,0,0:0:0:0:
256,192,130263,1,0,0:0:0:0:
256,192,130445,1,8,0:0:0:0:
256,192,130627,1,0,0:0:0:0:
256,192,130718,1,8,0:0:0:0:
256,192,130808,1,0,0:0:0:0:
256,192,130990,1,12,0:0:0:0:
256,192,131354,1,4,0:0:0:0:
256,192,131718,1,8,0:0:0:0:
256,192,131899,1,0,0:0:0:0:
256,192,132081,1,8,0:0:0:0:
256,192,132172,1,8,0:0:0:0:
256,192,132263,1,0,0:0:0:0:
256,192,132445,1,8,0:0:0:0:
256,192,132627,1,0,0:0:0:0:
256,192,132718,1,8,0:0:0:0:
256,192,132808,1,0,0:0:0:0:
256,192,132899,1,0,0:0:0:0:
256,192,132990,1,0,0:0:0:0:
256,192,133172,1,8,0:0:0:0:
256,192,133354,1,0,0:0:0:0:
256,192,133445,1,8,0:0:0:0:
256,192,133536,1,0,0:0:0:0:
256,192,133627,1,0,0:0:0:0:
256,192,133718,1,0,0:0:0:0:
256,192,133899,1,8,0:0:0:0:
256,192,134081,1,8,0:0:0:0:
256,192,134263,1,0,0:0:0:0:
256,192,134627,1,8,0:0:0:0:
256,192,134808,1,0,0:0:0:0:
256,192,134899,1,8,0:0:0:0:
256,192,135081,1,8,0:0:0:0:
256,192,135172,1,0,0:0:0:0:
256,192,135354,1,8,0:0:0:0:
256,192,135536,1,8,0:0:0:0:
256,192,135627,1,8,0:0:0:0:
256,192,135718,1,0,0:0:0:0:
256,192,135899,1,0,0:0:0:0:
256,192,136081,1,8,0:0:0:0:
256,192,136263,1,0,0:0:0:0:
256,192,136354,1,8,0:0:0:0:
256,192,136445,1,0,0:0:0:0:
256,192,136627,1,0,0:0:0:0:
256,192,136808,1,8,0:0:0:0:
256,192,137172,1,4,0:0:0:0:
256,192,137536,1,8,0:0:0:0:
256,192,137718,1,0,0:0:0:0:
256,192,137808,1,0,0:0:0:0:
256,192,137899,1,0,0:0:0:0:
256,192,138081,1,0,0:0:0:0:
256,192,138263,1,8,0:0:0:0:
256,192,138445,1,0,0:0:0:0:
256,192,138536,1,8,0:0:0:0:
256,192,138627,1,0,0:0:0:0:
256,192,138718,1,0,0:0:0:0:
256,192,138808,1,0,0:0:0:0:
256,192,138990,1,8,0:0:0:0:
256,192,139172,1,0,0:0:0:0:
256,192,139263,1,8,0:0:0:0:
256,192,139354,1,0,0:0:0:0:
256,192,139445,1,8,0:0:0:0:
256,192,139536,1,0,0:0:0:0:
256,192,139718,1,8,0:0:0:0:
256,192,140081,1,4,0:0:0:0:
256,192,140354,1,0,0:0:0:0:
256,192,140445,1,8,0:0:0:0:
256,192,140627,1,0,0:0:0:0:
256,192,140990,1,0,0:0:0:0:
256,192,141172,1,8,0:0:0:0:
256,192,141354,1,8,0:0:0:0:
256,192,141536,1,0,0:0:0:0:
256,192,141718,1,0,0:0:0:0:
256,192,141899,1,0,0:0:0:0:
256,192,142081,1,0,0:0:0:0:
256,192,142263,1,8,0:0:0:0:
256,192,142354,1,8,0:0:0:0:
256,192,142445,1,8,0:0:0:0:
256,192,142536,1,8,0:0:0:0:
256,192,142627,1,8,0:0:0:0:
256,192,142808,1,0,0:0:0:0:
256,192,142990,1,4,0:0:0:0:
256,192,143262,1,0,0:0:0:0:
256,192,143353,1,8,0:0:0:0:
256,192,143535,1,0,0:0:0:0:
256,192,143626,1,0,0:0:0:0:
256,192,143717,1,0,0:0:0:0:
256,192,143899,1,0,0:0:0:0:
256,192,144080,1,8,0:0:0:0:
256,192,144262,1,0,0:0:0:0:
256,192,144353,1,0,0:0:0:0:
256,192,144444,1,0,0:0:0:0:
256,192,144626,1,8,0:0:0:0:
256,192,144808,1,0,0:0:0:0:
256,192,144899,1,0,0:0:0:0:
256,192,145080,1,0,0:0:0:0:
256,192,145171,1,8,0:0:0:0:
256,192,145353,1,0,0:0:0:0:
256,192,145625,1,0,0:0:0:0:
256,192,145716,1,8,0:0:0:0:
256,192,145898,1,0,0:0:0:0:
256,192,145989,1,8,0:0:0:0:
256,192,146080,1,0,0:0:0:0:
256,192,146171,1,0,0:0:0:0:
256,192,146262,1,0,0:0:0:0:
256,192,146443,1,8,0:0:0:0:
256,192,146625,1,0,0:0:0:0:
256,192,146716,1,8,0:0:0:0:
256,192,146807,1,0,0:0:0:0:
256,192,146989,1,8,0:0:0:0:
256,192,147171,1,0,0:0:0:0:
256,192,147262,1,8,0:0:0:0:
256,192,147353,1,0,0:0:0:0:
256,192,147534,1,8,0:0:0:0:
256,192,147716,1,4,0:0:0:0:
256,192,147988,1,0,0:0:0:0:
256,192,148079,1,8,0:0:0:0:
256,192,148261,1,0,0:0:0:0:
256,192,148352,1,0,0:0:0:0:
256,192,148534,1,8,0:0:0:0:
256,192,148625,1,0,0:0:0:0:
256,192,148806,1,8,0:0:0:0:
256,192,148988,1,0,0:0:0:0:
256,192,149079,1,8,0:0:0:0:
256,192,149170,1,0,0:0:0:0:
256,192,149261,1,0,0:0:0:0:
256,192,149352,1,8,0:0:0:0:
256,192,149534,1,0,0:0:0:0:
256,192,149625,1,0,0:0:0:0:
256,192,149716,1,8,0:0:0:0:
256,192,149897,1,8,0:0:0:0:
256,192,150079,1,4,0:0:0:0:
256,192,150351,1,0,0:0:0:0:
256,192,150442,1,8,0:0:0:0:
256,192,150624,1,0,0:0:0:0:
256,192,150715,1,0,0:0:0:0:
256,192,150897,1,8,0:0:0:0:
256,192,150988,1,0,0:0:0:0:
256,192,151169,1,8,0:0:0:0:
256,192,151351,1,0,0:0:0:0:
256,192,151442,1,8,0:0:0:0:
256,192,151624,1,8,0:0:0:0:
256,192,151715,1,0,0:0:0:0:
256,192,151897,1,0,0:0:0:0:
256,192,151988,1,0,0:0:0:0:
256,192,152169,1,0,0:0:0:0:
256,192,152260,1,0,0:0:0:0:
256,192,152442,1,4,0:0:0:0:
256,192,152714,1,0,0:0:0:0:
256,192,152805,1,8,0:0:0:0:
256,192,152987,1,0,0:0:0:0:
256,192,153078,1,8,0:0:0:0:
256,192,153169,1,0,0:0:0:0:
256,192,153260,1,0,0:0:0:0:
256,192,153351,1,0,0:0:0:0:
256,192,153532,1,8,0:0:0:0:
256,192,153714,1,0,0:0:0:0:
256,192,153805,1,8,0:0:0:0:
256,192,153987,1,0,0:0:0:0:
256,192,154078,1,8,0:0:0:0:
256,192,154260,1,0,0:0:0:0:
256,192,154351,1,8,0:0:0:0:
256,192,154442,1,0,0:0:0:0:
256,192,154532,1,0,0:0:0:0:
256,192,154623,1,8,0:0:0:0:
256,192,154805,1,4,0:0:0:0:
256,192,155077,1,0,0:0:0:0:
256,192,155168,1,8,0:0:0:0:
256,192,155350,1,0,0:0:0:0:
256,192,155441,1,0,0:0:0:0:
256,192,155532,1,0,0:0:0:0:
256,192,155623,1,0,0:0:0:0:
256,192,155714,1,0,0:0:0:0:
256,192,155895,1,8,0:0:0:0:
256,192,156168,1,0,0:0:0:0:
256,192,156259,1,8,0:0:0:0:
256,192,156441,1,8,0:0:0:0:
256,192,156623,1,0,0:0:0:0:
256,192,156683,1,0,0:0:0:0:
256,192,156744,1,0,0:0:0:0:
256,192,156805,1,8,0:0:0:0:
256,192,156895,1,8,0:0:0:0:
256,192,156986,1,0,0:0:0:0:
256,192,157168,1,4,0:0:0:0:
256,192,157440,1,4,0:0:0:0:
256,192,157713,1,4,0:0:0:0:
256,192,157895,1,8,0:0:0:0:
256,192,158016,1,0,0:0:0:0:
256,192,158137,1,8,0:0:0:0:
256,192,158258,1,0,0:0:0:0:
256,192,158380,1,0,0:0:0:0:
256,192,158501,1,8,0:0:0:0:
256,192,158622,1,0,0:0:0:0:
256,192,158864,1,0,0:0:0:0:
256,192,159168,1,0,0:0:0:0:
256,192,159228,1,0,0:0:0:0:
256,192,159289,1,0,0:0:0:0:
256,192,159349,1,8,0:0:0:0:
256,192,159531,1,4,0:0:0:0:
256,192,159803,1,0,0:0:0:0:
256,192,159894,1,8,0:0:0:0:
256,192,160076,1,4,0:0:0:0:
256,192,160440,1,0,0:0:0:0:
256,192,160621,1,12,0:0:0:0:
256,192,160985,1,8,0:0:0:0:
256,192,161167,1,0,0:0:0:0:
256,192,161531,1,0,0:0:0:0:
256,192,161591,1,0,0:0:0:0:
256,192,161652,1,0,0:0:0:0:
256,192,161712,1,8,0:0:0:0:
256,192,161894,1,0,0:0:0:0:
256,192,162440,1,8,0:0:0:0:
256,192,162803,1,4,0:0:0:0:
256,192,163166,1,8,0:0:0:0:
256,192,163530,1,0,0:0:0:0:
256,192,163621,1,8,0:0:0:0:
256,192,163712,1,0,0:0:0:0:
256,192,163893,1,8,0:0:0:0:
256,192,164075,1,8,0:0:0:0:
256,192,164166,1,8,0:0:0:0:
256,192,164257,1,0,0:0:0:0:
256,192,164348,1,8,0:0:0:0:
256,192,164439,1,0,0:0:0:0:
256,192,164621,1,8,0:0:0:0:
256,192,164803,1,0,0:0:0:0:
256,192,164984,1,0,0:0:0:0:
256,192,165075,1,8,0:0:0:0:
256,192,165166,1,0,0:0:0:0:
256,192,165348,1,8,0:0:0:0:
256,192,165530,1,8,0:0:0:0:
256,192,165712,1,0,0:0:0:0:
256,192,166075,1,8,0:0:0:0:
256,192,166257,1,0,0:0:0:0:
256,192,166348,1,0,0:0:0:0:
256,192,166439,1,0,0:0:0:0:
256,192,166530,1,8,0:0:0:0:
256,192,166621,1,0,0:0:0:0:
256,192,166803,1,8,0:0:0:0:
256,192,166984,1,8,0:0:0:0:
256,192,167075,1,8,0:0:0:0:
256,192,167166,1,0,0:0:0:0:
256,192,167257,1,8,0:0:0:0:
256,192,167348,1,0,0:0:0:0:
256,192,167530,1,8,0:0:0:0:
256,192,167712,1,0,0:0:0:0:
256,192,167803,1,8,0:0:0:0:
256,192,167893,1,0,0:0:0:0:
256,192,168075,1,0,0:0:0:0:
256,192,168257,1,8,0:0:0:0:
256,192,168439,1,8,0:0:0:0:
256,192,168621,1,0,0:0:0:0:
256,192,168984,1,8,0:0:0:0:
256,192,169166,1,0,0:0:0:0:
256,192,169348,1,0,0:0:0:0:
256,192,169439,1,8,0:0:0:0:
256,192,169530,1,0,0:0:0:0:
256,192,169711,1,8,0:0:0:0:
256,192,169893,1,8,0:0:0:0:
256,192,169984,1,8,0:0:0:0:
256,192,170075,1,0,0:0:0:0:
256,192,170166,1,8,0:0:0:0:
256,192,170257,1,0,0:0:0:0:
256,192,170439,1,8,0:0:0:0:
256,192,170621,1,0,0:0:0:0:
256,192,170712,1,0,0:0:0:0:
256,192,170802,1,0,0:0:0:0:
256,192,170893,1,8,0:0:0:0:
256,192,170984,1,0,0:0:0:0:
256,192,171166,1,8,0:0:0:0:
256,192,171348,1,0,0:0:0:0:
256,192,171530,1,0,0:0:0:0:
256,192,171621,1,0,0:0:0:0:
256,192,171712,1,0,0:0:0:0:
256,192,171893,1,8,0:0:0:0:
256,192,172075,1,8,0:0:0:0:
256,192,172257,1,0,0:0:0:0:
256,192,172348,1,8,0:0:0:0:
256,192,172439,1,0,0:0:0:0:
256,192,172621,1,8,0:0:0:0:
256,192,172803,1,8,0:0:0:0:
256,192,172893,1,0,0:0:0:0:
256,192,172984,1,0,0:0:0:0:
256,192,173075,1,8,0:0:0:0:
256,192,173166,1,0,0:0:0:0:
256,192,173348,1,0,0:0:0:0:
256,192,173530,1,8,0:0:0:0:
256,192,173712,1,0,0:0:0:0:
256,192,173893,1,0,0:0:0:0:
256,192,174075,1,8,0:0:0:0:
256,192,174439,1,4,0:0:0:0:
256,192,174803,1,8,0:0:0:0:
256,192,174984,1,8,0:0:0:0:
256,192,175075,1,8,0:0:0:0:
256,192,175166,1,0,0:0:0:0:
256,192,175257,1,0,0:0:0:0:
256,192,175348,1,0,0:0:0:0:
256,192,175530,1,8,0:0:0:0:
256,192,175712,1,0,0:0:0:0:
256,192,175893,1,0,0:0:0:0:
256,192,175984,1,8,0:0:0:0:
256,192,176075,1,0,0:0:0:0:
256,192,176257,1,8,0:0:0:0:
256,192,176439,1,0,0:0:0:0:
256,192,176530,1,0,0:0:0:0:
256,192,176621,1,0,0:0:0:0:
256,192,176712,1,8,0:0:0:0:
256,192,176803,1,0,0:0:0:0:
256,192,176984,1,8,0:0:0:0:
256,192,177166,1,8,0:0:0:0:
256,192,177348,1,0,0:0:0:0:
256,192,177712,1,8,0:0:0:0:
256,192,177893,1,0,0:0:0:0:
256,192,177984,1,8,0:0:0:0:
256,192,178166,1,8,0:0:0:0:
256,192,178257,1,0,0:0:0:0:
256,192,178439,1,8,0:0:0:0:
256,192,178621,1,0,0:0:0:0:
256,192,178984,1,0,0:0:0:0:
256,192,179166,1,8,0:0:0:0:
256,192,179348,1,0,0:0:0:0:
256,192,179439,1,8,0:0:0:0:
256,192,179530,1,0,0:0:0:0:
256,192,179712,1,0,0:0:0:0:
256,192,179893,1,8,0:0:0:0:
256,192,180257,1,4,0:0:0:0:
256,192,180621,1,8,0:0:0:0:
256,192,180803,1,0,0:0:0:0:
256,192,180985,1,0,0:0:0:0:
256,192,181076,1,8,0:0:0:0:
256,192,181167,1,0,0:0:0:0:
256,192,181348,1,8,0:0:0:0:
256,192,181530,1,8,0:0:0:0:
256,192,181712,1,0,0:0:0:0:
256,192,181803,1,8,0:0:0:0:
256,192,181894,1,0,0:0:0:0:
256,192,182076,1,8,0:0:0:0:
256,192,182258,1,0,0:0:0:0:
256,192,182349,1,0,0:0:0:0:
256,192,182439,1,0,0:0:0:0:
256,192,182530,1,8,0:0:0:0:
256,192,182621,1,0,0:0:0:0:
256,192,182803,1,8,0:0:0:0:
256,192,183167,1,4,0:0:0:0:
256,192,183530,1,8,0:0:0:0:
256,192,183712,1,0,0:0:0:0:
256,192,183803,1,8,0:0:0:0:
256,192,183893,1,0,0:0:0:0:
256,192,184075,1,0,0:0:0:0:
256,192,184257,1,8,0:0:0:0:
256,192,184439,1,0,0:0:0:0:
256,192,184499,1,0,0:0:0:0:
256,192,184560,1,0,0:0:0:0:
256,192,184621,1,8,0:0:0:0:
256,192,184803,1,0,0:0:0:0:
256,192,184893,1,8,0:0:0:0:
256,192,184984,1,8,0:0:0:0:
256,192,185075,1,0,0:0:0:0:
256,192,185166,1,8,0:0:0:0:
256,192,185257,1,8,0:0:0:0:
256,192,185348,1,0,0:0:0:0:
256,192,185439,1,0,0:0:0:0:
256,192,185530,1,8,0:0:0:0:
256,192,185621,1,0,0:0:0:0:
256,192,185712,1,8,0:0:0:0:
256,192,185893,1,0,0:0:0:0:
256,192,186076,1,8,0:0:0:0:
256,192,186439,1,0,0:0:0:0:
256,192,186621,1,4,0:0:0:0:
256,192,187166,1,0,0:0:0:0:
256,192,187257,1,0,0:0:0:0:
256,192,187348,1,8,0:0:0:0:
256,192,187530,1,8,0:0:0:0:
256,192,188075,1,0,0:0:0:0:
256,192,188257,1,0,0:0:0:0:
256,192,188984,1,4,0:0:0:0:
256,192,189348,1,0,0:0:0:0:
256,192,189712,1,8,0:0:0:0:
256,192,189893,1,8,0:0:0:0:
256,192,190075,1,0,0:0:0:0:
256,192,190257,1,0,0:0:0:0:
256,192,190621,1,8,0:0:0:0:
256,192,190803,1,0,0:0:0:0:
256,192,190984,1,0,0:0:0:0:
256,192,191166,1,8,0:0:0:0:
256,192,191530,1,0,0:0:0:0:
256,192,191712,1,8,0:0:0:0:
256,192,191893,1,4,0:0:0:0:
256,192,192257,1,0,0:0:0:0:
256,192,192621,1,8,0:0:0:0:
256,192,192803,1,8,0:0:0:0:
256,192,192984,1,0,0:0:0:0:
256,192,193166,1,0,0:0:0:0:
256,192,193530,1,8,0:0:0:0:
256,192,193712,1,0,0:0:0:0:
256,192,193893,1,0,0:0:0:0:
256,192,194075,1,8,0:0:0:0:
256,192,194257,1,0,0:0:0:0:
256,192,194439,1,8,0:0:0:0:
256,192,194621,1,0,0:0:0:0:
256,192,194803,1,0,0:0:0:0:
256,192,195166,1,0,0:0:0:0:
256,192,195530,1,8,0:0:0:0:
256,192,195712,1,8,0:0:0:0:
256,192,195893,1,0,0:0:0:0:
256,192,196075,1,0,0:0:0:0:
256,192,196439,1,8,0:0:0:0:
256,192,196621,1,0,0:0:0:0:
256,192,196803,1,0,0:0:0:0:
256,192,196984,1,8,0:0:0:0:
256,192,197166,1,8,0:0:0:0:
256,192,197348,1,0,0:0:0:0:
256,192,197530,1,0,0:0:0:0:
256,192,197712,1,0,0:0:0:0:
256,192,198075,1,0,0:0:0:0:
256,192,198439,1,8,0:0:0:0:
256,192,198621,1,8,0:0:0:0:
256,192,198803,1,0,0:0:0:0:
256,192,198984,1,0,0:0:0:0:
256,192,199348,1,8,0:0:0:0:
256,192,199530,1,0,0:0:0:0:
256,192,199712,1,0,0:0:0:0:
256,192,199893,1,8,0:0:0:0:
256,192,200075,1,0,0:0:0:0:
256,192,200136,1,0,0:0:0:0:
256,192,200196,1,0,0:0:0:0:
256,192,200257,1,0,0:0:0:0:
256,192,200439,1,8,0:0:0:0:
256,192,200621,1,4,0:0:0:0:
256,192,200984,1,0,0:0:0:0:
256,192,201166,1,0,0:0:0:0:
256,192,201348,1,8,0:0:0:0:
256,192,201712,1,0,0:0:0:0:
256,192,201893,1,0,0:0:0:0:
256,192,202257,1,8,0:0:0:0:
256,192,202439,1,0,0:0:0:0:
256,192,202621,1,0,0:0:0:0:
256,192,202803,1,8,0:0:0:0:
256,192,203166,1,0,0:0:0:0:
256,192,203348,1,8,0:0:0:0:
256,192,203530,1,0,0:0:0:0:
256,192,203893,1,0,0:0:0:0:
256,192,204075,1,0,0:0:0:0:
256,192,204257,1,8,0:0:0:0:
256,192,204621,1,0,0:0:0:0:
256,192,204803,1,0,0:0:0:0:
256,192,204893,1,0,0:0:0:0:
256,192,204984,1,0,0:0:0:0:
256,192,205166,1,0,0:0:0:0:
256,192,205348,1,8,0:0:0:0:
256,192,205530,1,0,0:0:0:0:
256,192,205712,1,8,0:0:0:0:
256,192,206075,1,0,0:0:0:0:
256,192,206257,1,0,0:0:0:0:
256,192,206439,1,4,0:0:0:0:
256,192,206803,1,0,0:0:0:0:
256,192,207166,1,8,0:0:0:0:
256,192,207348,1,8,0:0:0:0:
256,192,207530,1,0,0:0:0:0:
256,192,207712,1,0,0:0:0:0:
256,192,207803,1,0,0:0:0:0:
256,192,207893,1,0,0:0:0:0:
256,192,208075,1,8,0:0:0:0:
256,192,208257,1,0,0:0:0:0:
256,192,208439,1,0,0:0:0:0:
256,192,208621,1,8,0:0:0:0:
256,192,208984,1,0,0:0:0:0:
256,192,209166,1,8,0:0:0:0:
256,192,209348,1,0,0:0:0:0:
256,192,209712,1,0,0:0:0:0:
256,192,210075,1,8,0:0:0:0:
256,192,210257,1,8,0:0:0:0:
256,192,210439,1,0,0:0:0:0:
256,192,210621,1,0,0:0:0:0:
256,192,210712,1,0,0:0:0:0:
256,192,210803,1,0,0:0:0:0:
256,192,210984,1,8,0:0:0:0:
256,192,211166,1,0,0:0:0:0:
256,192,211348,1,0,0:0:0:0:
256,192,211530,1,8,0:0:0:0:
256,192,211712,1,0,0:0:0:0:
256,192,211893,1,0,0:0:0:0:
256,192,212075,1,8,0:0:0:0:
256,192,212257,1,4,0:0:0:0:
256,192,212621,1,0,0:0:0:0:
256,192,212984,1,8,0:0:0:0:
256,192,213166,1,8,0:0:0:0:
256,192,213348,1,0,0:0:0:0:
256,192,213530,1,0,0:0:0:0:
256,192,213621,1,0,0:0:0:0:
256,192,213712,1,0,0:0:0:0:
256,192,213893,1,8,0:0:0:0:
256,192,214075,1,0,0:0:0:0:
256,192,214257,1,0,0:0:0:0:
256,192,214439,1,8,0:0:0:0:
256,192,214621,1,0,0:0:0:0:
256,192,214803,1,8,0:0:0:0:
256,192,214984,1,8,0:0:0:0:
256,192,215166,1,4,0:0:0:0:
256,192,215530,1,0,0:0:0:0:
256,192,215893,1,8,0:0:0:0:
256,192,216075,1,8,0:0:0:0:
256,192,216257,1,0,0:0:0:0:
256,192,216439,1,8,0:0:0:0:
256,192,216530,1,8,0:0:0:0:
256,192,216621,1,0,0:0:0:0:
256,192,216803,1,8,0:0:0:0:
256,192,216984,1,0,0:0:0:0:
256,192,217166,1,0,0:0:0:0:
256,192,217348,1,8,0:0:0:0:
256,192,217530,1,0,0:0:0:0:
256,192,217712,1,0,0:0:0:0:
256,192,217893,1,8,0:0:0:0:
256,192,218075,1,0,0:0:0:0:
256,192,218439,1,0,0:0:0:0:
256,192,218621,1,0,0:0:0:0:
256,192,218803,1,8,0:0:0:0:
256,192,218984,1,8,0:0:0:0:
256,192,219166,1,0,0:0:0:0:
256,192,219348,1,0,0:0:0:0:
256,192,219439,1,0,0:0:0:0:
256,192,219530,1,0,0:0:0:0:
256,192,219712,1,8,0:0:0:0:
256,192,219893,1,0,0:0:0:0:
256,192,220075,1,0,0:0:0:0:
256,192,220257,1,8,0:0:0:0:
256,192,220439,1,8,0:0:0:0:
256,192,220621,1,0,0:0:0:0:
256,192,220803,1,8,0:0:0:0:
256,192,220984,1,0,0:0:0:0:
256,192,221348,1,0,0:0:0:0:
256,192,221712,1,8,0:0:0:0:
256,192,222075,1,0,0:0:0:0:
256,192,222257,1,8,0:0:0:0:
256,192,222348,1,8,0:0:0:0:
256,192,222439,1,8,0:0:0:0:
256,192,222621,1,0,0:0:0:0:
256,192,222803,1,8,0:0:0:0:
256,192,222984,1,0,0:0:0:0:
256,192,223166,1,8,0:0:0:0:
256,192,223287,1,0,0:0:0:0:
256,192,223409,1,8,0:0:0:0:
256,192,223530,1,8,0:0:0:0:
256,192,223651,1,0,0:0:0:0:
256,192,223772,1,8,0:0:0:0:
256,192,223893,1,0,0:0:0:0:
256,192,224257,1,0,0:0:0:0:
256,192,224621,1,8,0:0:0:0:
256,192,224984,1,0,0:0:0:0:
256,192,225166,1,0,0:0:0:0:
256,192,225348,1,0,0:0:0:0:
256,192,225530,1,8,0:0:0:0:
256,192,225712,1,0,0:0:0:0:
256,192,225893,1,0,0:0:0:0:
256,192,226075,1,8,0:0:0:0:
256,192,226257,1,0,0:0:0:0:
256,192,226348,1,0,0:0:0:0:
256,192,226439,1,0,0:0:0:0:
256,192,226621,1,8,0:0:0:0:
256,192,226803,1,0,0:0:0:0:
256,192,227166,1,0,0:0:0:0:
256,192,227530,1,8,0:0:0:0:
256,192,227712,1,8,0:0:0:0:
256,192,227893,1,0,0:0:0:0:
256,192,228075,1,8,0:0:0:0:
256,192,228166,1,8,0:0:0:0:
256,192,228257,1,0,0:0:0:0:
256,192,228439,1,8,0:0:0:0:
256,192,228621,1,0,0:0:0:0:
256,192,228803,1,0,0:0:0:0:
256,192,228984,1,8,0:0:0:0:
256,192,229166,1,0,0:0:0:0:
256,192,229257,1,0,0:0:0:0:
256,192,229348,1,8,0:0:0:0:
256,192,229530,1,0,0:0:0:0:
256,192,229712,1,0,0:0:0:0:
256,192,230075,1,0,0:0:0:0:
256,192,230439,1,8,0:0:0:0:
256,192,230803,1,0,0:0:0:0:
256,192,230984,1,8,0:0:0:0:
256,192,231075,1,8,0:0:0:0:
256,192,231166,1,0,0:0:0:0:
256,192,231348,1,8,0:0:0:0:
256,192,231530,1,0,0:0:0:0:
256,192,231712,1,0,0:0:0:0:
256,192,231893,1,8,0:0:0:0:
256,192,232075,1,0,0:0:0:0:
256,192,232257,1,8,0:0:0:0:
256,192,232621,1,0,0:0:0:0:
256,192,232803,1,8,0:0:0:0:
256,192,232984,1,0,0:0:0:0:
256,192,233166,1,0,0:0:0:0:
256,192,233348,1,8,0:0:0:0:
256,192,233530,1,8,0:0:0:0:
256,192,233712,1,0,0:0:0:0:
256,192,233893,1,4,0:0:0:0:
256,192,234257,1,8,0:0:0:0:
256,192,234348,1,0,0:0:0:0:
256,192,234439,1,0,0:0:0:0:
256,192,234530,1,8,0:0:0:0:
256,192,234621,1,8,0:0:0:0:
256,192,234712,1,0,0:0:0:0:
256,192,234803,1,8,0:0:0:0:
256,192,234893,1,0,0:0:0:0:
256,192,234984,1,8,0:0:0:0:
256,192,235075,1,8,0:0:0:0:
256,192,235166,1,8,0:0:0:0:
256,192,235348,1,0,0:0:0:0:
256,192,235439,1,0,0:0:0:0:
256,192,235530,1,0,0:0:0:0:
256,192,235893,1,8,0:0:0:0:
256,192,236075,1,0,0:0:0:0:
256,192,236166,1,8,0:0:0:0:
256,192,236257,1,0,0:0:0:0:
256,192,236348,1,0,0:0:0:0:
256,192,236439,1,0,0:0:0:0:
256,192,236621,1,8,0:0:0:0:
256,192,236803,1,4,0:0:0:0:
256,192,237166,1,0,0:0:0:0:
256,192,237348,1,8,0:0:0:0:
256,192,237621,1,8,0:0:0:0:
256,192,237712,1,0,0:0:0:0:
256,192,237893,1,0,0:0:0:0:
256,192,238075,1,8,0:0:0:0:
256,192,238257,1,8,0:0:0:0:
256,192,238439,1,4,0:0:0:0:
256,192,238803,1,8,0:0:0:0:
256,192,239166,1,0,0:0:0:0:
256,192,239348,1,0,0:0:0:0:
256,192,239530,1,8,0:0:0:0:
256,192,239712,1,0,0:0:0:0:
256,192,240075,1,0,0:0:0:0:
256,192,240257,1,8,0:0:0:0:
256,192,240439,1,8,0:0:0:0:
256,192,240530,1,8,0:0:0:0:
256,192,240621,1,0,0:0:0:0:
256,192,240803,1,0,0:0:0:0:
256,192,240984,1,12,0:0:0:0:
256,192,241348,1,4,0:0:0:0:
256,192,241712,1,8,0:0:0:0:
256,192,241893,1,8,0:0:0:0:
256,192,242075,1,0,0:0:0:0:
256,192,242257,1,0,0:0:0:0:
256,192,242348,1,0,0:0:0:0:
256,192,242439,1,8,0:0:0:0:
256,192,242621,1,0,0:0:0:0:
256,192,242984,1,0,0:0:0:0:
256,192,243166,1,8,0:0:0:0:
256,192,243530,1,0,0:0:0:0:
256,192,243712,1,0,0:0:0:0:
256,192,243893,1,8,0:0:0:0:
256,192,244257,1,4,0:0:0:0:
256,192,244439,1,0,0:0:0:0:
256,192,244530,1,0,0:0:0:0:
256,192,244621,1,8,0:0:0:0:
256,192,244803,1,8,0:0:0:0:
256,192,244984,1,0,0:0:0:0:
256,192,245166,1,0,0:0:0:0:
256,192,245348,1,8,0:0:0:0:
256,192,245530,1,0,0:0:0:0:
256,192,245893,1,0,0:0:0:0:
256,192,246075,1,8,0:0:0:0:
256,192,246257,1,8,0:0:0:0:
256,192,246318,1,8,0:0:0:0:
256,192,246378,1,8,0:0:0:0:
256,192,246439,1,8,0:0:0:0:
256,192,246621,1,0,0:0:0:0:
256,192,246803,1,8,0:0:0:0:
256,192,246984,1,8,0:0:0:0:
256,192,247166,1,4,0:0:0:0:
256,192,247530,1,8,0:0:0:0:
256,192,247712,1,8,0:0:0:0:
256,192,247893,1,0,0:0:0:0:
256,192,248075,1,0,0:0:0:0:
256,192,248166,1,0,0:0:0:0:
256,192,248257,1,8,0:0:0:0:
256,192,248439,1,0,0:0:0:0:
256,192,248803,1,0,0:0:0:0:
256,192,248984,1,8,0:0:0:0:
256,192,249257,1,8,0:0:0:0:
256,192,249348,1,0,0:0:0:0:
256,192,249530,1,0,0:0:0:0:
256,192,249712,1,8,0:0:0:0:
256,192,249893,1,8,0:0:0:0:
256,192,250075,1,4,0:0:0:0:
256,192,250439,1,8,0:0:0:0:
256,192,250803,1,0,0:0:0:0:
256,192,250984,1,0,0:0:0:0:
256,192,251166,1,8,0:0:0:0:
256,192,251348,1,0,0:0:0:0:
256,192,251712,1,0,0:0:0:0:
256,192,251893,1,8,0:0:0:0:
256,192,252075,1,0,0:0:0:0:
256,192,252166,1,0,0:0:0:0:
256,192,252257,1,0,0:0:0:0:
256,192,252439,1,0,0:0:0:0:
256,192,252621,1,8,0:0:0:0:
256,192,252803,1,8,0:0:0:0:
256,192,252984,1,4,0:0:0:0:
256,192,253348,1,8,0:0:0:0:
256,192,253530,1,8,0:0:0:0:
256,192,253621,1,8,0:0:0:0:
256,192,253712,1,0,0:0:0:0:
256,192,253893,1,0,0:0:0:0:
256,192,254075,1,8,0:0:0:0:
256,192,254257,1,0,0:0:0:0:
256,192,254621,1,0,0:0:0:0:
256,192,254803,1,8,0:0:0:0:
256,192,255075,1,8,0:0:0:0:
256,192,255166,1,0,0:0:0:0:
256,192,255348,1,0,0:0:0:0:
256,192,255530,1,12,0:0:0:0:
256,192,255893,1,4,0:0:0:0:
256,192,256257,1,8,0:0:0:0:
256,192,256439,1,0,0:0:0:0:
256,192,256530,1,0,0:0:0:0:
256,192,256621,1,8,0:0:0:0:
256,192,256803,1,0,0:0:0:0:
256,192,256984,1,0,0:0:0:0:
256,192,257166,1,4,0:0:0:0:
256,192,257711,1,8,0:0:0:0:
256,192,258438,1,8,0:0:0:0:
256,192,259166,1,8,0:0:0:0:
256,192,259893,1,8,0:0:0:0:
256,192,260075,1,4,0:0:0:0:
256,192,260620,1,8,0:0:0:0:
256,192,261347,1,8,0:0:0:0:
256,192,262075,1,8,0:0:0:0:
256,192,262802,1,8,0:0:0:0:
256,192,262984,1,4,0:0:0:0:
256,192,263529,1,8,0:0:0:0:
256,192,264256,1,8,0:0:0:0:
256,192,264984,1,8,0:0:0:0:
256,192,265711,1,8,0:0:0:0:
256,192,265893,1,4,0:0:0:0:
256,192,266438,1,8,0:0:0:0:
256,192,267166,1,8,0:0:0:0:
256,192,267347,1,0,0:0:0:0:
256,192,267529,1,0,0:0:0:0:
256,192,267711,1,0,0:0:0:0:
256,192,267893,1,8,0:0:0:0:
256,192,268256,1,0,0:0:0:0:
256,192,268438,1,0,0:0:0:0:
256,192,268620,1,8,0:0:0:0:
256,192,268802,1,4,0:0:0:0:
256,192,269347,1,8,0:0:0:0:
256,192,270075,1,8,0:0:0:0:
256,192,270802,1,8,0:0:0:0:
256,192,271529,1,8,0:0:0:0:
256,192,271711,1,4,0:0:0:0:
256,192,272256,1,8,0:0:0:0:
256,192,272984,1,8,0:0:0:0:
256,192,273347,1,12,0:0:0:0:
256,192,273711,1,8,0:0:0:0:
256,192,274075,1,0,0:0:0:0:
256,192,274438,1,8,0:0:0:0:
256,192,274620,1,4,0:0:0:0:
256,192,275166,1,8,0:0:0:0:
256,192,275893,1,8,0:0:0:0:
256,192,276620,1,8,0:0:0:0:
256,192,276802,1,0,0:0:0:0:
256,192,277347,1,8,0:0:0:0:
256,192,277529,1,4,0:0:0:0:
256,192,278075,1,8,0:0:0:0:
256,192,278802,1,8,0:0:0:0:
256,192,279529,1,8,0:0:0:0:
256,192,279893,1,0,0:0:0:0:
256,192,280256,1,8,0:0:0:0:
256,192,280438,1,4,0:0:0:0:
256,192,280984,1,8,0:0:0:0:
256,192,281711,1,8,0:0:0:0:
128,128,282075,2,0,P|223:84|320:128,2,210,0|0|0,0:0|0:0|0:0,0:0:0:0:
256,192,283347,1,4,0:0:0:0:
256,192,283711,1,0,0:0:0:0:
256,192,283893,1,0,0:0:0:0:
256,192,284075,1,0,0:0:0:0:
256,192,284256,1,0,0:0:0:0:
256,192,284438,1,0,0:0:0:0:
256,192,284620,1,0,0:0:0:0:
256,192,284802,1,8,0:0:0:0:
256,192,284984,1,8,0:0:0:0:
256,192,285166,1,8,0:0:0:0:
256,192,285347,1,8,0:0:0:0:
256,192,285529,1,8,0:0:0:0:
256,192,285711,1,8,0:0:0:0:
256,192,285893,1,0,0:0:0:0:
256,192,285984,1,8,0:0:0:0:
256,192,286075,1,0,0:0:0:0:
256,192,286166,1,0,0:0:0:0:
256,192,286256,1,8,0:0:0:0:
256,192,286438,1,4,0:0:0:0:
256,192,286801,1,8,0:0:0:0:
256,192,287164,1,0,0:0:0:0:
256,192,287346,1,0,0:0:0:0:
256,192,287528,1,8,0:0:0:0:
256,192,287710,1,0,0:0:0:0:
256,192,288073,1,0,0:0:0:0:
256,192,288255,1,8,0:0:0:0:
256,192,288438,1,0,0:0:0:0:
256,192,288528,1,0,0:0:0:0:
256,192,288619,1,0,0:0:0:0:
256,192,288801,1,0,0:0:0:0:
256,192,288982,1,8,0:0:0:0:
256,192,289346,1,0,0:0:0:0:
256,192,289710,1,8,0:0:0:0:
256,192,290073,1,0,0:0:0:0:
256,192,290256,1,0,0:0:0:0:
256,192,290437,1,8,0:0:0:0:
256,192,290619,1,4,0:0:0:0:
256,192,290982,1,0,0:0:0:0:
256,192,291164,1,8,0:0:0:0:
256,192,291528,1,0,0:0:0:0:
256,192,291710,1,0,0:0:0:0:
256,192,291891,1,8,0:0:0:0:
256,192,292255,1,4,0:0:0:0:
256,192,292619,1,8,0:0:0:0:
256,192,292982,1,0,0:0:0:0:
256,192,293164,1,0,0:0:0:0:
256,192,293346,1,8,0:0:0:0:
256,192,293528,1,0,0:0:0:0:
256,192,293891,1,0,0:0:0:0:
256,192,294073,1,8,0:0:0:0:
256,192,294256,1,8,0:0:0:0:
256,192,294347,1,8,0:0:0:0:
256,192,294438,1,0,0:0:0:0:
256,192,294619,1,0,0:0:0:0:
256,192,294801,1,8,0:0:0:0:
256,192,295165,1,4,0:0:0:0:
256,192,295528,1,8,0:0:0:0:
256,192,295892,1,0,0:0:0:0:
256,192,296074,1,0,0:0:0:0:
256,192,296165,1,0,0:0:0:0:
256,192,296256,1,8,0:0:0:0:
256,192,296438,1,4,0:0:0:0:
256,192,296801,1,0,0:0:0:0:
256,192,296983,1,8,0:0:0:0:
256,192,297165,1,8,0:0:0:0:
256,192,297225,1,8,0:0:0:0:
256,192,297286,1,8,0:0:0:0:
256,192,297347,1,8,0:0:0:0:
256,192,297528,1,8,0:0:0:0:
256,192,297710,1,8,0:0:0:0:
256,192,297771,1,8,0:0:0:0:
256,192,297831,1,8,0:0:0:0:
256,192,297892,1,8,0:0:0:0:
256,192,298074,1,4,0:0:0:0:
256,192,298438,1,8,0:0:0:0:
256,192,298801,1,0,0:0:0:0:
256,192,298983,1,0,0:0:0:0:
256,192,299165,1,8,0:0:0:0:
256,192,299347,1,0,0:0:0:0:
256,192,299710,1,0,0:0:0:0:
256,192,299892,1,8,0:0:0:0:
256,192,300074,1,0,0:0:0:0:
256,192,300165,1,0,0:0:0:0:
256,192,300256,1,0,0:0:0:0:
256,192,300438,1,0,0:0:0:0:
256,192,300619,1,8,0:0:0:0:
256,192,300983,1,4,0:0:0:0:
256,192,301347,1,8,0:0:0:0:
256,192,301528,1,8,0:0:0:0:
256,192,301710,1,0,0:0:0:0:
256,192,301892,1,0,0:0:0:0:
256,192,302074,1,8,0:0:0:0:
256,192,302256,1,4,0:0:0:0:
256,192,302619,1,0,0:0:0:0:
256,192,302801,1,8,0:0:0:0:
256,192,302983,1,8,0:0:0:0:
256,192,303074,1,8,0:0:0:0:
256,192,303165,1,0,0:0:0:0:
256,192,303347,1,0,0:0:0:0:
256,192,303528,1,8,0:0:0:0:
256,192,303892,1,4,0:0:0:0:
256,192,304256,1,8,0:0:0:0:
256,192,304619,1,0,0:0:0:0:
256,192,304801,1,0,0:0:0:0:
256,192,304983,1,8,0:0:0:0:
256,192,305165,1,0,0:0:0:0:
256,192,305528,1,0,0:0:0:0:
256,192,305710,1,8,0:0:0:0:
256,192,305892,1,0,0:0:0:0:
256,192,305983,1,8,0:0:0:0:
256,192,306074,1,0,0:0:0:0:
256,192,306256,1,0,0:0:0:0:
256,192,306437,1,8,0:0:0:0:
256,192,306801,1,4,0:0:0:0:
256,192,307165,1,8,0:0:0:0:
256,192,307346,1,8,0:0:0:0:
256,192,307528,1,0,0:0:0:0:
256,192,307710,1,0,0:0:0:0:
256,192,307771,1,0,0:0:0:0:
256,192,307831,1,0,0:0:0:0:
256,192,307892,1,8,0:0:0:0:
256,192,308074,1,4,0:0:0:0:
256,192,308438,1,12,0:0:0:0:
256,192,308619,1,12,0:0:0:0:
256,192,308801,1,0,0:0:0:0:
256,192,308983,1,12,0:0:0:0:
256,192,309165,1,0,0:0:0:0:
256,192,309347,1,0,0:0:0:0:
256,192,309710,1,4,0:0:0:0:
256,192,310074,1,8,0:0:0:0:
256,192,310437,1,0,0:0:0:0:
256,192,310619,1,0,0:0:0:0:
256,192,310801,1,8,0:0:0:0:
256,192,310983,1,0,0:0:0:0:
256,192,311346,1,0,0:0:0:0:
256,192,311528,1,8,0:0:0:0:
256,192,311710,1,0,0:0:0:0:
256,192,311801,1,0,0:0:0:0:
256,192,311892,1,0,0:0:0:0:
256,192,312074,1,0,0:0:0:0:
256,192,312255,1,8,0:0:0:0:
256,192,312619,1,4,0:0:0:0:
256,192,312983,1,8,0:0:0:0:
256,192,313346,1,0,0:0:0:0:
256,192,313528,1,0,0:0:0:0:
256,192,313710,1,8,0:0:0:0:
256,192,313892,1,4,0:0:0:0:
256,192,314256,1,0,0:0:0:0:
256,192,314438,1,8,0:0:0:0:
256,192,314619,1,0,0:0:0:0:
256,192,314710,1,8,0:0:0:0:
256,192,314801,1,0,0:0:0:0:
256,192,314983,1,0,0:0:0:0:
256,192,315165,1,8,0:0:0:0:
256,192,315528,1,4,0:0:0:0:
256,192,315892,1,8,0:0:0:0:
256,192,316255,1,0,0:0:0:0:
256,192,316437,1,0,0:0:0:0:
256,192,316619,1,8,0:0:0:0:
256,192,316801,1,0,0:0:0:0:
256,192,317164,1,0,0:0:0:0:
256,192,317346,1,8,0:0:0:0:
256,192,317528,1,0,0:0:0:0:
256,192,317619,1,0,0:0:0:0:
256,192,317710,1,0,0:0:0:0:
256,192,317892,1,0,0:0:0:0:
256,192,318073,1,8,0:0:0:0:
256,192,318437,1,4,0:0:0:0:
256,192,318801,1,8,0:0:0:0:
256,192,318982,1,8,0:0:0:0:
256,192,319074,1,8,0:0:0:0:
256,192,319164,1,0,0:0:0:0:
256,192,319346,1,0,0:0:0:0:
256,192,319528,1,8,0:0:0:0:
256,192,319710,1,4,0:0:0:0:
256,192,320074,1,0,0:0:0:0:
256,192,320256,1,12,0:0:0:0:
256,192,320619,1,0,0:0:0:0:
256,192,320710,1,0,0:0:0:0:
256,192,320801,1,8,0:0:0:0:
256,192,320892,1,8,0:0:0:0:
256,192,320983,1,8,0:0:0:0:
256,192,321165,1,0,0:0:0:0:
256,192,321347,1,4,0:0:0:0:
256,192,323348,1,8,0:0:0:0:
256,192,323711,1,8,0:0:0:0:
256,192,324075,1,8,0:0:0:0:
256,192,324438,1,0,0:0:0:0:
256,192,324620,1,4,0:0:0:0:
256,192,325166,1,0,0:0:0:0:
256,192,325348,1,8,0:0:0:0:
256,192,325711,1,0,0:0:0:0:
256,192,325893,1,0,0:0:0:0:
256,192,326257,1,0,0:0:0:0:
256,192,326620,1,0,0:0:0:0:
256,192,326802,1,0,0:0:0:0:
256,192,326984,1,8,0:0:0:0:
256,192,327166,1,0,0:0:0:0:
256,192,327348,1,8,0:0:0:0:
256,192,327408,1,8,0:0:0:0:
256,192,327469,1,8,0:0:0:0:
256,192,327529,1,8,0:0:0:0:
256,192,327590,1,8,0:0:0:0:
256,192,327651,1,8,0:0:0:0:
256,192,327711,1,8,0:0:0:0:
256,192,327893,1,4,0:0:0:0:
256,192,328257,1,8,0:0:0:0:
256,192,328529,1,8,0:0:0:0:
256,192,328620,1,0,0:0:0:0:
256,192,328802,1,0,0:0:0:0:
256,192,328984,1,8,0:0:0:0:
256,192,329166,1,0,0:0:0:0:
256,192,329438,1,8,0:0:0:0:
256,192,329529,1,0,0:0:0:0:
256,192,329802,1,8,0:0:0:0:
256,192,329893,1,0,0:0:0:0:
256,192,330075,1,0,0:0:0:0:
256,192,330257,1,8,0:0:0:0:
256,192,330438,1,0,0:0:0:0:
256,192,330620,1,0,0:0:0:0:
256,192,330711,1,8,0:0:0:0:
256,192,330802,1,0,0:0:0:0:
256,192,330984,1,8,0:0:0:0:
256,192,331166,1,0,0:0:0:0:
256,192,331257,1,0,0:0:0:0:
256,192,331348,1,0,0:0:0:0:
256,192,331438,1,8,0:0:0:0:
256,192,331529,1,0,0:0:0:0:
256,192,331711,1,8,0:0:0:0:
256,192,331893,1,0,0:0:0:0:
256,192,331984,1,8,0:0:0:0:
256,192,332075,1,0,0:0:0:0:
256,192,332166,1,8,0:0:0:0:
256,192,332257,1,0,0:0:0:0:
256,192,332438,1,8,0:0:0:0:
256,192,332620,1,8,0:0:0:0:
256,192,332802,1,0,0:0:0:0:
256,192,332893,1,8,0:0:0:0:
256,192,332984,1,0,0:0:0:0:
256,192,333166,1,0,0:0:0:0:
256,192,333257,1,8,0:0:0:0:
256,192,333348,1,0,0:0:0:0:
256,192,333529,1,8,0:0:0:0:
256,192,333802,1,8,0:0:0:0:
256,192,333893,1,0,0:0:0:0:
256,192,334075,1,0,0:0:0:0:
256,192,334257,1,8,0:0:0:0:
256,192,334438,1,4,0:0:0:0:
256,192,334802,1,8,0:0:0:0:
256,192,335166,1,0,0:0:0:0:
256,192,335257,1,8,0:0:0:0:
256,192,335348,1,0,0:0:0:0:
256,192,335529,1,8,0:0:0:0:
256,192,335711,1,0,0:0:0:0:
256,192,336075,1,8,0:0:0:0:
256,192,336348,1,8,0:0:0:0:
256,192,336438,1,0,0:0:0:0:
256,192,336620,1,0,0:0:0:0:
256,192,336802,1,8,0:0:0:0:
256,192,337166,1,0,0:0:0:0:
256,192,337257,1,8,0:0:0:0:
256,192,337348,1,0,0:0:0:0:
256,192,337529,1,8,0:0:0:0:
256,192,337711,1,0,0:0:0:0:
256,192,337984,1,8,0:0:0:0:
256,192,338075,1,0,0:0:0:0:
256,192,338257,1,8,0:0:0:0:
256,192,338438,1,0,0:0:0:0:
256,192,338529,1,0,0:0:0:0:
256,192,338620,1,0,0:0:0:0:
256,192,338711,1,8,0:0:0:0:
256,192,338802,1,0,0:0:0:0:
256,192,338984,1,8,0:0:0:0:
256,192,339166,1,8,0:0:0:0:
256,192,339348,1,0,0:0:0:0:
256,192,339438,1,8,0:0:0:0:
256,192,339529,1,0,0:0:0:0:
256,192,339711,1,0,0:0:0:0:
256,192,339802,1,8,0:0:0:0:
256,192,339893,1,0,0:0:0:0:
256,192,340075,1,8,0:0:0:0:
256,192,340348,1,8,0:0:0:0:
256,192,340438,1,0,0:0:0:0:
256,192,340620,1,0,0:0:0:0:
256,192,340802,1,8,0:0:0:0:
256,192,340984,1,0,0:0:0:0:
256,192,341348,1,8,0:0:0:0:
256,192,341620,1,8,0:0:0:0:
256,192,341711,1,0,0:0:0:0:
256,192,342075,1,8,0:0:0:0:
256,192,342257,1,4,0:0:0:0:
256,192,342620,1,4,0:0:0:0:
256,192,342984,1,4,0:0:0:0:
256,192,343166,1,0,0:0:0:0:
256,192,343348,1,8,0:0:0:0:
256,192,343711,1,0,0:0:0:0:
256,192,343893,1,0,0:0:0:0:
256,192,344075,1,8,0:0:0:0:
256,192,344257,1,4,0:0:0:0:
256,192,344438,1,8,0:0:0:0:
256,192,344529,1,8,0:0:0:0:
256,192,344620,1,8,0:0:0:0:
256,192,344802,1,8,0:0:0:0:
256,192,344984,1,0,0:0:0:0:
256,192,345075,1,0,0:0:0:0:
256,192,345166,1,8,0:0:0:0:
256,192,345257,1,0,0:0:0:0:
256,192,345348,1,8,0:0:0:0:
256,192,345529,1,0,0:0:0:0:
256,192,345620,1,0,0:0:0:0:
256,192,345802,1,0,0:0:0:0:
256,192,345893,1,8,0:0:0:0:
256,192,346075,1,0,0:0:0:0:
256,192,346257,1,0,0:0:0:0:
256,192,346348,1,0,0:0:0:0:
256,192,346438,1,0,0:0:0:0:
256,192,346529,1,0,0:0:0:0:
256,192,346620,1,0,0:0:0:0:
256,192,346711,1,0,0:0:0:0:
256,192,346802,1,0,0:0:0:0:
256,192,346893,1,0,0:0:0:0:
256,192,346984,1,0,0:0:0:0:
256,192,347166,1,0,0:0:0:0:
256,192,347348,1,4,0:0:0:0:
256,192,347711,1,8,0:0:0:0:
256,192,347984,1,8,0:0:0:0:
256,192,348075,1,0,0:0:0:0:
256,192,348257,1,0,0:0:0:0:
256,192,348438,1,8,0:0:0:0:
256,192,348620,1,0,0:0:0:0:
256,192,348802,1,0,0:0:0:0:
256,192,348984,1,8,0:0:0:0:
256,192,349257,1,8,0:0:0:0:
256,192,349348,1,0,0:0:0:0:
256,192,349529,1,0,0:0:0:0:
256,192,349711,1,8,0:0:0:0:
256,192,349893,1,0,0:0:0:0:
256,192,349984,1,8,0:0:0:0:
256,192,350075,1,0,0:0:0:0:
256,192,350257,1,0,0:0:0:0:
256,192,350438,1,8,0:0:0:0:
256,192,350620,1,0,0:0:0:0:
256,192,350984,1,8,0:0:0:0:
256,192,351166,1,0,0:0:0:0:
256,192,351257,1,0,0:0:0:0:
256,192,351348,1,0,0:0:0:0:
256,192,351438,1,8,0:0:0:0:
256,192,351529,1,0,0:0:0:0:
256,192,351711,1,8,0:0:0:0:
256,192,351893,1,4,0:0:0:0:
256,192,352257,1,4,0:0:0:0:
256,192,352620,1,0,0:0:0:0:
256,192,352802,1,0,0:0:0:0:
256,192,352984,1,8,0:0:0:0:
256,192,353166,1,0,0:0:0:0:
256,192,353257,1,8,0:0:0:0:
256,192,353348,1,0,0:0:0:0:
256,192,353529,1,0,0:0:0:0:
256,192,353711,1,8,0:0:0:0:
256,192,353893,1,4,0:0:0:0:
256,192,354257,1,8,0:0:0:0:
256,192,354438,1,0,0:0:0:0:
256,192,354529,1,0,0:0:0:0:
256,192,354620,1,8,0:0:0:0:
256,192,354802,1,0,0:0:0:0:
256,192,354984,1,0,0:0:0:0:
256,192,355166,1,0,0:0:0:0:
256,192,355529,1,8,0:0:0:0:
256,192,355711,1,0,0:0:0:0:
256,192,355802,1,8,0:0:0:0:
256,192,355893,1,0,0:0:0:0:
256,192,356075,1,0,0:0:0:0:
256,192,356257,1,8,0:0:0:0:
256,192,356438,1,0,0:0:0:0:
256,192,356529,1,8,0:0:0:0:
256,192,356620,1,0,0:0:0:0:
256,192,356802,1,0,0:0:0:0:
256,192,356984,1,8,0:0:0:0:
256,192,357166,1,4,0:0:0:0:
256,192,357529,1,0,0:0:0:0:
256,192,357711,1,8,0:0:0:0:
256,192,357893,1,0,0:0:0:0:
256,192,358257,1,8,0:0:0:0:
256,192,358438,1,0,0:0:0:0:
256,192,358802,1,12,0:0:0:0:
256,192,359166,1,0,0:0:0:0:
256,192,359257,1,8,0:0:0:0:
256,192,359348,1,0,0:0:0:0:
256,192,359529,1,8,0:0:0:0:
256,192,359711,1,0,0:0:0:0:
256,192,359893,1,0,0:0:0:0:
256,192,359984,1,8,0:0:0:0:
256,192,360075,1,0,0:0:0:0:
256,192,360257,1,8,0:0:0:0:
256,192,360438,1,0,0:0:0:0:
256,192,360529,1,0,0:0:0:0:
256,192,360711,1,0,0:0:0:0:
256,192,360802,1,8,0:0:0:0:
256,192,360984,1,8,0:0:0:0:
256,192,361166,1,0,0:0:0:0:
256,192,361226,1,0,0:0:0:0:
256,192,361287,1,0,0:0:0:0:
256,192,361348,1,0,0:0:0:0:
256,192,361408,1,0,0:0:0:0:
256,192,361469,1,0,0:0:0:0:
256,192,361529,1,8,0:0:0:0:
256,192,361711,1,4,0:0:0:0:
256,192,362075,1,4,0:0:0:0:
256,192,362438,1,4,0:0:0:0:
256,192,362620,1,0,0:0:0:0:
256,192,362802,1,8,0:0:0:0:
256,192,362984,1,0,0:0:0:0:
256,192,363075,1,8,0:0:0:0:
256,192,363166,1,0,0:0:0:0:
256,192,363348,1,0,0:0:0:0:
256,192,363529,1,8,0:0:0:0:
256,192,363711,1,4,0:0:0:0:
256,192,364075,1,8,0:0:0:0:
256,192,364348,1,8,0:0:0:0:
256,192,364438,1,0,0:0:0:0:
256,192,364620,1,0,0:0:0:0:
256,192,364802,1,8,0:0:0:0:
256,192,364984,1,4,0:0:0:0:
256,192,365166,1,0,0:0:0:0:
256,192,365348,1,12,0:0:0:0:
256,192,365711,1,8,0:0:0:0:
256,192,365802,1,0,0:0:0:0:
256,192,365893,1,8,0:0:0:0:
256,192,365984,1,8,0:0:0:0:
256,192,366075,1,0,0:0:0:0:
256,192,366166,1,0,0:0:0:0:
256,192,366257,1,0,0:0:0:0:
256,192,366348,1,0,0:0:0:0:
256,192,366438,1,8,0:0:0:0:
256,192,366529,1,0,0:0:0:0:
256,192,366620,1,8,0:0:0:0:
256,192,366802,1,4,0:0:0:0:
256,192,367165,1,8,0:0:0:0:
256,192,367438,1,8,0:0:0:0:
256,192,367529,1,0,0:0:0:0:
256,192,367711,1,0,0:0:0:0:
256,192,367892,1,8,0:0:0:0:
256,192,368074,1,0,0:0:0:0:
256,192,368347,1,8,0:0:0:0:
256,192,368438,1,0,0:0:0:0:
256,192,368711,1,8,0:0:0:0:
256,192,368802,1,0,0:0:0:0:
256,192,368983,1,0,0:0:0:0:
256,192,369165,1,8,0:0:0:0:
256,192,369347,1,0,0:0:0:0:
256,192,369438,1,8,0:0:0:0:
256,192,369529,1,0,0:0:0:0:
256,192,369711,1,0,0:0:0:0:
256,192,369892,1,8,0:0:0:0:
256,192,370074,1,0,0:0:0:0:
256,192,370165,1,8,0:0:0:0:
256,192,370347,1,8,0:0:0:0:
256,192,370438,1,0,0:0:0:0:
256,192,370620,1,8,0:0:0:0:
256,192,370802,1,0,0:0:0:0:
256,192,370892,1,8,0:0:0:0:
256,192,370983,1,0,0:0:0:0:
256,192,371074,1,0,0:0:0:0:
256,192,371165,1,0,0:0:0:0:
256,192,371347,1,8,0:0:0:0:
256,192,371529,1,0,0:0:0:0:
256,192,371711,1,8,0:0:0:0:
256,192,371892,1,0,0:0:0:0:
256,192,371983,1,0,0:0:0:0:
256,192,372074,1,0,0:0:0:0:
256,192,372256,1,0,0:0:0:0:
256,192,372438,1,8,0:0:0:0:
256,192,372711,1,8,0:0:0:0:
256,192,372802,1,0,0:0:0:0:
256,192,372983,1,0,0:0:0:0:
256,192,373165,1,8,0:0:0:0:
256,192,373347,1,4,0:0:0:0:
256,192,373711,1,8,0:0:0:0:
256,192,373983,1,8,0:0:0:0:
256,192,374074,1,0,0:0:0:0:
256,192,374256,1,0,0:0:0:0:
256,192,374438,1,8,0:0:0:0:
256,192,374620,1,4,0:0:0:0:
256,192,374983,1,4,0:0:0:0:
256,192,375347,1,0,0:0:0:0:
256,192,375529,1,0,0:0:0:0:
256,192,375620,1,8,0:0:0:0:
256,192,375711,1,0,0:0:0:0:
256,192,375892,1,8,0:0:0:0:
256,192,376074,1,0,0:0:0:0:
256,192,376165,1,8,0:0:0:0:
256,192,376256,1,0,0:0:0:0:
256,192,376438,1,8,0:0:0:0:
256,192,376620,1,4,0:0:0:0:
256,192,376983,1,8,0:0:0:0:
256,192,377256,1,8,0:0:0:0:
256,192,377347,1,0,0:0:0:0:
256,192,377529,1,0,0:0:0:0:
256,192,377711,1,8,0:0:0:0:
256,192,377892,1,4,0:0:0:0:
256,192,378256,1,4,0:0:0:0:
256,192,378620,1,8,0:0:0:0:
256,192,378983,1,0,0:0:0:0:
256,192,379165,1,0,0:0:0:0:
256,192,379347,1,0,0:0:0:0:
256,192,379529,1,0,0:0:0:0:
256,192,379589,1,0,0:0:0:0:
256,192,379650,1,0,0:0:0:0:
256,192,379711,1,8,0:0:0:0:
256,192,379892,1,4,0:0:0:0:
256,192,380256,1,4,0:0:0:0:
256,192,380620,1,0,0:0:0:0:
256,192,380802,1,0,0:0:0:0:
256,192,380983,1,8,0:0:0:0:
256,192,381256,1,8,0:0:0:0:
256,192,381347,1,0,0:0:0:0:
256,192,381529,1,0,0:0:0:0:
256,192,381711,1,8,0:0:0:0:
256,192,381892,1,4,0:0:0:0:
256,192,382256,1,8,0:0:0:0:
256,192,382529,1,8,0:0:0:0:
256,192,382620,1,0,0:0:0:0:
256,192,382802,1,0,0:0:0:0:
256,192,382983,1,8,0:0:0:0:
256,192,383165,1,4,0:0:0:0:
256,192,383529,1,8,0:0:0:0:
256,192,383892,1,0,0:0:0:0:
256,192,384074,1,0,0:0:0:0:
256,192,384256,1,8,0:0:0:0:
256,192,384438,1,4,0:0:0:0:
256,192,384802,1,8,0:0:0:0:
256,192,385165,1,0,0:0:0:0:
256,192,385256,1,8,0:0:0:0:
256,192,385347,1,0,0:0:0:0:
256,192,385529,1,8,0:0:0:0:
256,192,385711,1,0,0:0:0:0:
256,192,385892,1,12,0:0:0:0:
256,192,386074,1,12,0:0:0:0:
256,192,386256,1,0,0:0:0:0:
256,192,386438,1,4,0:0:0:0:
256,192,386802,1,8,0:0:0:0:
256,192,387074,1,8,0:0:0:0:
256,192,387165,1,0,0:0:0:0:
256,192,387347,1,0,0:0:0:0:
256,192,387529,1,8,0:0:0:0:
256,192,387711,1,0,0:0:0:0:
256,192,388074,1,8,0:0:0:0:
256,192,388256,1,0,0:0:0:0:
256,192,388438,1,0,0:0:0:0:
256,192,388529,1,8,0:0:0:0:
256,192,388620,1,0,0:0:0:0:
256,192,388802,1,8,0:0:0:0:
256,192,388983,1,0,0:0:0:0:
256,192,389074,1,0,0:0:0:0:
256,192,389165,1,0,0:0:0:0:
256,192,389347,1,0,0:0:0:0:
256,192,389529,1,8,0:0:0:0:
256,192,389711,1,4,0:0:0:0:
256,192,390074,1,8,0:0:0:0:
256,192,390256,1,0,0:0:0:0:
256,192,390438,1,0,0:0:0:0:
256,192,390529,1,8,0:0:0:0:
256,192,390620,1,0,0:0:0:0:
256,192,390802,1,8,0:0:0:0:
256,192,390983,1,4,0:0:0:0:
256,192,391165,1,0,0:0:0:0:
256,192,391347,1,12,0:0:0:0:
256,192,391711,1,0,0:0:0:0:
256,192,391892,1,0,0:0:0:0:
256,192,392074,1,8,0:0:0:0:
256,192,392256,1,0,0:0:0:0:
256,192,392347,1,0,0:0:0:0:
256,192,392438,1,0,0:0:0:0:
256,192,392529,1,8,0:0:0:0:
256,192,392620,1,0,0:0:0:0:
256,192,392802,1,8,0:0:0:0:
256,192,392983,1,4,0:0:0:0:
256,192,393347,1,8,0:0:0:0:
256,192,393711,1,0,0:0:0:0:
256,192,393892,1,0,0:0:0:0:
256,192,394074,1,8,0:0:0:0:
256,192,394256,1,4,0:0:0:0:
256,192,394620,1,8,0:0:0:0:
256,192,394983,1,0,0:0:0:0:
256,192,395165,1,0,0:0:0:0:
256,192,395347,1,8,0:0:0:0:
256,192,395711,1,0,0:0:0:0:
256,192,395892,1,0,0:0:0:0:
256,192,395983,1,0,0:0:0:0:
256,192,396074,1,8,0:0:0:0:
256,192,396256,1,4,0:0:0:0:
256,192,396620,1,0,0:0:0:0:
256,192,396802,1,8,0:0:0:0:
256,192,396983,1,4,0:0:0:0:
256,192,397347,1,0,0:0:0:0:
256,192,397529,1,12,0:0:0:0:
256,192,397892,1,12,0:0:0:0:
256,192,398073,1,0,0:0:0:0:
256,192,398255,1,0,0:0:0:0:
256,192,398437,1,8,0:0:0:0:
256,192,398619,1,0,0:0:0:0:
256,192,398710,1,8,0:0:0:0:
256,192,398801,1,0,0:0:0:0:
256,192,398982,1,8,0:0:0:0:
256,192,399164,1,0,0:0:0:0:
256,192,399255,1,8,0:0:0:0:
256,192,399346,1,0,0:0:0:0:
256,192,399528,1,8,0:0:0:0:
256,192,399710,1,0,0:0:0:0:
256,192,399801,1,0,0:0:0:0:
256,192,399892,1,0,0:0:0:0:
256,192,400073,1,8,0:0:0:0:
256,192,400255,1,8,0:0:0:0:
256,192,400437,1,0,0:0:0:0:
256,192,400801,1,4,0:0:0:0:
256,192,401164,1,0,0:0:0:0:
256,192,401346,1,8,0:0:0:0:
256,192,401528,1,0,0:0:0:0:
256,192,401619,1,8,0:0:0:0:
256,192,401710,1,0,0:0:0:0:
256,192,401892,1,8,0:0:0:0:
256,192,402073,1,0,0:0:0:0:
256,192,402164,1,8,0:0:0:0:
256,192,402255,1,0,0:0:0:0:
256,192,402437,1,8,0:0:0:0:
256,192,402619,1,0,0:0:0:0:
256,192,402710,1,0,0:0:0:0:
256,192,402801,1,0,0:0:0:0:
256,192,402982,1,8,0:0:0:0:
256,192,403164,1,8,0:0:0:0:
256,192,403346,1,8,0:0:0:0:
256,192,403710,1,12,0:0:0:0:
256,192,404073,1,0,0:0:0:0:
256,192,404255,1,8,0:0:0:0:
256,192,404437,1,0,0:0:0:0:
256,192,404528,1,8,0:0:0:0:
256,192,404619,1,0,0:0:0:0:
256,192,404801,1,8,0:0:0:0:
256,192,404982,1,0,0:0:0:0:
256,192,405073,1,0,0:0:0:0:
256,192,405164,1,0,0:0:0:0:
256,192,405346,1,8,0:0:0:0:
256,192,405528,1,0,0:0:0:0:
256,192,405710,1,0,0:0:0:0:
256,192,405892,1,8,0:0:0:0:
256,192,406073,1,0,0:0:0:0:
256,192,406255,1,8,0:0:0:0:
256,192,406619,1,12,0:0:0:0:
256,192,406982,1,0,0:0:0:0:
256,192,407164,1,0,0:0:0:0:
256,192,407346,1,8,0:0:0:0:
256,192,407528,1,8,0:0:0:0:
256,192,407710,1,8,0:0:0:0:
256,192,407892,1,8,0:0:0:0:
256,192,408073,1,12,0:0:0:0:
256,192,408437,1,0,0:0:0:0:
256,192,408619,1,12,0:0:0:0:
256,192,408982,1,0,0:0:0:0:
256,192,409164,1,12,0:0:0:0:
256,192,409528,1,4,0:0:0:0:
256,192,410982,1,4,0:0:0:0:
256,192,412437,1,4,0:0:0:0:
256,192,412801,1,8,0:0:0:0:
256,192,413346,1,8,0:0:0:0:
256,192,413710,1,8,0:0:0:0:
256,192,413801,1,0,0:0:0:0:
256,192,413892,1,8,0:0:0:0:
256,192,414073,1,0,0:0:0:0:
256,192,414164,1,0,0:0:0:0:
256,192,414255,1,8,0:0:0:0:
256,192,414437,1,8,0:0:0:0:
256,192,414619,1,0,0:0:0:0:
256,192,414710,1,0,0:0:0:0:
256,192,414801,1,0,0:0:0:0:
256,192,414982,1,12,0:0:0:0:
256,192,415346,1,4,0:0:0:0:
256,192,415619,1,0,0:0:0:0:
256,192,415710,1,8,0:0:0:0:
256,192,415892,1,0,0:0:0:0:
256,192,416255,1,0,0:0:0:0:
256,192,416437,1,8,0:0:0:0:
256,192,416801,1,0,0:0:0:0:
256,192,416982,1,0,0:0:0:0:
256,192,417073,1,0,0:0:0:0:
256,192,417164,1,8,0:0:0:0:
256,192,417346,1,0,0:0:0:0:
256,192,417710,1,0,0:0:0:0:
256,192,417892,1,8,0:0:0:0:
256,192,418073,1,8,0:0:0:0:
256,192,418255,1,0,0:0:0:0:
256,192,418619,1,8,0:0:0:0:
256,192,418801,1,0,0:0:0:0:
256,192,419164,1,0,0:0:0:0:
256,192,419346,1,8,0:0:0:0:
256,192,419528,1,0,0:0:0:0:
256,192,419619,1,0,0:0:0:0:
256,192,419710,1,0,0:0:0:0:
256,192,419801,1,8,0:0:0:0:
256,192,419892,1,0,0:0:0:0:
256,192,420073,1,0,0:0:0:0:
256,192,420255,1,8,0:0:0:0:
256,192,420437,1,0,0:0:0:0:
256,192,420619,1,0,0:0:0:0:
256,192,420801,1,12,0:0:0:0:
256,192,421164,1,4,0:0:0:0:
256,192,421437,1,0,0:0:0:0:
256,192,421528,1,8,0:0:0:0:
256,192,421710,1,0,0:0:0:0:
256,192,422073,1,0,0:0:0:0:
256,192,422255,1,8,0:0:0:0:
256,192,422437,1,0,0:0:0:0:
256,192,422528,1,8,0:0:0:0:
256,192,422619,1,0,0:0:0:0:
256,192,422801,1,0,0:0:0:0:
256,192,422982,1,8,0:0:0:0:
256,192,423164,1,0,0:0:0:0:
256,192,423528,1,0,0:0:0:0:
256,192,423710,1,12,0:0:0:0:
256,192,424073,1,4,0:0:0:0:
256,192,424437,1,8,0:0:0:0:
256,192,424619,1,0,0:0:0:0:
256,192,424982,1,0,0:0:0:0:
256,192,425164,1,8,0:0:0:0:
256,192,425346,1,0,0:0:0:0:
256,192,425437,1,8,0:0:0:0:
256,192,425528,1,0,0:0:0:0:
256,192,425710,1,0,0:0:0:0:
256,192,425892,1,8,0:0:0:0:
256,192,426073,1,8,0:0:0:0:
256,192,426255,1,0,0:0:0:0:
256,192,426437,1,0,0:0:0:0:
256,192,426619,1,12,0:0:0:0:
256,192,426982,1,4,0:0:0:0:
256,192,427346,1,8,0:0:0:0:
256,192,427528,1,0,0:0:0:0:
256,192,427619,1,0,0:0:0:0:
256,192,427710,1,0,0:0:0:0:
256,192,427892,1,0,0:0:0:0:
256,192,428073,1,8,0:0:0:0:
256,192,428437,1,0,0:0:0:0:
256,192,428619,1,0,0:0:0:0:
256,192,428710,1,0,0:0:0:0:
256,192,428801,1,8,0:0:0:0:
256,192,429164,1,0,0:0:0:0:
256,192,429346,1,0,0:0:0:0:
256,192,429528,1,12,0:0:0:0:
256,192,429892,1,4,0:0:0:0:
256,192,430073,1,8,0:0:0:0:
256,192,430164,1,8,0:0:0:0:
256,192,430255,1,8,0:0:0:0:
256,192,430437,1,4,0:0:0:0:
256,192,430619,1,0,0:0:0:0:
256,192,430710,1,0,0:0:0:0:
256,192,430801,1,8,0:0:0:0:
256,192,430982,1,4,0:0:0:0:
256,192,431164,1,8,0:0:0:0:
256,192,431255,1,0,0:0:0:0:
256,192,431346,1,8,0:0:0:0:
256,192,431437,1,8,0:0:0:0:
256,192,431528,1,8,0:0:0:0:
256,192,431619,1,8,0:0:0:0:
256,192,431710,1,0,0:0:0:0:
256,192,431801,1,0,0:0:0:0:
256,192,431892,1,0,0:0:0:0:
256,192,431982,1,0,0:0:0:0:
256,192,432073,1,0,0:0:0:0:
256,192,432255,1,0,0:0:0:0:
256,192,432437,1,12,0:0:0:0:
256,192,432801,1,4,0:0:0:0:
256,192,433073,1,0,0:0:0:0:
256,192,433164,1,8,0:0:0:0:
256,192,433346,1,0,0:0:0:0:
256,192,433528,1,0,0:0:0:0:
256,192,433619,1,0,0:0:0:0:
256,192,433710,1,0,0:0:0:0:
256,192,433892,1,8,0:0:0:0:
256,192,434073,1,8,0:0:0:0:
256,192,434255,1,0,0:0:0:0:
256,192,434437,1,0,0:0:0:0:
256,192,434528,1,0,0:0:0:0:
256,192,434619,1,8,0:0:0:0:
256,192,434801,1,0,0:0:0:0:
256,192,435164,1,0,0:0:0:0:
256,192,435346,1,8,0:0:0:0:
256,192,435528,1,0,0:0:0:0:
256,192,435710,1,4,0:0:0:0:
256,192,435982,1,0,0:0:0:0:
256,192,436073,1,8,0:0:0:0:
256,192,436255,1,0,0:0:0:0:
256,192,436346,1,0,0:0:0:0:
256,192,436437,1,0,0:0:0:0:
256,192,436619,1,0,0:0:0:0:
256,192,436801,1,8,0:0:0:0:
256,192,436982,1,0,0:0:0:0:
256,192,437073,1,8,0:0:0:0:
256,192,437164,1,0,0:0:0:0:
256,192,437346,1,0,0:0:0:0:
256,192,437528,1,8,0:0:0:0:
256,192,437892,1,0,0:0:0:0:
256,192,438073,1,0,0:0:0:0:
256,192,438255,1,12,0:0:0:0:
256,192,438619,1,4,0:0:0:0:
256,192,438892,1,0,0:0:0:0:
256,192,438982,1,8,0:0:0:0:
256,192,439164,1,0,0:0:0:0:
256,192,439346,1,8,0:0:0:0:
256,192,439437,1,8,0:0:0:0:
256,192,439528,1,0,0:0:0:0:
256,192,439710,1,8,0:0:0:0:
256,192,439892,1,8,0:0:0:0:
256,192,440073,1,0,0:0:0:0:
256,192,440346,1,0,0:0:0:0:
256,192,440437,1,8,0:0:0:0:
256,192,440619,1,0,0:0:0:0:
256,192,440710,1,0,0:0:0:0:
256,192,440801,1,0,0:0:0:0:
256,192,440982,1,0,0:0:0:0:
256,192,441164,1,8,0:0:0:0:
256,192,441346,1,8,0:0:0:0:
256,192,441528,1,4,0:0:0:0:
256,192,441892,1,8,0:0:0:0:
256,192,442073,1,0,0:0:0:0:
256,192,442164,1,0,0:0:0:0:
256,192,442255,1,0,0:0:0:0:
256,192,442437,1,0,0:0:0:0:
256,192,442619,1,8,0:0:0:0:
256,192,442982,1,0,0:0:0:0:
256,192,443164,1,0,0:0:0:0:
256,192,443346,1,8,0:0:0:0:
256,192,443528,1,0,0:0:0:0:
256,192,443619,1,0,0:0:0:0:
256,192,443710,1,0,0:0:0:0:
256,192,443892,1,8,0:0:0:0:
256,192,444073,1,0,0:0:0:0:
256,192,444255,1,8,0:0:0:0:
256,192,444437,1,4,0:0:0:0:
256,192,444801,1,8,0:0:0:0:
256,192,444982,1,0,0:0:0:0:
256,192,445346,1,0,0:0:0:0:
256,192,445528,1,8,0:0:0:0:
256,192,445710,1,0,0:0:0:0:
256,192,445801,1,8,0:0:0:0:
256,192,445892,1,0,0:0:0:0:
256,192,446073,1,0,0:0:0:0:
256,192,446255,1,8,0:0:0:0:
256,192,446437,1,0,0:0:0:0:
256,192,446801,1,0,0:0:0:0:
256,192,446982,1,8,0:0:0:0:
256,192,447164,1,0,0:0:0:0:
256,192,447346,1,4,0:0:0:0:
256,192,447619,1,0,0:0:0:0:
256,192,447710,1,8,0:0:0:0:
256,192,447892,1,0,0:0:0:0:
256,192,448073,1,0,0:0:0:0:
256,192,448164,1,0,0:0:0:0:
256,192,448255,1,0,0:0:0:0:
256,192,448437,1,8,0:0:0:0:
256,192,448801,1,0,0:0:0:0:
256,192,448982,1,0,0:0:0:0:
256,192,449073,1,0,0:0:0:0:
256,192,449164,1,8,0:0:0:0:
256,192,449346,1,8,0:0:0:0:
256,192,449528,1,0,0:0:0:0:
256,192,449619,1,0,0:0:0:0:
256,192,449710,1,0,0:0:0:0:
256,192,449892,1,12,0:0:0:0:
256,192,450255,1,4,0:0:0:0:
256,192,450619,1,8,0:0:0:0:
256,192,450801,1,0,0:0:0:0:
256,192,451164,1,0,0:0:0:0:
256,192,451346,1,8,0:0:0:0:
256,192,451528,1,0,0:0:0:0:
256,192,451710,1,12,0:0:0:0:
256,192,452073,1,8,0:0:0:0:
256,192,452255,1,4,0:0:0:0:
256,192,452619,1,0,0:0:0:0:
256,192,452801,1,12,0:0:0:0:
256,192,453164,1,12,0:0:0:0:
256,192,453346,1,0,0:0:0:0:
256,192,453528,1,0,0:0:0:0:
256,192,453710,1,8,0:0:0:0:
256,192,453892,1,0,0:0:0:0:
256,192,454073,1,0,0:0:0:0:
256,192,454164,1,0,0:0:0:0:
256,192,454255,1,8,0:0:0:0:
256,192,454437,1,0,0:0:0:0:
256,192,454619,1,12,0:0:0:0:
256,192,454801,1,0,0:0:0:0:
256,192,454892,1,0,0:0:0:0:
256,192,454982,1,8,0:0:0:0:
256,192,455164,1,0,0:0:0:0:
256,192,455225,1,0,0:0:0:0:
256,192,455285,1,0,0:0:0:0:
256,192,455346,1,8,0:0:0:0:
256,192,455528,1,8,0:0:0:0:
256,192,455619,1,8,0:0:0:0:
256,192,455710,1,0,0:0:0:0:
256,192,455801,1,0,0:0:0:0:
256,192,455892,1,8,0:0:0:0:
256,192,456073,1,4,0:0:0:0:
256,192,456346,1,0,0:0:0:0:
256,192,456437,1,8,0:0:0:0:
256,192,456619,1,0,0:0:0:0:
256,192,456982,1,0,0:0:0:0:
256,192,457164,1,8,0:0:0:0:
256,192,457346,1,8,0:0:0:0:
256,192,457528,1,4,0:0:0:0:
256,192,457892,1,8,0:0:0:0:
256,192,458073,1,0,0:0:0:0:
256,192,458437,1,0,0:0:0:0:
256,192,458619,1,12,0:0:0:0:
256,192,458982,1,4,0:0:0:0:
256,192,459359,1,0,0:0:0:0:
256,192,459548,1,0,0:0:0:0:
256,192,459736,1,8,0:0:0:0:
256,192,459925,1,0,0:0:0:0:
256,192,460019,1,0,0:0:0:0:
256,192,460114,1,8,0:0:0:0:
256,192,460491,1,4,0:0:0:0:
256,192,461246,1,8,0:0:0:0:
256,192,461375,1,8,0:0:0:0:
256,192,461504,1,0,0:0:0:0:
256,192,461633,1,8,0:0:0:0:
256,192,461762,1,0,0:0:0:0:
256,192,461891,1,0,0:0:0:0:
256,192,462020,1,4,0:0:0:0:
256,192,465220,1,4,0:0:0:0:
256,192,467353,1,0,0:0:0:0:
256,192,467620,1,8,0:0:0:0:
256,192,467886,1,0,0:0:0:0:
256,192,468153,1,4,0:0:0:0:
256,192,468420,1,4,0:0:0:0:
256,192,470553,1,8,0:0:0:0:
256,192,470820,1,8,0:0:0:0:
256,192,471620,1,4,0:0:0:0:
256,192,471886,1,0,0:0:0:0:
256,192,472153,1,0,0:0:0:0:
256,192,472420,1,0,0:0:0:0:
256,192,472686,1,0,0:0:0:0:
256,192,472953,1,0,0:0:0:0:
256,192,473086,1,0,0:0:0:0:
256,192,473220,1,12,0:0:0:0:
256,192,473486,1,0,0:0:0:0:
256,192,473620,1,12,0:0:0:0:
256,192,473886,1,0,0:0:0:0:
256,192,473953,1,0,0:0:0:0:
256,192,474020,1,8,0:0:0:0:
256,192,474153,1,0,0:0:0:0:
256,192,474220,1,0,0:0:0:0:
256,192,474286,1,8,0:0:0:0:
256,192,474420,1,0,0:0:0:0:
256,192,474486,1,0,0:0:0:0:
256,192,474553,1,0,0:0:0:0:
256,192,474686,1,0,0:0:0:0:
256,192,474820,1,4,0:0:0:0:
256,192,475086,1,0,0:0:0:0:
256,192,475220,1,8,0:0:0:0:
256,192,475486,1,0,0:0:0:0:
256,192,475620,1,8,0:0:0:0:
256,192,475886,1,0,0:0:0:0:
256,192,476020,1,0,0:0:0:0:
256,192,476086,1,0,0:0:0:0:
256,192,476153,1,0,0:0:0:0:
256,192,476286,1,0,0:0:0:0:
256,192,476420,1,8,0:0:0:0:
256,192,476553,1,0,0:0:0:0:
256,192,476686,1,0,0:0:0:0:
256,192,476820,1,8,0:0:0:0:
256,192,477086,1,0,0:0:0:0:
256,192,477220,1,8,0:0:0:0:
256,192,477486,1,0,0:0:0:0:
256,192,477620,1,0,0:0:0:0:
256,192,477753,1,8,0:0:0:0:
256,192,478020,1,4,0:0:0:0:
256,192,478286,1,0,0:0:0:0:
256,192,478420,1,8,0:0:0:0:
256,192,478686,1,0,0:0:0:0:
256,192,478820,1,8,0:0:0:0:
256,192,479086,1,0,0:0:0:0:
256,192,479220,1,0,0:0:0:0:
256,192,479286,1,0,0:0:0:0:
256,192,479353,1,0,0:0:0:0:
256,192,479486,1,0,0:0:0:0:
256,192,479620,1,8,0:0:0:0:
256,192,479753,1,0,0:0:0:0:
256,192,479886,1,0,0:0:0:0:
256,192,480020,1,8,0:0:0:0:
256,192,480286,1,0,0:0:0:0:
256,192,480420,1,8,0:0:0:0:
256,192,480553,1,8,0:0:0:0:
256,192,480686,1,0,0:0:0:0:
256,192,480820,1,0,0:0:0:0:
256,192,480953,1,8,0:0:0:0:
256,192,481220,1,4,0:0:0:0:
256,192,481486,1,0,0:0:0:0:
256,192,481620,1,8,0:0:0:0:
256,192,481753,1,0,0:0:0:0:
256,192,481886,1,0,0:0:0:0:
256,192,482020,1,8,0:0:0:0:
256,192,482286,1,0,0:0:0:0:
256,192,482420,1,0,0:0:0:0:
256,192,482486,1,0,0:0:0:0:
256,192,482553,1,0,0:0:0:0:
256,192,482686,1,0,0:0:0:0:
256,192,482820,1,8,0:0:0:0:
256,192,482953,1,0,0:0:0:0:
256,192,483086,1,0,0:0:0:0:
256,192,483220,1,8,0:0:0:0:
256,192,483353,1,0,0:0:0:0:
256,192,483486,1,0,0:0:0:0:
256,192,483620,1,8,0:0:0:0:
256,192,483886,1,0,0:0:0:0:
256,192,484020,1,0,0:0:0:0:
256,192,484153,1,8,0:0:0:0:
256,192,484420,1,4,0:0:0:0:
256,192,484686,1,0,0:0:0:0:
256,192,484820,1,8,0:0:0:0:
256,192,484953,1,8,0:0:0:0:
256,192,485086,1,0,0:0:0:0:
256,192,485220,1,8,0:0:0:0:
256,192,485486,1,0,0:0:0:0:
256,192,485620,1,0,0:0:0:0:
256,192,485686,1,0,0:0:0:0:
256,192,485753,1,8,0:0:0:0:
256,192,485886,1,8,0:0:0:0:
256,192,486020,1,4,0:0:0:0:
256,192,486286,1,0,0:0:0:0:
256,192,486420,1,8,0:0:0:0:
256,192,486686,1,0,0:0:0:0:
256,192,486820,1,8,0:0:0:0:
256,192,486953,1,8,0:0:0:0:
256,192,487086,1,0,0:0:0:0:
256,192,487353,1,8,0:0:0:0:
256,192,487620,1,4,0:0:0:0:
256,192,487886,1,0,0:0:0:0:
256,192,488020,1,8,0:0:0:0:
256,192,488286,1,0,0:0:0:0:
256,192,488420,1,8,0:0:0:0:
256,192,488686,1,0,0:0:0:0:
256,192,488820,1,0,0:0:0:0:
256,192,488886,1,0,0:0:0:0:
256,192,488953,1,0,0:0:0:0:
256,192,489086,1,8,0:0:0:0:
256,192,489220,1,8,0:0:0:0:
256,192,489353,1,0,0:0:0:0:
256,192,489486,1,0,0:0:0:0:
256,192,489620,1,8,0:0:0:0:
256,192,489886,1,0,0:0:0:0:
256,192,490020,1,8,0:0:0:0:
256,192,490286,1,0,0:0:0:0:
256,192,490420,1,0,0:0:0:0:
256,192,490553,1,8,0:0:0:0:
256,192,490820,1,4,0:0:0:0:
256,192,491086,1,0,0:0:0:0:
256,192,491220,1,8,0:0:0:0:
256,192,491486,1,0,0:0:0:0:
256,192,491620,1,8,0:0:0:0:
256,192,491886,1,0,0:0:0:0:
256,192,492020,1,0,0:0:0:0:
256,192,492086,1,0,0:0:0:0:
256,192,492153,1,0,0:0:0:0:
256,192,492286,1,0,0:0:0:0:
256,192,492420,1,8,0:0:0:0:
256,192,492553,1,0,0:0:0:0:
256,192,492686,1,12,0:0:0:0:
256,192,492953,1,8,0:0:0:0:
256,192,493086,1,0,0:0:0:0:
256,192,493220,1,8,0:0:0:0:
256,192,493486,1,0,0:0:0:0:
256,192,493620,1,0,0:0:0:0:
256,192,493753,1,8,0:0:0:0:
256,192,494020,1,4,0:0:0:0:
256,192,494286,1,0,0:0:0:0:
256,192,494420,1,8,0:0:0:0:
256,192,494686,1,0,0:0:0:0:
256,192,494820,1,8,0:0:0:0:
256,192,495086,1,0,0:0:0:0:
256,192,495220,1,0,0:0:0:0:
256,192,495286,1,0,0:0:0:0:
256,192,495353,1,0,0:0:0:0:
256,192,495486,1,0,0:0:0:0:
256,192,495620,1,0,0:0:0:0:
256,192,495886,1,0,0:0:0:0:
256,192,496020,1,8,0:0:0:0:
256,192,496286,1,0,0:0:0:0:
256,192,496420,1,8,0:0:0:0:
256,192,496686,1,0,0:0:0:0:
256,192,496820,1,0,0:0:0:0:
256,192,496953,1,8,0:0:0:0:
256,192,497220,1,4,0:0:0:0:
256,192,497486,1,0,0:0:0:0:
256,192,497620,1,8,0:0:0:0:
256,192,497886,1,0,0:0:0:0:
256,192,498020,1,12,0:0:0:0:
256,192,498286,1,0,0:0:0:0:
256,192,498553,1,4,0:0:0:0:
256,192,498820,1,12,0:0:0:0:
256,192,498953,1,0,0:0:0:0:
256,192,499086,1,0,0:0:0:0:
256,192,499220,1,8,0:0:0:0:
256,192,499353,1,0,0:0:0:0:
256,192,499420,1,0,0:0:0:0:
256,192,499486,1,0,0:0:0:0:
256,192,499620,1,8,0:0:0:0:
256,192,499753,1,0,0:0:0:0:
256,192,499886,1,0,0:0:0:0:
256,192,500020,1,0,0:0:0:0:
256,192,500153,1,8,0:0:0:0:
256,192,500286,1,8,0:0:0:0:
256,192,500420,1,4,0:0:0:0:
256,192,500686,1,0,0:0:0:0:
256,192,500820,1,8,0:0:0:0:
256,192,501086,1,0,0:0:0:0:
256,192,501220,1,8,0:0:0:0:
256,192,501486,1,0,0:0:0:0:
256,192,501620,1,0,0:0:0:0:
256,192,501686,1,0,0:0:0:0:
256,192,501753,1,0,0:0:0:0:
256,192,501886,1,0,0:0:0:0:
256,192,502020,1,8,0:0:0:0:
256,192,502153,1,0,0:0:0:0:
256,192,502286,1,0,0:0:0:0:
256,192,502420,1,8,0:0:0:0:
256,192,502686,1,0,0:0:0:0:
256,192,502820,1,8,0:0:0:0:
256,192,503086,1,0,0:0:0:0:
256,192,503220,1,0,0:0:0:0:
256,192,503353,1,8,0:0:0:0:
256,192,503620,1,4,0:0:0:0:
256,192,503886,1,0,0:0:0:0:
256,192,504020,1,8,0:0:0:0:
256,192,504153,1,8,0:0:0:0:
256,192,504286,1,0,0:0:0:0:
256,192,504420,1,8,0:0:0:0:
256,192,504686,1,0,0:0:0:0:
256,192,504820,1,0,0:0:0:0:
256,192,504886,1,0,0:0:0:0:
256,192,504953,1,0,0:0:0:0:
256,192,505086,1,0,0:0:0:0:
256,192,505220,1,8,0:0:0:0:
256,192,505353,1,0,0:0:0:0:
256,192,505486,1,0,0:0:0:0:
256,192,505620,1,8,0:0:0:0:
256,192,505886,1,0,0:0:0:0:
256,192,506020,1,8,0:0:0:0:
256,192,506153,1,8,0:0:0:0:
256,192,506286,1,0,0:0:0:0:
256,192,506420,1,0,0:0:0:0:
256,192,506553,1,8,0:0:0:0:
256,192,506820,1,4,0:0:0:0:
256,192,507086,1,0,0:0:0:0:
256,192,507220,1,8,0:0:0:0:
256,192,507353,1,0,0:0:0:0:
256,192,507486,1,0,0:0:0:0:
256,192,507620,1,8,0:0:0:0:
256,192,507886,1,0,0:0:0:0:
256,192,508020,1,0,0:0:0:0:
256,192,508086,1,0,0:0:0:0:
256,192,508153,1,0,0:0:0:0:
256,192,508286,1,0,0:0:0:0:
256,192,508420,1,8,0:0:0:0:
256,192,508553,1,0,0:0:0:0:
256,192,508686,1,0,0:0:0:0:
256,192,508820,1,8,0:0:0:0:
256,192,508953,1,8,0:0:0:0:
256,192,509086,1,0,0:0:0:0:
256,192,509220,1,8,0:0:0:0:
256,192,509486,1,0,0:0:0:0:
256,192,509620,1,0,0:0:0:0:
256,192,509753,1,8,0:0:0:0:
256,192,510020,1,4,0:0:0:0:
256,192,510286,1,0,0:0:0:0:
256,192,510420,1,8,0:0:0:0:
256,192,510553,1,8,0:0:0:0:
256,192,510686,1,0,0:0:0:0:
256,192,510820,1,8,0:0:0:0:
256,192,511086,1,0,0:0:0:0:
256,192,511220,1,0,0:0:0:0:
256,192,511286,1,0,0:0:0:0:
256,192,511353,1,0,0:0:0:0:
256,192,511486,1,0,0:0:0:0:
256,192,511620,1,8,0:0:0:0:
256,192,511753,1,0,0:0:0:0:
256,192,511886,1,0,0:0:0:0:
256,192,512020,1,8,0:0:0:0:
256,192,512153,1,8,0:0:0:0:
256,192,512286,1,0,0:0:0:0:
256,192,512420,1,8,0:0:0:0:
256,192,512686,1,0,0:0:0:0:
256,192,512953,1,8,0:0:0:0:
256,192,513220,1,4,0:0:0:0:
256,192,513486,1,0,0:0:0:0:
256,192,513620,1,8,0:0:0:0:
256,192,513753,1,0,0:0:0:0:
256,192,513886,1,0,0:0:0:0:
256,192,514020,1,8,0:0:0:0:
256,192,514286,1,0,0:0:0:0:
256,192,514420,1,0,0:0:0:0:
256,192,514486,1,0,0:0:0:0:
256,192,514553,1,0,0:0:0:0:
256,192,514686,1,0,0:0:0:0:
256,192,514820,1,8,0:0:0:0:
256,192,514953,1,0,0:0:0:0:
256,192,515086,1,0,0:0:0:0:
256,192,515220,1,8,0:0:0:0:
256,192,515353,1,0,0:0:0:0:
256,192,515486,1,0,0:0:0:0:
256,192,515620,1,8,0:0:0:0:
256,192,515886,1,0,0:0:0:0:
256,192,516153,1,8,0:0:0:0:
256,192,516420,1,4,0:0:0:0:
256,192,516686,1,0,0:0:0:0:
256,192,516820,1,8,0:0:0:0:
256,192,516953,1,8,0:0:0:0:
256,192,517086,1,0,0:0:0:0:
256,192,517220,1,8,0:0:0:0:
256,192,517486,1,0,0:0:0:0:
256,192,517620,1,0,0:0:0:0:
256,192,517686,1,0,0:0:0:0:
256,192,517753,1,0,0:0:0:0:
256,192,517886,1,0,0:0:0:0:
256,192,518020,1,8,0:0:0:0:
256,192,518153,1,0,0:0:0:0:
256,192,518286,1,0,0:0:0:0:
256,192,518420,1,8,0:0:0:0:
256,192,518553,1,8,0:0:0:0:
256,192,518686,1,0,0:0:0:0:
256,192,518820,1,8,0:0:0:0:
256,192,518953,1,0,0:0:0:0:
256,192,519086,1,0,0:0:0:0:
256,192,519353,1,8,0:0:0:0:
256,192,519620,1,12,0:0:0:0:
256,192,519886,1,0,0:0:0:0:
256,192,520020,1,8,0:0:0:0:
256,192,520286,1,0,0:0:0:0:
256,192,520420,1,8,0:0:0:0:
256,192,520686,1,0,0:0:0:0:
256,192,520820,1,0,0:0:0:0:
256,192,520886,1,0,0:0:0:0:
256,192,520953,1,0,0:0:0:0:
256,192,521086,1,8,0:0:0:0:
256,192,521220,1,8,0:0:0:0:
256,192,521353,1,0,0:0:0:0:
256,192,521486,1,0,0:0:0:0:
256,192,521620,1,8,0:0:0:0:
256,192,521753,1,0,0:0:0:0:
256,192,521886,1,0,0:0:0:0:
256,192,522020,1,8,0:0:0:0:
256,192,522286,1,0,0:0:0:0:
256,192,522553,1,8,0:0:0:0:
256,192,522820,1,4,0:0:0:0:
256,192,523086,1,0,0:0:0:0:
256,192,523220,1,8,0:0:0:0:
256,192,523353,1,0,0:0:0:0:
256,192,523486,1,0,0:0:0:0:
256,192,523620,1,8,0:0:0:0:
256,192,523753,1,0,0:0:0:0:
256,192,523820,1,0,0:0:0:0:
256,192,523886,1,0,0:0:0:0:
256,192,524020,1,8,0:0:0:0:
256,192,524153,1,0,0:0:0:0:
256,192,524420,1,4,0:0:0:0:
256,192,524686,1,0,0:0:0:0:
256,192,524953,1,8,0:0:0:0:
256,192,525086,1,0,0:0:0:0:
256,192,525220,1,0,0:0:0:0:
256,192,525353,1,0,0:0:0:0:
256,192,525486,1,12,0:0:0:0:
256,192,525753,1,12,0:0:0:0:
256,192,526020,1,12,0:0:0:0:
256,192,526286,1,0,0:0:0:0:
256,192,526420,1,8,0:0:0:0:
256,192,526553,1,0,0:0:0:0:
256,192,526686,1,0,0:0:0:0:
256,192,526820,1,8,0:0:0:0:
256,192,527086,1,0,0:0:0:0:
256,192,527220,1,0,0:0:0:0:
256,192,527286,1,0,0:0:0:0:
256,192,527353,1,8,0:0:0:0:
256,192,527486,1,0,0:0:0:0:
256,192,527620,1,12,0:0:0:0:
256,192,527886,1,8,0:0:0:0:
256,192,528020,1,0,0:0:0:0:
256,192,528286,1,8,0:0:0:0:
256,192,528420,1,4,0:0:0:0:
256,192,528686,1,0,0:0:0:0:
256,192,528820,1,4,0:0:0:0:
256,192,529086,1,8,0:0:0:0:
256,192,529220,1,4,0:0:0:0:
256,192,529486,1,0,0:0:0:0:
256,192,529620,1,8,0:0:0:0:
256,192,529886,1,0,0:0:0:0:
256,192,530020,1,8,0:0:0:0:
256,192,530286,1,0,0:0:0:0:
256,192,530420,1,0,0:0:0:0:
256,192,530553,1,12,0:0:0:0:
256,192,530820,1,8,0:0:0:0:
256,192,531086,1,0,0:0:0:0:
256,192,531353,1,8,0:0:0:0:
256,192,531620,1,8,0:0:0:0:
256,192,531753,1,8,0:0:0:0:
256,192,531886,1,0,0:0:0:0:
256,192,532020,1,0,0:0:0:0:
256,192,532153,1,8,0:0:0:0:
256,192,532286,1,0,0:0:0:0:
256,192,532420,1,4,0:0:0:0:
256,192,532686,1,0,0:0:0:0:
256,192,532820,1,8,0:0:0:0:
256,192,533086,1,0,0:0:0:0:
256,192,533220,1,8,0:0:0:0:
256,192,533486,1,0,0:0:0:0:
256,192,533753,1,0,0:0:0:0:
256,192,533820,1,0,0:0:0:0:
256,192,533886,1,0,0:0:0:0:
256,192,534020,1,12,0:0:0:0:
256,192,534286,1,0,0:0:0:0:
256,192,534420,1,8,0:0:0:0:
256,192,534553,1,8,0:0:0:0:
256,192,534686,1,0,0:0:0:0:
256,192,534820,1,8,0:0:0:0:
256,192,535086,1,0,0:0:0:0:
256,192,535353,1,8,0:0:0:0:
256,192,535620,1,4,0:0:0:0:
256,192,535886,1,0,0:0:0:0:
256,192,536020,1,8,0:0:0:0:
256,192,536153,1,8,0:0:0:0:
256,192,536286,1,0,0:0:0:0:
256,192,536420,1,8,0:0:0:0:
256,192,536686,1,0,0:0:0:0:
256,192,536953,1,0,0:0:0:0:
256,192,537020,1,0,0:0:0:0:
256,192,537086,1,0,0:0:0:0:
256,192,537220,1,4,0:0:0:0:
256,192,537486,1,0,0:0:0:0:
256,192,537620,1,8,0:0:0:0:
256,192,537886,1,0,0:0:0:0:
256,192,538020,1,12,0:0:0:0:
256,192,538286,1,0,0:0:0:0:
256,192,538420,1,0,0:0:0:0:
256,192,538553,1,8,0:0:0:0:
256,192,538820,1,4,0:0:0:0:
256,192,539086,1,8,0:0:0:0:
256,192,539220,1,4,0:0:0:0:
256,192,539486,1,0,0:0:0:0:
256,192,539620,1,4,0:0:0:0:
256,192,539886,1,8,0:0:0:0:
256,192,540020,1,4,0:0:0:0:
256,192,540286,1,0,0:0:0:0:
256,192,540420,1,12,0:0:0:0:
256,192,540686,1,8,0:0:0:0:
256,192,540820,1,4,0:0:0:0:
256,192,541086,1,0,0:0:0:0:
256,192,541220,1,8,0:0:0:0:
256,192,541353,1,0,0:0:0:0:
256,192,541486,1,0,0:0:0:0:
256,192,541753,1,12,0:0:0:0:
256,192,542020,1,4,0:0:0:0:
256,192,542286,1,0,0:0:0:0:
256,192,542420,1,8,0:0:0:0:
256,192,542553,1,0,0:0:0:0:
256,192,542686,1,0,0:0:0:0:
256,192,542820,1,8,0:0:0:0:
256,192,543086,1,0,0:0:0:0:
256,192,543220,1,8,0:0:0:0:
256,192,543486,1,0,0:0:0:0:
256,192,543620,1,12,0:0:0:0:
256,192,543886,1,0,0:0:0:0:
256,192,544153,1,12,0:0:0:0:
256,192,544286,1,0,0:0:0:0:
256,192,544420,1,12,0:0:0:0:
256,192,544686,1,0,0:0:0:0:
256,192,544820,1,0,0:0:0:0:
256,192,544953,1,8,0:0:0:0:
256,192,545220,1,4,0:0:0:0:
256,192,545353,1,8,0:0:0:0:
256,192,545486,1,8,0:0:0:0:
256,192,545620,1,4,0:0:0:0:
256,192,545753,1,8,0:0:0:0:
256,192,545886,1,8,0:0:0:0:
256,192,546020,1,4,0:0:0:0:
256,192,546286,1,8,0:0:0:0:
256,192,546420,1,4,0:0:0:0:
256,192,546553,1,8,0:0:0:0:
256,192,546686,1,8,0:0:0:0:
256,192,546820,1,4,0:0:0:0:
256,192,547086,1,8,0:0:0:0:
256,192,547220,1,12,0:0:0:0:
256,192,547486,1,8,0:0:0:0:
256,192,547620,1,4,0:0:0:0:
256,192,547753,1,8,0:0:0:0:
256,192,547820,1,8,0:0:0:0:
256,192,547886,1,8,0:0:0:0:
256,192,548020,1,4,0:0:0:0:
256,192,548153,1,8,0:0:0:0:
256,192,548286,1,8,0:0:0:0:
256,192,548420,1,4,0:0:0:0:
256,192,548686,1,0,0:0:0:0:
256,192,548820,1,8,0:0:0:0:
256,192,548953,1,0,0:0:0:0:
256,192,549086,1,0,0:0:0:0:
256,192,549220,1,8,0:0:0:0:
256,192,549486,1,0,0:0:0:0:
256,192,549620,1,0,0:0:0:0:
256,192,549753,1,8,0:0:0:0:
256,192,550020,1,8,0:0:0:0:
256,192,550086,1,8,0:0:0:0:
256,192,550153,1,8,0:0:0:0:
256,192,550286,1,8,0:0:0:0:
256,192,550420,1,0,0:0:0:0:
256,192,550486,1,0,0:0:0:0:
256,192,550553,1,0,0:0:0:0:
256,192,550686,1,0,0:0:0:0:
256,192,550820,1,8,0:0:0:0:
256,192,550953,1,0,0:0:0:0:
256,192,551086,1,8,0:0:0:0:
256,192,551353,1,8,0:0:0:0:
256,192,551620,1,12,0:0:0:0:
256,192,551886,1,0,0:0:0:0:
256,192,552020,1,8,0:0:0:0:
256,192,552153,1,0,0:0:0:0:
256,192,552286,1,0,0:0:0:0:
256,192,552420,1,12,0:0:0:0:
256,192,552686,1,0,0:0:0:0:
256,192,552820,1,8,0:0:0:0:
256,192,552953,1,8,0:0:0:0:
256,192,553086,1,0,0:0:0:0:
256,192,553220,1,12,0:0:0:0:
256,192,553486,1,0,0:0:0:0:
256,192,553620,1,8,0:0:0:0:
256,192,553753,1,0,0:0:0:0:
256,192,554020,1,8,0:0:0:0:
256,192,554286,1,12,0:0:0:0:
256,192,554553,1,12,0:0:0:0:
256,192,554820,1,4,0:0:0:0:
256,192,555086,1,0,0:0:0:0:
256,192,555220,1,8,0:0:0:0:
256,192,555353,1,0,0:0:0:0:
256,192,555486,1,0,0:0:0:0:
256,192,555620,1,8,0:0:0:0:
256,192,555886,1,0,0:0:0:0:
256,192,556020,1,0,0:0:0:0:
256,192,556086,1,0,0:0:0:0:
256,192,556153,1,8,0:0:0:0:
256,192,556420,1,4,0:0:0:0:
256,192,556553,1,8,0:0:0:0:
256,192,556620,1,8,0:0:0:0:
256,192,556686,1,8,0:0:0:0:
256,192,556820,1,8,0:0:0:0:
256,192,556953,1,4,0:0:0:0:
256,192,557086,1,8,0:0:0:0:
256,192,557153,1,8,0:0:0:0:
256,192,557220,1,0,0:0:0:0:
256,192,557353,1,0,0:0:0:0:
256,192,557486,1,12,0:0:0:0:
256,192,557753,1,8,0:0:0:0:
256,192,557820,1,8,0:0:0:0:
256,192,557886,1,8,0:0:0:0:
256,192,558020,1,4,0:0:0:0:
256,192,558286,1,8,0:0:0:0:
256,192,558420,1,4,0:0:0:0:
256,192,558553,1,8,0:0:0:0:
256,192,558686,1,8,0:0:0:0:
256,192,558820,1,4,0:0:0:0:
256,192,558953,1,8,0:0:0:0:
256,192,559086,1,0,0:0:0:0:
256,192,559220,1,0,0:0:0:0:
256,192,559353,1,8,0:0:0:0:
256,192,559486,1,8,0:0:0:0:
256,192,559620,1,4,0:0:0:0:
256,192,559886,1,8,0:0:0:0:
256,192,560020,1,4,0:0:0:0:
256,192,560286,1,0,0:0:0:0:
256,192,560420,1,8,0:0:0:0:
256,192,560686,1,12,0:0:0:0:
256,192,560953,1,12,0:0:0:0:
256,192,561220,1,4,0:0:0:0:
256,192,561486,1,0,0:0:0:0:
256,192,561620,1,8,0:0:0:0:
256,192,561753,1,0,0:0:0:0:
256,192,562020,1,8,0:0:0:0:
256,192,562286,1,4,0:0:0:0:
256,192,562553,1,8,0:0:0:0:
256,192,562686,1,8,0:0:0:0:
256,192,562820,1,4,0:0:0:0:
256,192,563086,1,0,0:0:0:0:
256,192,563220,1,8,0:0:0:0:
256,192,563353,1,8,0:0:0:0:
256,192,563486,1,0,0:0:0:0:
256,192,563620,1,8,0:0:0:0:
256,192,563886,1,0,0:0:0:0:
256,192,564020,1,0,0:0:0:0:
256,192,564153,1,12,0:0:0:0:
256,192,564420,1,4,0:0:0:0:
256,192,564686,1,8,0:0:0:0:
256,192,564820,1,4,0:0:0:0:
256,192,564953,1,8,0:0:0:0:
256,192,565220,1,4,0:0:0:0:
256,192,565353,1,8,0:0:0:0:
256,192,565486,1,8,0:0:0:0:
256,192,565620,1,4,0:0:0:0:
256,192,565753,1,8,0:0:0:0:
256,192,565820,1,8,0:0:0:0:
256,192,565886,1,8,0:0:0:0:
256,192,566020,1,4,0:0:0:0:
256,192,566153,1,8,0:0:0:0:
256,192,566220,1,8,0:0:0:0:
256,192,566286,1,8,0:0:0:0:
256,192,566353,1,8,0:0:0:0:
256,192,566420,1,8,0:0:0:0:
256,192,566553,1,4,0:0:0:0:
256,192,566686,1,0,0:0:0:0:
256,192,566753,1,0,0:0:0:0:
256,192,566820,1,0,0:0:0:0:
256,192,566886,1,0,0:0:0:0:
256,192,566953,1,0,0:0:0:0:
256,192,567086,1,4,0:0:0:0:
256,192,567220,1,0,0:0:0:0:
224,192,567286,1,0,0:0:0:0:
256,192,567353,1,8,0:0:0:0:
224,192,567420,1,8,0:0:0:0:
256,192,567486,1,8,0:0:0:0:
256,192,567620,1,4,0:0:0:0:
256,192,567886,1,4,0:0:0:0:
256,192,568020,1,8,0:0:0:0:
256,192,568153,1,4,0:0:0:0:
256,192,568420,1,8,0:0:0:0:
256,192,568686,1,0,0:0:0:0:
256,192,568820,1,0,0:0:0:0:
256,192,568953,1,8,0:0:0:0:
256,192,569086,1,8,0:0:0:0:
256,192,569220,1,4,0:0:0:0:
256,192,569420,1,4,0:0:0:0:
256,192,569620,1,8,0:0:0:0:
256,192,569820,1,8,0:0:0:0:
256,192,570020,1,4,0:0:0:0:
256,192,570220,1,4,0:0:0:0:
256,192,570420,1,8,0:0:0:0:
256,192,570620,1,8,0:0:0:0:
256,192,570820,1,4,0:0:0:0:
256,192,571086,1,0,0:0:0:0:
256,192,571220,1,8,0:0:0:0:
256,192,571353,1,0,0:0:0:0:
256,192,571486,1,0,0:0:0:0:
256,192,571620,1,8,0:0:0:0:
256,192,571886,1,0,0:0:0:0:
256,192,572020,1,8,0:0:0:0:
256,192,572086,1,8,0:0:0:0:
256,192,572153,1,0,0:0:0:0:
256,192,572286,1,0,0:0:0:0:
256,192,572420,1,12,0:0:0:0:
256,192,572686,1,0,0:0:0:0:
256,192,572820,1,8,0:0:0:0:
256,192,572953,1,0,0:0:0:0:
256,192,573086,1,0,0:0:0:0:
256,192,573220,1,8,0:0:0:0:
256,192,573486,1,0,0:0:0:0:
256,192,573753,1,12,0:0:0:0:
256,192,574020,1,4,0:0:0:0:
256,192,574286,1,0,0:0:0:0:
256,192,574420,1,8,0:0:0:0:
256,192,574553,1,0,0:0:0:0:
256,192,574820,1,0,0:0:0:0:
256,192,574953,1,8,0:0:0:0:
256,192,575086,1,0,0:0:0:0:
256,192,575220,1,0,0:0:0:0:
256,192,575353,1,8,0:0:0:0:
256,192,575620,1,0,0:0:0:0:
256,192,575753,1,0,0:0:0:0:
256,192,575886,1,8,0:0:0:0:
256,192,576020,1,0,0:0:0:0:
256,192,576153,1,0,0:0:0:0:
256,192,576286,1,8,0:0:0:0:
256,192,576420,1,4,0:0:0:0:
256,192,576686,1,8,0:0:0:0:
256,192,576753,1,8,0:0:0:0:
256,192,576820,1,8,0:0:0:0:
256,192,576953,1,8,0:0:0:0:
256,192,577086,1,8,0:0:0:0:
256,192,577220,1,4,0:0:0:0:
256,192,577353,1,0,0:0:0:0:
256,192,577486,1,8,0:0:0:0:
256,192,577620,1,0,0:0:0:0:
256,192,577886,1,0,0:0:0:0:
256,192,578020,1,8,0:0:0:0:
256,192,578286,1,0,0:0:0:0:
256,192,578420,1,0,0:0:0:0:
256,192,578486,1,0,0:0:0:0:
256,192,578553,1,8,0:0:0:0:
256,192,578820,1,0,0:0:0:0:
256,192,579086,1,8,0:0:0:0:
256,192,579220,1,0,0:0:0:0:
256,192,579486,1,0,0:0:0:0:
256,192,579620,1,8,0:0:0:0:
256,192,579886,1,0,0:0:0:0:
256,192,580020,1,0,0:0:0:0:
256,192,580153,1,8,0:0:0:0:
256,192,580420,1,4,0:0:0:0:
256,192,580553,1,0,0:0:0:0:
256,192,580686,1,8,0:0:0:0:
256,192,580820,1,0,0:0:0:0:
256,192,581086,1,0,0:0:0:0:
256,192,581153,1,0,0:0:0:0:
256,192,581220,1,8,0:0:0:0:
256,192,581486,1,0,0:0:0:0:
256,192,581620,1,0,0:0:0:0:
256,192,581753,1,8,0:0:0:0:
256,192,582020,1,4,0:0:0:0:
256,192,582153,1,8,0:0:0:0:
256,192,582220,1,8,0:0:0:0:
256,192,582286,1,8,0:0:0:0:
256,192,582353,1,8,0:0:0:0:
256,192,582420,1,8,0:0:0:0:
256,192,582553,1,8,0:0:0:0:
256,192,582686,1,8,0:0:0:0:
256,192,582820,1,4,0:0:0:0:
256,192,582953,1,8,0:0:0:0:
256,192,583020,1,8,0:0:0:0:
256,192,583086,1,8,0:0:0:0:
256,192,583220,1,4,0:0:0:0:
256,192,583353,1,8,0:0:0:0:
256,192,583420,1,8,0:0:0:0:
256,192,583486,1,0,0:0:0:0:
256,192,583620,1,12,0:0:0:0:
256,192,583886,1,8,0:0:0:0:
256,192,584020,1,0,0:0:0:0:
256,192,584286,1,0,0:0:0:0:
256,192,584420,1,8,0:0:0:0:
256,192,584686,1,0,0:0:0:0:
256,192,584820,1,0,0:0:0:0:
256,192,584953,1,8,0:0:0:0:
256,192,585086,1,0,0:0:0:0:
256,192,585153,1,0,0:0:0:0:
256,192,585220,1,0,0:0:0:0:
256,192,585486,1,8,0:0:0:0:
256,192,585620,1,0,0:0:0:0:
256,192,585886,1,0,0:0:0:0:
256,192,586020,1,8,0:0:0:0:
256,192,586286,1,0,0:0:0:0:
256,192,586420,1,0,0:0:0:0:
256,192,586486,1,0,0:0:0:0:
256,192,586553,1,8,0:0:0:0:
256,192,586820,1,4,0:0:0:0:
256,192,586953,1,8,0:0:0:0:
256,192,587086,1,8,0:0:0:0:
256,192,587220,1,4,0:0:0:0:
256,192,587353,1,8,0:0:0:0:
256,192,587486,1,8,0:0:0:0:
256,192,587620,1,4,0:0:0:0:
256,192,587886,1,8,0:0:0:0:
256,192,588020,1,4,0:0:0:0:
256,192,588286,1,8,0:0:0:0:
256,192,588353,1,8,0:0:0:0:
256,192,588420,1,8,0:0:0:0:
256,192,588553,1,8,0:0:0:0:
256,192,588686,1,8,0:0:0:0:
256,192,588820,1,8,0:0:0:0:
256,192,589086,1,8,0:0:0:0:
256,192,589153,1,8,0:0:0:0:
256,192,589220,1,8,0:0:0:0:
256,192,589353,1,8,0:0:0:0:
256,192,589486,1,0,0:0:0:0:
256,192,589620,1,0,0:0:0:0:
256,192,589753,1,0,0:0:0:0:
256,192,589886,1,0,0:0:0:0:
256,192,590020,1,4,0:0:0:0:
256,192,590553,1,0,0:0:0:0:
256,192,590820,1,8,0:0:0:0:
256,192,591353,1,8,0:0:0:0:
256,192,591486,1,8,0:0:0:0:
256,192,591553,1,8,0:0:0:0:
256,192,591620,1,0,0:0:0:0:
256,192,592020,1,8,0:0:0:0:
256,192,592153,1,0,0:0:0:0:
256,192,592420,1,8,0:0:0:0:
256,192,592686,1,0,0:0:0:0:
256,192,592953,1,8,0:0:0:0:
256,192,593220,1,4,0:0:0:0:
256,192,593620,1,8,0:0:0:0:
256,192,593686,1,8,0:0:0:0:
256,192,593753,1,0,0:0:0:0:
256,192,593886,1,0,0:0:0:0:
256,192,594020,1,8,0:0:0:0:
256,192,594553,1,0,0:0:0:0:
256,192,594686,1,8,0:0:0:0:
256,192,594753,1,8,0:0:0:0:
256,192,594820,1,0,0:0:0:0:
256,192,595086,1,8,0:0:0:0:
256,192,595153,1,8,0:0:0:0:
256,192,595220,1,8,0:0:0:0:
256,192,595353,1,0,0:0:0:0:
256,192,595620,1,8,0:0:0:0:
256,192,595886,1,0,0:0:0:0:
256,192,596153,1,8,0:0:0:0:
256,192,596286,1,8,0:0:0:0:
256,192,596420,1,4,0:0:0:0:
256,192,596553,1,8,0:0:0:0:
256,192,596686,1,8,0:0:0:0:
256,192,596820,1,0,0:0:0:0:
256,192,597086,1,0,0:0:0:0:
256,192,597220,1,8,0:0:0:0:
256,192,597486,1,8,0:0:0:0:
256,192,597620,1,8,0:0:0:0:
256,192,597753,1,0,0:0:0:0:
256,192,597886,1,8,0:0:0:0:
256,192,598020,1,0,0:0:0:0:
256,192,598153,1,8,0:0:0:0:
256,192,598286,1,8,0:0:0:0:
256,192,598420,1,0,0:0:0:0:
256,192,598553,1,8,0:0:0:0:
256,192,598686,1,8,0:0:0:0:
256,192,598820,1,0,0:0:0:0:
256,192,598953,1,8,0:0:0:0:
256,192,599086,1,8,0:0:0:0:
256,192,599220,1,8,0:0:0:0:
256,192,599286,1,8,0:0:0:0:
256,192,599353,1,0,0:0:0:0:
256,192,599620,1,4,0:0:0:0:
256,192,600153,1,0,0:0:0:0:
256,192,600420,1,8,0:0:0:0:
256,192,600953,1,0,0:0:0:0:
256,192,601220,1,0,0:0:0:0:
256,192,601486,1,0,0:0:0:0:
256,192,601753,1,8,0:0:0:0:
256,192,602020,1,8,0:0:0:0:
256,192,602286,1,0,0:0:0:0:
256,192,602553,1,0,0:0:0:0:
256,192,602820,1,4,0:0:0:0:
256,192,602953,12,0,615620,0:0:0:0:
