osu file format v14

[General]
AudioFilename: 04 Alice Maestra ~ Flow My Tears, the Said.mp3
AudioLeadIn: 0
PreviewTime: 294
Countdown: 1
SampleSet: Soft
StackLeniency: 0.7
Mode: 0
LetterboxInBreaks: 1
WidescreenStoryboard: 0

[Editor]
Bookmarks: 33405
DistanceSpacing: 1
BeatDivisor: 4
GridSize: 4
TimelineZoom: 0.9

[Metadata]
Title:Alice Maestra ~ Flow My Tears,the Said
TitleUnicode:アリスマエステラ ~ Flow My Tears,the Said
Artist:Demetori
ArtistUnicode:Demetori
Creator:happy30
Version:Salvation
Source:
Tags:
BeatmapID:763385
BeatmapSetID:345728

[Difficulty]
HPDrainRate:7
CircleSize:4.3
OverallDifficulty:8
ApproachRate:9
SliderMultiplier:1.8
SliderTickRate:2

[Events]
//Background and Video events
0,0,"Konachan.com - 195269 2girls blonde_hair blue_eyes flowers medicine_melancholy petals ribbons ryosios short_hair skirt su-san touhou.jpg",0,0
//Break Periods
2,45015,53151
2,54589,73257
//Storyboard Layer 0 (Background)
//Storyboard Layer 1 (Fail)
//Storyboard Layer 2 (Pass)
//Storyboard Layer 3 (Foreground)
//Storyboard Sound Samples

[TimingPoints]
294,319.148936170213,4,2,0,30,1,0
9868,-100,4,1,0,60,0,0
10506,-100,4,1,0,60,0,1
10985,-76.9230769230769,4,1,0,60,0,0
11783,-100,4,1,0,60,0,0
12262,-76.9230769230769,4,1,0,60,0,0
15613,-100,4,1,0,60,0,0
15932,-76.9230769230769,4,1,0,60,0,0
16889,-100,4,1,0,60,0,0
17208,-76.9230769230769,4,1,0,60,0,0
33485,-100,4,1,0,45,0,0

[Colours]
Combo1 : 192,192,192
Combo2 : 114,252,114
Combo3 : 255,128,128

[HitObjects]
164,144,294,5,0,2:3:0:0:
174,147,453,1,0,2:0:0:0:
185,150,613,1,0,2:0:0:0:
196,153,772,1,0,0:2:0:0:
207,155,932,1,0,2:0:0:0:
218,157,1091,1,0,2:0:0:0:
229,158,1251,1,0,2:0:0:0:
240,159,1411,1,0,2:0:0:0:
252,159,1570,1,0,2:0:0:0:
263,159,1730,1,0,2:0:0:0:
274,158,1889,1,0,2:0:0:0:
285,157,2049,1,0,2:0:0:0:
296,155,2208,1,0,2:0:0:0:
307,153,2368,1,0,2:0:0:0:
318,150,2528,1,0,2:0:0:0:
328,148,2687,2,0,L|336:96,1,45,0|0,2:0|2:0,2:0:0:0:
344,252,2847,5,0,2:0:0:0:
334,248,3006,1,0,2:0:0:0:
323,245,3166,1,0,2:0:0:0:
312,242,3325,1,0,2:0:0:0:
301,240,3485,1,0,2:0:0:0:
290,238,3644,1,0,2:0:0:0:
279,237,3804,1,0,0:0:0:0:
267,236,3964,1,0,0:0:0:0:
256,236,4123,1,0,0:0:0:0:
245,236,4283,1,0,0:0:0:0:
234,237,4442,1,0,0:0:0:0:
222,238,4602,1,0,0:0:0:0:
211,240,4761,1,0,0:0:0:0:
200,243,4921,1,0,0:0:0:0:
189,245,5081,1,0,0:0:0:0:
180,248,5240,2,0,L|172:300,1,45
104,228,5400,5,0,0:0:0:0:
80,328,5559,1,0,0:0:0:0:
100,224,5719,1,0,0:0:0:0:
76,324,5878,1,0,0:0:0:0:
96,220,6038,1,0,0:0:0:0:
72,320,6197,1,0,0:0:0:0:
92,216,6357,1,0,0:0:0:0:
68,316,6516,1,0,0:0:0:0:
408,228,6676,5,0,0:0:0:0:
432,328,6835,1,0,0:0:0:0:
412,224,6995,1,0,0:0:0:0:
436,324,7154,1,0,0:0:0:0:
416,220,7314,1,0,0:0:0:0:
440,320,7473,1,0,0:0:0:0:
420,216,7633,1,0,0:0:0:0:
444,316,7792,1,0,0:0:0:0:
168,168,7953,5,0,0:0:0:0:
144,68,8112,1,0,0:0:0:0:
164,172,8272,1,0,0:0:0:0:
140,72,8431,1,0,0:0:0:0:
344,224,8591,5,0,0:0:0:0:
368,124,8750,1,0,0:0:0:0:
348,228,8910,1,0,0:0:0:0:
372,128,9069,1,0,0:0:0:0:
112,316,9230,5,0,0:0:0:0:
88,216,9389,1,0,0:0:0:0:
108,320,9549,1,0,0:0:0:0:
84,220,9708,1,0,0:0:0:0:
184,256,9868,5,0,1:0:0:0:
200,308,9948,1,0,1:0:0:0:
240,344,10028,1,0,1:0:0:0:
292,360,10107,1,0,1:0:0:0:
348,360,10187,1,0,1:0:0:0:
400,340,10267,1,0,1:0:0:0:
436,300,10347,1,0,1:0:0:0:
456,252,10426,1,0,1:0:0:0:
464,200,10506,6,0,P|456:156|428:104,1,90,4|0,1:0|2:0,1:0:0:0:
256,260,10825,1,0,2:0:0:0:
476,200,10985,2,0,P|466:149|435:90,1,116.999994644165,4|0,1:0|2:0,1:0:0:0:
256,260,11304,1,0,2:0:0:0:
368,208,11464,2,0,B|353:248|353:248|368:348,1,116.999994644165,4|0,1:0|2:0,0:0:0:0:
48,200,11783,6,0,P|56:156|84:104,1,90,4|0,1:0|2:0,1:0:0:0:
256,260,12102,1,0,2:0:0:0:
476,200,12262,2,0,P|466:149|435:90,1,116.999994644165,4|0,1:0|2:0,1:0:0:0:
256,260,12581,1,0,2:0:0:0:
36,200,12740,2,0,P|45:149|76:90,1,116.999994644165,4|0,1:0|2:0,1:0:0:0:
312,24,13059,6,0,B|326:64|326:64|312:164,1,116.999994644165,4|0,1:0|2:0,0:0:0:0:
160,200,13379,1,0,2:0:0:0:
72,320,13538,2,0,P|120:356|192:344,1,116.999994644165,4|0,0:0|2:0,0:0:0:0:
352,200,13857,1,0,2:0:0:0:
160,200,14017,2,0,B|145:159|145:159|160:60,1,116.999994644165,4|0,0:0|2:0,0:0:0:0:
440,320,14336,6,0,P|392:356|320:344,1,116.999994644165,4|0,0:0|2:0,0:0:0:0:
256,184,14655,1,0,2:0:0:0:
452,88,14815,1,4,1:0:0:0:
432,304,14974,1,0,2:0:0:0:
328,136,15134,1,0,0:0:0:0:
456,176,15294,2,0,P|432:232|424:308,1,116.999994644165,4|0,0:0|2:0,0:0:0:0:
48,200,15613,6,0,P|56:156|84:104,1,90,4|0,1:0|2:0,1:0:0:0:
256,260,15932,1,0,2:0:0:0:
36,200,16092,2,0,P|45:149|76:90,1,116.999994644165,4|0,1:0|2:0,1:0:0:0:
256,260,16411,1,0,2:0:0:0:
144,208,16571,2,0,B|158:248|158:248|144:348,1,116.999994644165,4|0,0:0|2:0,0:0:0:0:
464,200,16890,6,0,P|456:156|428:104,1,90,4|0,1:0|2:0,1:0:0:0:
256,260,17209,1,0,2:0:0:0:
36,200,17369,2,0,P|45:149|76:90,1,116.999994644165,4|0,1:0|2:0,1:0:0:0:
256,260,17688,1,0,2:0:0:0:
476,200,17847,2,0,P|466:149|435:90,1,116.999994644165,4|0,1:0|2:0,1:0:0:0:
200,24,18166,6,0,B|185:64|185:64|200:164,1,116.999994644165,4|0,0:0|2:0,0:0:0:0:
351,199,18486,1,0,2:0:0:0:
440,320,18645,2,0,P|392:356|320:344,1,116.999994644165,4|0,0:0|2:0,0:0:0:0:
160,200,18964,1,0,2:0:0:0:
352,200,19124,2,0,B|366:159|366:159|352:60,1,116.999994644165,4|0,0:0|2:0,0:0:0:0:
72,320,19443,6,0,P|120:356|192:344,1,116.999994644165,4|0,0:0|2:0,0:0:0:0:
292,336,19762,1,0,0:0:0:0:
192,272,19922,1,0,1:0:0:0:
80,308,20081,1,0,1:0:0:0:
444,152,20240,5,4,1:2:0:0:
428,268,20400,1,4,0:2:0:0:
86,49,20719,5,4,0:2:0:0:
86,49,20799,1,0,0:0:0:0:
86,49,20879,1,0,0:0:0:0:
70,165,21038,1,4,0:0:0:0:
256,72,21198,2,0,B|296:57|296:57|396:72,1,116.999994644165,4|0,0:0|2:0,0:0:0:0:
256,160,21517,1,0,2:0:0:0:
256,312,21676,2,0,B|215:326|215:326|116:312,1,116.999994644165,4|0,0:0|2:0,0:0:0:0:
436,232,21996,6,0,P|460:168|492:124,1,116.999994644165,4|0,0:0|2:0,0:0:0:0:
408,364,22315,1,0,2:0:0:0:
280,228,22474,2,0,P|251:165|243:112,1,116.999994644165,4|0,0:0|2:0,0:0:0:0:
352,284,22794,1,0,2:0:0:0:
168,320,22953,2,0,P|104:344|60:376,1,116.999994644165,4|0,0:0|2:0,0:0:0:0:
4,196,23272,5,4,0:0:0:0:
4,196,23352,1,0,0:0:0:0:
4,196,23432,1,0,0:0:0:0:
176,240,23591,1,0,0:0:0:0:
348,192,23751,2,0,P|380:136|416:96,1,116.999994644165,4|0,0:0|2:0,0:0:0:0:
476,332,24070,1,0,2:0:0:0:
280,256,24230,2,0,L|152:240,1,116.999994644165,4|0,0:0|2:0,0:0:0:0:
476,164,24549,5,4,0:0:0:0:
476,164,24629,1,0,0:0:0:0:
476,164,24709,1,0,0:0:0:0:
336,352,24868,1,0,0:0:0:0:
232,148,25028,2,0,P|200:92|164:52,1,116.999994644165,4|0,0:0|2:0,0:0:0:0:
40,176,25347,1,0,2:0:0:0:
80,348,25506,2,0,P|136:364|192:348,1,116.999994644165,4|0,0:0|2:0,0:0:0:0:
412,200,25825,6,0,P|356:184|300:200,1,116.999994644165,4|0,0:0|2:0,0:0:0:0:
340,360,26145,1,0,2:0:0:0:
496,264,26304,2,0,P|512:204|480:136,1,116.999994644165,4|0,0:0|2:0,0:0:0:0:
268,296,26623,1,0,2:0:0:0:
156,76,26783,2,0,P|140:136|172:204,1,116.999994644165,4|0,0:0|2:0,0:0:0:0:
360,232,27102,6,0,P|376:172|344:104,1,116.999994644165,4|0,0:0|2:0,0:0:0:0:
256,28,27421,1,0,2:0:0:0:
264,208,27581,2,0,L|252:328,1,116.999994644165,4|0,1:0|2:0,2:0:0:0:
96,368,27900,1,0,2:0:0:0:
271,323,28059,2,0,L|283:203,1,116.999994644165,4|0,0:0|2:0,0:0:0:0:
36,144,28379,6,0,P|12:204|16:256,1,116.999994644165,4|0,0:0|2:0,0:0:0:0:
192,352,28698,1,0,2:0:0:0:
380,296,28857,2,0,P|404:236|400:184,1,116.999994644165,4|0,0:0|2:0,0:0:0:0:
348,80,29176,1,0,0:0:0:0:
244,28,29336,1,4,0:0:0:0:
268,144,29496,5,0,0:0:0:0:
268,144,29575,1,0,0:0:0:0:
268,144,29655,1,4,0:2:0:0:
200,240,29815,1,0,0:0:0:0:
200,240,29895,1,0,0:0:0:0:
200,240,29974,1,4,0:2:0:0:
84,248,30134,1,0,0:0:0:0:
88,132,30294,1,4,0:2:0:0:
172,212,30453,1,0,0:0:0:0:
168,328,30613,1,0,0:0:0:0:
60,376,30772,1,4,0:0:0:0:
256,192,30852,12,0,32847,0:0:0:0:
256,192,33006,5,0,0:0:0:0:
256,340,33325,1,4,3:0:0:0:
332,292,33485,1,0,0:0:0:0:
180,240,33645,6,0,P|124:232|84:232,2,90
340,284,34123,1,0,0:0:0:0:
384,168,34283,2,0,P|392:108|400:64,1,90
448,236,34602,1,0,0:0:0:0:
260,256,34762,2,0,P|252:316|244:360,1,90
168,152,35081,2,0,P|176:92|184:48,1,90
100,20,35400,1,0,0:0:0:0:
264,140,35559,6,0,L|388:120,1,90
144,264,35879,1,0,0:0:0:0:
144,264,36038,6,0,L|20:244,1,90
332,220,36357,6,0,L|517:192,2,180
136,368,37155,1,0,0:0:0:0:
136,368,37474,1,0,0:0:0:0:
320,304,37634,6,0,L|192:280,1,90
160,124,37953,1,0,0:0:0:0:
352,192,38113,6,0,L|451:176,1,90
347,176,38432,6,0,L|247:191,1,90
44,224,38751,1,0,0:0:0:0:
204,264,38911,6,0,P|223:303|220:348,1,90
44,244,39230,1,0,0:0:0:0:
84,92,39389,6,0,P|144:60|248:144,1,180
448,152,39868,6,0,P|468:100|480:52,1,90
256,192,40187,6,0,P|236:244|224:292,1,90
360,352,40506,1,0,0:0:0:0:
480,248,40666,6,0,P|467:204|451:162,1,90
200,128,40985,1,0,0:0:0:0:
60,200,41145,1,0,0:0:0:0:
8,120,41304,6,0,P|20:44|44:16,1,90
144,240,41623,1,0,0:0:0:0:
28,128,41783,6,0,P|40:52|64:24,1,90
288,144,42102,1,0,0:0:0:0:
252,228,42262,1,0,0:0:0:0:
288,312,42421,2,0,L|404:332,1,90
168,296,42740,1,0,0:0:0:0:
356,200,42900,1,0,0:0:0:0:
163,105,43059,5,0,0:0:0:0:
141,97,43138,1,0,0:0:0:0:
119,93,43218,1,0,0:0:0:0:
97,94,43298,1,0,0:0:0:0:
75,98,43378,1,0,0:0:0:0:
54,106,43457,1,0,0:0:0:0:
35,118,43537,1,0,0:0:0:0:
18,134,43617,1,0,0:0:0:0:
5,151,43697,1,0,0:0:0:0:
84,312,43857,5,0,0:0:0:0:
248,232,44017,6,0,P|256:176|248:140,1,90
172,24,44336,1,0,0:0:0:0:
96,216,44496,6,0,L|76:320,1,90
4,356,44815,1,0,0:0:0:0:
176,244,53751,5,0,0:0:0:0:
176,244,53831,1,0,0:0:0:0:
176,244,53911,6,0,L|368:260,1,180
464,180,54389,1,0,0:0:0:0:
248,200,73857,5,0,0:0:0:0:
332,136,74017,1,0,0:0:0:0:
232,72,74176,6,0,P|168:60|48:104,1,180
156,304,74655,1,0,0:0:0:0:
168,308,74735,1,0,0:0:0:0:
188,312,74815,1,0,0:0:0:0:
192,200,74974,1,0,0:0:0:0:
336,208,75134,1,0,0:0:0:0:
164,136,75294,1,0,0:0:0:0:
88,128,75453,6,0,L|32:308,1,180
132,212,75932,1,0,0:0:0:0:
260,180,76091,2,0,L|292:96,1,90
