osu file format v14

[General]
AudioFilename: Delta Sleep - Camp Adventure.mp3
AudioLeadIn: 0
PreviewTime: 90633
Countdown: 0
SampleSet: Soft
StackLeniency: 0.3
Mode: 0
LetterboxInBreaks: 0
WidescreenStoryboard: 0

[Editor]
Bookmarks: 21068,38459,62807,69763,76720,90633,118459,125415,146285,163676,174111
DistanceSpacing: 0.5
BeatDivisor: 6
GridSize: 16
TimelineZoom: 2.150005

[Metadata]
Title:Camp Adventure
TitleUnicode:Camp Adventure
Artist:Delta Sleep
ArtistUnicode:Delta Sleep
Creator:Crowie
Version:1
Source:
Tags:
BeatmapID:1395360
BeatmapSetID:658819

[Difficulty]
HPDrainRate:6
CircleSize:4.6
OverallDifficulty:7.9
ApproachRate:8.7
SliderMultiplier:1.2
SliderTickRate:1

[Events]
//Background and Video events
0,0,"40449348_p0.jpg",0,0
//Break Periods
2,104600,173538
//Storyboard Layer 0 (Background)
//Storyboard Layer 1 (Fail)
//Storyboard Layer 2 (Pass)
//Storyboard Layer 3 (Foreground)
//Storyboard Sound Samples

[TimingPoints]
7155,434.782608695652,4,2,0,20,1,0
71720,-100,4,2,0,5,0,0
71792,-100,4,2,0,20,0,0
72010,-100,4,2,0,5,0,0
72082,-100,4,2,0,20,0,0
72299,-100,4,2,0,5,0,0
72372,-100,4,2,0,20,0,0
72589,-100,4,2,0,5,0,0
72662,-100,4,2,0,20,0,0
72879,-100,4,2,0,5,0,0
72952,-100,4,2,0,20,0,0
73169,-100,4,2,0,5,0,0
73241,-100,4,2,0,20,0,0
75198,-100,4,2,0,5,0,0
75270,-100,4,2,0,20,0,0
75488,-100,4,2,0,5,0,0
75560,-100,4,2,0,20,0,0
75778,-100,4,2,0,5,0,0
75850,-100,4,2,0,20,0,0
76068,-100,4,2,0,5,0,0
76140,-100,4,2,0,20,0,0
76357,-100,4,2,0,5,0,0
76430,-100,4,2,0,20,0,0
76647,-100,4,2,0,5,0,0
76720,-100,4,2,0,20,0,0
85633,-100,4,2,0,5,0,0
85705,-100,4,2,0,20,0,0
85923,-100,4,2,0,5,0,0
85995,-100,4,2,0,20,0,0
86212,-100,4,2,0,5,0,0
86285,-100,4,2,0,20,0,0
86502,-100,4,2,0,5,0,0
86575,-100,4,2,0,20,0,0
90633,-83.3333333333333,4,2,0,20,0,0
95850,-166.666666666667,4,2,0,20,0,0
96285,-83.3333333333333,4,2,0,20,0,0
104111,-166.666666666667,4,2,0,20,0,0
104546,-83.3333333333333,4,2,0,20,0,0

[Colours]
Combo1 : 84,151,62
Combo2 : 151,84,62
Combo3 : 151,129,62
Combo4 : 129,151,62

[HitObjects]
117,123,21068,6,0,P|164:98|205:98,1,80
233,165,21502,2,0,P|260:167|283:174,2,40
391,216,21937,2,0,P|351:221|318:243,1,80
272,307,22372,2,0,P|252:302|232:301,1,40
159,328,22662,1,0,0:0:0:0:
73,273,22807,6,0,L|84:353,1,80
100,200,23241,2,0,L|89:279,1,80
73,126,23676,2,0,L|83:205,1,80
100,52,24111,2,0,L|93:100,1,40
22,65,24401,1,0,0:0:0:0:
178,39,24546,6,0,P|217:59|266:54,1,80
324,94,24981,2,0,P|346:82|359:66,2,40
503,86,25415,6,0,P|464:106|415:101,1,80
271,159,25850,2,0,P|287:170|306:176,1,40
387,176,26140,1,0,0:0:0:0:
512,259,26285,6,0,P|473:239|424:244,1,80
359,251,26720,2,0,L|351:343,1,80
280,367,27154,2,0,L|273:287,1,80
234,214,27589,2,0,P|211:229|190:233,1,40
121,226,27879,1,0,0:0:0:0:
0,284,28024,6,0,P|42:281|88:300,1,80
92,199,28459,2,0,P|114:216|121:228,2,40
311,223,28894,2,0,P|269:226|223:207,1,80
219,308,29329,2,0,P|197:291|190:279,2,40
340,349,29763,6,0,L|431:339,1,80
380,261,30198,2,0,L|471:266,1,80
434,181,30633,2,0,L|522:202,1,80
461,66,31068,2,0,P|471:92|471:121,1,40
390,110,31357,1,0,0:0:0:0:
312,231,31502,6,0,P|323:192|314:141,1,80
318,70,31937,2,0,P|279:59|228:68,1,80
157,64,32372,2,0,P|146:103|155:154,1,80
151,225,32807,2,0,P|177:232|205:229,1,40
268,219,33097,1,0,0:0:0:0:
80,184,33241,6,0,L|-1:196,1,80
118,270,33676,2,0,L|39:266,1,80
138,361,34111,2,0,L|60:340,1,80
200,297,34546,1,0,0:0:0:0:
200,297,34691,2,0,P|222:314|238:318,1,40
319,322,34981,6,0,P|376:315|414:324,1,80
367,237,35415,2,0,P|422:249|455:271,1,80
441,173,35850,2,0,P|489:204|512:235,1,80
375,76,36285,6,0,P|376:115|352:158,1,80
299,97,36720,2,0,P|286:133|249:166,1,80
220,90,37154,2,0,P|195:120|149:138,1,80
17,77,37589,6,0,P|53:94|78:124,1,80
109,201,38024,1,0,0:0:0:0:
109,201,38169,1,0,0:0:0:0:
97,320,38459,6,0,L|109:196,1,120
183,245,39039,2,0,P|197:224|214:207,1,40
258,275,39328,2,0,P|283:276|306:282,1,40
354,332,39618,1,0,0:0:0:0:
450,240,39763,2,0,P|423:241|372:260,1,80
316,206,40198,6,0,L|288:85,1,120
281,9,40778,2,0,P|253:8|237:-1,1,40
114,105,41068,2,0,P|150:89|190:86,1,80
204,169,41502,2,0,P|199:208|182:244,1,80
103,214,41937,6,0,P|71:190|29:118,2,120
108,225,43241,5,0,0:0:0:0:
113,235,43676,5,0,0:0:0:0:
99,315,44111,6,0,P|138:320|185:338,1,80
248,371,44546,2,0,P|271:339|310:308,1,80
370,269,44981,2,0,P|354:232|346:183,1,80
343,111,45415,6,0,P|305:96|214:89,1,120
159,52,45995,2,0,P|138:76|130:94,1,40
61,104,46285,2,0,L|70:201,1,80
141,247,46720,2,0,L|150:150,1,80
33,259,47154,6,0,P|67:290|101:365,1,120
173,322,47734,2,0,P|192:340|211:346,1,40
285,350,48024,5,0,0:0:0:0:
285,350,48169,1,0,0:0:0:0:
512,313,48459,5,0,0:0:0:0:
512,313,48604,2,0,P|493:304|480:290,1,40
349,232,48894,6,0,P|413:211|523:217,1,160
375,130,49763,2,0,P|311:109|201:115,1,160
201,119,50488,1,0,0:0:0:0:
135,193,50633,6,0,P|118:208|100:216,2,40
149,180,51068,1,0,0:0:0:0:
207,269,51285,5,0,0:0:0:0:
231,195,51502,6,0,P|223:245|202:275,1,80
242,352,51937,1,0,0:0:0:0:
242,352,52082,1,0,0:0:0:0:
122,340,52372,6,0,L|256:353,1,120
322,382,52952,2,0,P|347:378|370:365,1,40
441,374,53241,2,0,P|443:336|461:289,1,80
497,228,53676,1,0,0:0:0:0:
497,228,53821,1,0,0:0:0:0:
359,145,54111,6,0,B|326:154|299:134|299:134|272:114|240:124,1,120
208,56,54691,2,0,P|191:64|176:87,1,40
177,160,54981,5,0,0:0:0:0:
177,160,55126,1,0,0:0:0:0:
346,70,55415,5,0,0:0:0:0:
346,70,55560,2,0,L|340:27,1,40
258,196,55850,6,0,P|268:159|269:113,1,80
362,236,56285,6,0,P|351:199|350:153,1,80
217,273,56720,6,0,P|244:246|267:207,1,80
403,313,57154,6,0,P|375:286|352:247,1,80
310,331,57589,5,0,0:0:0:0:
179,258,57879,1,0,0:0:0:0:
179,258,58024,2,0,P|148:247|96:257,1,80
15,329,58459,6,0,P|34:325|52:317,2,40
172,354,58894,1,0,0:0:0:0:
172,354,59039,2,0,P|149:338|126:333,1,40
42,198,59328,6,0,L|53:320,1,120
122,223,59908,2,0,P|127:201|119:176,1,40
178,280,60198,2,0,P|193:263|198:237,1,40
215,168,60488,1,0,0:0:0:0:
354,195,60633,2,0,P|334:196|279:225,1,80
385,344,61068,6,0,P|396:303|311:320,1,160
469,354,61937,2,0,P|479:330|476:304,1,40
463,238,62227,1,0,0:0:0:0:
408,134,62372,2,0,P|431:149|495:162,1,80
413,42,62807,6,0,B|367:35|335:72|335:72|333:134|264:152|264:152|225:164|166:168|138:122|153:69|202:49|244:59|274:105|272:145|272:145|269:186|232:215|196:223|196:223|258:243|265:312|265:312|328:271|380:298|380:298|356:302|336:296,1,880
171,313,66285,6,0,B|146:286|68:264|11:289|7:325|7:325|57:343|98:315|123:256|128:197|73:114|73:114|67:184|25:218|25:218|-18:177|-13:96|10:26|102:43,1,840
208,290,69763,6,0,P|196:309|180:325,2,40
287,278,70198,2,0,P|286:300|280:322,2,40
348,227,70633,2,0,P|359:246|364:268,2,40
379,157,71068,2,0,P|398:168|414:184,1,40
451,247,71357,1,0,0:0:0:0:
512,341,71502,6,0,P|481:327|439:328,1,60
455,325,71792,2,0,P|425:322|398:309,1,60
398,309,72082,2,0,P|367:323|325:322,1,60
341,324,72372,6,0,P|311:326|284:339,1,60
284,338,72662,2,0,P|253:324|211:325,1,60
227,322,72952,2,0,P|197:319|170:306,1,60
158,293,73241,5,0,0:0:0:0:
152,303,73676,5,0,0:0:0:0:
148,314,74111,5,0,0:0:0:0:
44,278,74546,6,0,P|15:278|-7:285,2,40
139,195,74981,6,0,P|169:212|205:204,1,60
192,209,75270,2,0,P|222:191|233:156,1,60
233,169,75560,2,0,P|232:134|208:107,1,60
219,114,75850,6,0,P|203:88|205:59,1,60
206,58,76140,2,0,P|220:31|246:18,1,60
246,18,76429,2,0,P|275:17|300:33,1,60
321,38,76720,6,0,L|311:133,1,80
387,163,77154,2,0,P|395:145|399:113,2,40
402,248,77589,2,0,P|450:220|467:189,1,80
385,332,78024,2,0,P|410:336|430:332,1,40
503,313,78314,1,0,0:0:0:0:
322,275,78459,6,0,P|301:312|306:363,1,80
224,384,78894,2,0,P|216:351|204:333,2,40
231,263,79328,2,0,P|199:269|145:263,1,80
53,341,79763,2,0,P|92:336|132:342,1,80
85,203,80198,6,0,P|66:247|-2:250,1,120
80,128,80923,1,0,0:0:0:0:
80,128,81068,2,0,P|106:129|128:143,2,40
14,174,81502,2,0,P|1:150|2:124,1,40
28,64,81792,1,0,0:0:0:0:
182,30,81937,6,0,P|151:48|101:47,1,80
260,62,82372,6,0,P|291:80|341:79,1,80
193,115,82807,6,0,P|170:142|122:158,1,80
271,147,83241,6,0,P|293:174|341:190,1,80
246,243,83676,6,0,B|209:225|209:225|162:232,1,80
150,304,84111,2,0,P|127:311|109:323,2,40
245,364,84546,2,0,P|284:362|319:344,1,80
400,355,84981,2,0,P|408:322|405:301,1,40
394,239,85270,1,0,0:0:0:0:
451,163,85415,6,0,L|511:155,1,60
391,155,85705,2,0,L|451:163,1,60
331,162,85995,2,0,L|391:154,1,60
271,154,86285,6,0,L|331:162,1,60
151,152,86575,2,0,B|209:160|209:160|279:152,1,120
314,85,87154,5,0,0:0:0:0:
317,73,87589,5,0,0:0:0:0:
320,61,88024,5,0,0:0:0:0:
403,31,88314,6,0,P|405:50|400:70,1,40
243,67,88604,2,0,P|240:47|245:27,1,40
323,49,88894,5,0,0:0:0:0:
256,192,88966,12,0,90343,0:0:0:0:
252,80,90633,6,0,L|152:71,1,95.9999970703126
83,29,91068,2,0,P|50:42|29:61,2,47.9999985351563
96,206,91502,2,0,P|96:169|79:104,1,95.9999970703126
6,117,91937,2,0,P|6:154|23:219,1,95.9999970703126
61,273,92372,5,0,0:0:0:0:
291,148,92807,2,0,L|341:143,2,47.9999985351563
197,239,93241,2,0,P|213:202|211:136,1,95.9999970703126
180,19,93676,2,0,P|204:51|262:82,1,95.9999970703126
338,143,94111,6,0,P|370:109|417:106,1,95.9999970703126
458,172,94546,2,0,P|488:180|505:195,1,47.9999985351563
512,267,94836,1,0,0:0:0:0:
376,307,94981,2,0,L|384:204,1,95.9999970703126
302,216,95415,2,0,P|270:181|223:178,1,95.9999970703126
145,175,95850,6,0,L|143:194,4,11.9999996337891
132,269,96285,2,0,L|233:259,1,95.9999970703126
56,305,96720,2,0,P|43:277|72:210,1,95.9999970703126
183,342,97154,2,0,P|138:351|90:382,1,95.9999970703126
16,376,97589,5,0,0:0:0:0:
91,143,98024,2,0,P|63:137|37:143,2,47.9999985351563
241,169,98459,2,0,P|215:185|146:195,1,95.9999970703126
250,80,98894,2,0,P|297:84|339:106,1,95.9999970703126
168,118,99328,6,0,L|159:18,1,95.9999970703126
250,80,99763,2,0,L|254:24,2,47.9999985351563
339,106,100198,2,0,P|340:63|365:8,1,95.9999970703126
509,58,100633,2,0,P|471:78|411:84,1,95.9999970703126
434,178,101068,6,0,P|389:171|354:221,1,95.9999970703126
278,169,101502,2,0,P|276:196|289:227,1,47.9999985351563
328,280,101792,1,0,0:0:0:0:
491,324,101937,2,0,L|501:218,1,95.9999970703126
328,280,102372,2,0,P|359:313|405:307,1,95.9999970703126
356,193,102807,6,0,L|250:203,1,95.9999970703126
192,162,103241,2,0,P|172:179|156:205,1,47.9999985351563
155,275,103531,1,0,0:0:0:0:
0,230,103676,2,0,P|49:218|95:234,1,95.9999970703126
186,343,104111,2,0,L|188:357,4,11.9999996337891
256,192,174183,12,0,182807,0:0:0:0:
