osu file format v14

[General]
AudioFilename: Delphic - Baiya (Brookes Brothers Remix).mp3
AudioLeadIn: 0
PreviewTime: 44370
Countdown: 1
SampleSet: Normal
StackLeniency: 0.7
Mode: 0
LetterboxInBreaks: 1
CountdownOffset: 1
WidescreenStoryboard: 0

[Editor]
Bookmarks: 13852,17645
DistanceSpacing: 0.6
BeatDivisor: 4
GridSize: 8
TimelineZoom: 1.9

[Metadata]
Title:Baiya (Brookes Brothers Remix)
TitleUnicode:Baiya (Brookes Brothers Remix)
Artist:Delphic
ArtistUnicode:Delphic
Creator:Meltdown
Version:Baiya
Source:UKF Drum and Bass
Tags:
BeatmapID:660570
BeatmapSetID:293699

[Difficulty]
HPDrainRate:7
CircleSize:4
OverallDifficulty:8
ApproachRate:9.3
SliderMultiplier:1.8
SliderTickRate:1

[Events]
//Background and Video events
0,0,"ukf_dubstep_wallpaper_by_cnopicilin-d4czu68.jpg",0,0
//Break Periods
//Storyboard Layer 0 (Background)
//Storyboard Layer 1 (Fail)
//Storyboard Layer 2 (Pass)
//Storyboard Layer 3 (Foreground)
//Storyboard Sound Samples

[TimingPoints]
3508,344.827586206897,4,1,0,100,1,0
49197,-66.6666666666667,4,1,0,100,0,0
49887,-100,4,1,0,100,0,0
88508,-66.6666666666667,4,1,0,100,0,0
89025,-100,4,1,0,100,0,0
90749,-66.6666666666667,4,1,0,100,0,0
100232,-100,4,1,0,100,0,0

[HitObjects]
256,192,19548,12,0,21875,0:0:0:0:
120,64,22301,6,0,B|152:56|224:40|336:64,1,180
120,320,22818,6,0,B|152:328|224:344|336:320,1,180
320,208,23335,1,0,0:0:0:0:
104,56,23680,6,0,B|96:88|80:160|96:272,1,180
408,56,24197,6,0,B|416:88|432:160|408:272,1,180
160,136,24714,1,0,0:0:0:0:
272,16,25059,6,0,B|241:28|174:59|96:144,1,180
240,368,25576,6,0,B|270:355|337:324|416:240,1,180
344,144,26094,1,0,0:0:0:0:
240,16,26439,6,0,B|270:28|337:59|416:144,1,180
272,368,26956,6,0,B|241:355|174:324|96:240,1,180
152,144,27473,1,0,0:0:0:0:
376,64,27818,1,0,0:0:0:0:
160,120,27990,1,0,0:0:0:0:
352,208,28163,1,0,0:0:0:0:
104,56,28335,2,0,P|88:104|168:232,1,180
248,96,28852,1,0,0:0:0:0:
120,272,29197,5,0,0:0:0:0:
312,264,29370,1,0,0:0:0:0:
192,128,29542,1,0,0:0:0:0:
392,72,29714,2,0,B|368:192|352:248|352:248|352:240,1,180
96,64,30232,1,0,0:0:0:0:
256,160,30576,5,0,0:0:0:0:
392,72,30749,2,0,L|368:200,1,90
256,160,31094,1,0,0:0:0:0:
112,208,31266,2,0,L|144:336,1,90
352,232,31611,1,0,0:0:0:0:
128,128,31956,5,0,0:0:0:0:
360,248,32128,2,0,L|264:328,1,90
128,128,32473,1,0,0:0:0:0:
360,248,32645,2,0,L|272:336,1,90
128,256,32990,1,0,0:0:0:0:
232,56,33335,1,0,0:0:0:0:
136,152,33508,1,0,0:0:0:0:
224,320,33680,1,0,0:0:0:0:
224,320,33852,1,0,0:0:0:0:
40,192,34197,1,0,0:0:0:0:
40,192,34370,1,0,0:0:0:0:
232,56,34714,5,0,0:0:0:0:
392,128,34887,1,0,0:0:0:0:
176,264,35059,1,0,0:0:0:0:
176,264,35232,1,0,0:0:0:0:
480,192,35574,1,0,0:0:0:0:
480,192,35746,1,0,0:0:0:0:
208,80,36094,5,0,0:0:0:0:
72,232,36266,1,0,0:0:0:0:
392,48,36439,2,0,B|440:104|448:152,1,90
280,304,36783,1,0,0:0:0:0:
120,152,36956,1,0,0:0:0:0:
328,104,37128,1,0,0:0:0:0:
96,64,37473,5,0,0:0:0:0:
160,232,37645,1,0,0:0:0:0:
264,64,37818,1,0,0:0:0:0:
384,232,37990,2,0,B|352:264|288:264|240:264|200:240|192:240,1,180
384,232,38508,1,0,0:0:0:0:
120,48,38852,6,0,B|88:136|80:184|80:240,1,180
421,300,39370,2,0,B|340:347|294:363|239:373,1,180
144,248,39887,1,0,0:0:0:0:
428,94,40232,6,0,B|350:42|306:23|252:9,1,180
308,382,40749,2,0,B|378:320|407:281|433:232,1,180
120,112,41266,1,0,0:0:0:0:
84,290,41611,6,0,B|162:341|206:361|260:375,1,180
202,1,42128,2,0,B|133:64|104:102|77:151,1,180
85,137,42645,1,0,0:0:0:0:
248,144,42990,5,0,0:0:0:0:
416,144,43163,2,0,L|384:192,2,45
248,272,43508,1,0,0:0:0:0:
85,137,43680,2,0,L|112:176,2,45
240,136,44025,1,0,0:0:0:0:
136,64,44370,5,0,0:0:0:0:
408,232,44542,1,0,0:0:0:0:
144,160,44714,5,0,0:0:0:0:
352,280,44887,1,0,0:0:0:0:
392,112,45059,2,0,P|360:72|296:48,1,90
326,53,45404,1,0,0:0:0:0:
176,192,45576,1,0,0:0:0:0:
376,320,45749,1,0,0:0:0:0:
112,176,45921,1,0,0:0:0:0:
408,184,46094,1,0,0:0:0:0:
128,296,46266,1,0,0:0:0:0:
96,112,46439,2,0,B|144:80|192:64|240:56|264:56,1,180
256,192,46956,5,0,0:0:0:0:
256,296,47128,1,0,0:0:0:0:
256,88,47301,1,0,0:0:0:0:
152,256,47473,1,0,0:0:0:0:
359,128,47645,1,0,0:0:0:0:
144,136,47818,1,0,0:0:0:0:
367,248,47990,1,0,0:0:0:0:
256,296,48163,5,0,0:0:0:0:
256,88,48335,1,0,0:0:0:0:
152,256,48508,1,0,0:0:0:0:
359,128,48680,1,0,0:0:0:0:
144,136,48852,1,0,0:0:0:0:
367,248,49025,1,0,0:0:0:0:
88,88,49197,2,0,B|40:152|32:176|24:208,1,135.000005149842
375,320,49542,6,0,P|407:288|440:192,1,135.000005149842
128,248,49887,1,0,0:0:0:0:
376,72,50059,1,0,0:0:0:0:
248,296,50232,1,0,0:0:0:0:
120,144,50404,1,0,0:0:0:0:
344,264,50576,2,0,B|288:296|232:296|200:288|168:272,1,180
112,80,51094,5,0,0:0:0:0:
232,272,51266,1,0,0:0:0:0:
368,88,51439,1,0,0:0:0:0:
128,224,51611,1,0,0:0:0:0:
240,64,51783,1,0,0:0:0:0:
240,64,51956,2,0,B|192:80|160:112|136:152|120:200|128:192,1,180
128,264,52473,5,0,0:0:0:0:
344,224,52645,1,0,0:0:0:0:
424,72,52818,1,0,0:0:0:0:
216,224,52990,1,0,0:0:0:0:
96,64,53163,1,0,0:0:0:0:
216,224,53335,1,0,0:0:0:0:
320,72,53508,1,0,0:0:0:0:
96,296,53680,1,0,0:0:0:0:
72,152,53852,5,0,0:0:0:0:
240,64,54025,1,0,0:0:0:0:
96,216,54197,1,0,0:0:0:0:
408,224,54370,1,0,0:0:0:0:
168,304,54542,1,0,0:0:0:0:
168,304,54714,2,0,P|96:232|64:152,1,180
144,64,55404,6,0,P|200:48|232:48,1,90
408,248,55749,2,0,P|376:280|328:288,1,90
112,200,56094,2,0,B|144:144|208:112|256:96,1,180
64,176,56611,1,0,0:0:0:0:
160,88,56783,1,0,0:0:0:0:
240,216,56956,1,0,0:0:0:0:
344,48,57128,1,0,0:0:0:0:
432,304,57301,1,0,0:0:0:0:
432,304,57473,2,0,P|352:264|296:176,1,180
160,240,57990,5,0,0:0:0:0:
344,64,58163,1,0,0:0:0:0:
304,240,58335,1,0,0:0:0:0:
176,64,58508,1,0,0:0:0:0:
136,192,58680,1,0,0:0:0:0:
376,192,58852,1,0,0:0:0:0:
256,312,59025,1,0,0:0:0:0:
88,176,59197,1,0,0:0:0:0:
256,40,59370,1,0,0:0:0:0:
416,184,59542,1,0,0:0:0:0:
144,112,59714,1,0,0:0:0:0:
264,232,59887,1,0,0:0:0:0:
368,112,60059,1,0,0:0:0:0:
64,208,60232,2,0,B|96:264|128:304|184:312|232:328,1,180
336,176,60921,5,0,0:0:0:0:
136,280,61094,1,0,0:0:0:0:
96,48,61266,1,0,0:0:0:0:
280,176,61439,1,0,0:0:0:0:
104,272,61611,2,0,B|80:232|64:184|56:144|88:104,1,180
72,112,62128,1,0,0:0:0:0:
208,48,62301,1,0,0:0:0:0:
72,200,62473,1,0,0:0:0:0:
208,128,62645,1,0,0:0:0:0:
64,296,62818,1,0,0:0:0:0:
208,208,62990,2,0,B|264:200|320:176|368:136|384:120,1,180
264,200,63508,5,0,0:0:0:0:
344,128,63680,1,0,0:0:0:0:
264,200,63852,1,0,0:0:0:0:
192,128,64025,1,0,0:0:0:0:
264,200,64197,1,0,0:0:0:0:
384,64,64370,1,0,0:0:0:0:
264,200,64542,1,0,0:0:0:0:
136,64,64714,1,0,0:0:0:0:
264,200,64887,5,0,0:0:0:0:
88,208,65059,1,0,0:0:0:0:
264,160,65232,1,0,0:0:0:0:
192,264,65404,1,0,0:0:0:0:
400,72,65576,1,0,0:0:0:0:
400,72,65749,2,0,B|384:152|352:192|296:224,1,180
144,40,66439,5,0,0:0:0:0:
352,128,66783,1,0,0:0:0:0:
144,200,67128,1,0,0:0:0:0:
352,272,67473,1,0,0:0:0:0:
144,304,67818,5,0,0:0:0:0:
296,272,68163,1,0,0:0:0:0:
176,160,68508,1,0,0:0:0:0:
312,104,68852,1,0,0:0:0:0:
344,184,69197,5,0,0:0:0:0:
264,272,69542,1,0,0:0:0:0:
152,176,69887,1,0,0:0:0:0:
248,48,70232,1,0,0:0:0:0:
368,176,70576,5,0,0:0:0:0:
152,176,70921,1,0,0:0:0:0:
368,176,71266,1,0,0:0:0:0:
152,176,71611,1,0,0:0:0:0:
208,296,71956,5,0,0:0:0:0:
304,224,72128,1,0,0:0:0:0:
200,176,72301,1,0,0:0:0:0:
304,112,72473,1,0,0:0:0:0:
200,56,72645,1,0,0:0:0:0:
304,112,72818,1,0,0:0:0:0:
200,176,72990,1,0,0:0:0:0:
304,224,73163,1,0,0:0:0:0:
208,296,73335,5,0,0:0:0:0:
96,184,73508,1,0,0:0:0:0:
256,48,73680,1,0,0:0:0:0:
416,192,73852,1,0,0:0:0:0:
256,336,74025,1,0,0:0:0:0:
256,184,74197,1,0,0:0:0:0:
104,56,74370,6,0,P|72:96|56:144,1,90
48,176,74628,1,0,0:0:0:0:
48,224,74714,1,0,0:0:0:0:
72,264,74801,1,0,0:0:0:0:
112,280,74887,1,0,0:0:0:0:
160,272,74973,1,0,0:0:0:0:
200,256,75059,1,0,0:0:0:0:
232,224,75145,1,0,0:0:0:0:
240,176,75232,1,0,0:0:0:0:
256,136,75318,1,0,0:0:0:0:
280,96,75404,1,0,0:0:0:0:
320,72,75490,1,0,0:0:0:0:
360,56,75576,1,0,0:0:0:0:
400,64,75663,1,0,0:0:0:0:
440,88,75749,1,0,0:0:0:0:
472,120,75835,1,0,0:0:0:0:
480,168,75921,1,0,0:0:0:0:
480,216,76008,1,0,0:0:0:0:
320,152,76266,5,0,0:0:0:0:
320,152,76439,1,0,0:0:0:0:
320,152,76611,1,0,0:0:0:0:
320,152,76783,1,0,0:0:0:0:
320,152,76956,1,0,0:0:0:0:
384,264,77128,1,0,0:0:0:0:
352,312,77214,1,0,0:0:0:0:
320,344,77301,1,0,0:0:0:0:
144,272,77473,6,0,B|88:232|64:176|64:168|64:168,1,90
240,56,77817,1,0,0:0:0:0:
464,120,77990,2,0,B|440:176|408:216|360:256|320:272,1,180
128,168,78508,5,0,0:0:0:0:
384,168,78680,1,0,0:0:0:0:
304,88,78852,1,0,0:0:0:0:
200,280,79025,1,0,0:0:0:0:
296,176,79197,1,0,0:0:0:0:
104,88,79370,2,0,L|136:128,2,45
208,160,79714,1,0,0:0:0:0:
72,232,79887,1,0,0:0:0:0:
184,320,80059,1,0,0:0:0:0:
52,53,80404,5,0,0:0:0:0:
64,63,80490,1,0,0:0:0:0:
74,74,80576,1,0,0:0:0:0:
84,84,80663,1,0,0:0:0:0:
95,96,80749,1,0,0:0:0:0:
105,96,80835,1,0,0:0:0:0:
117,106,80921,1,0,0:0:0:0:
138,106,81008,1,0,0:0:0:0:
160,116,81094,1,0,0:0:0:0:
170,127,81180,1,0,0:0:0:0:
180,149,81266,1,0,0:0:0:0:
180,170,81352,1,0,0:0:0:0:
191,202,81439,1,0,0:0:0:0:
213,223,81525,1,0,0:0:0:0:
244,233,81611,1,0,0:0:0:0:
276,233,81697,1,0,0:0:0:0:
309,223,81783,5,0,0:0:0:0:
340,212,81870,1,0,0:0:0:0:
372,192,81956,1,0,0:0:0:0:
393,170,82042,1,0,0:0:0:0:
415,149,82128,1,0,0:0:0:0:
426,116,82214,1,0,0:0:0:0:
426,84,82301,1,0,0:0:0:0:
405,53,82387,1,0,0:0:0:0:
372,31,82473,1,0,0:0:0:0:
340,10,82559,1,0,0:0:0:0:
297,0,82645,1,0,0:0:0:0:
256,0,82732,1,0,0:0:0:0:
213,0,82818,1,0,0:0:0:0:
176,16,82904,1,0,0:0:0:0:
144,56,82990,6,0,B|48:88|224:144|56:112|8:96|160:184|-8:128|96:200|48:200,1,180
160,264,83508,1,0,0:0:0:0:
160,264,83852,1,0,0:0:0:0:
288,312,84025,1,0,0:0:0:0:
384,224,84197,1,0,0:0:0:0:
160,264,84370,1,0,0:0:0:0:
352,136,84542,1,0,0:0:0:0:
128,96,84714,1,0,0:0:0:0:
128,96,84887,2,0,L|168:136|176:144,2,45
208,232,85232,1,0,0:0:0:0:
128,96,85404,1,0,0:0:0:0:
264,128,85576,1,0,0:0:0:0:
80,296,85921,5,0,0:0:0:0:
120,312,86008,1,0,0:0:0:0:
160,312,86094,1,0,0:0:0:0:
200,296,86180,1,0,0:0:0:0:
216,264,86266,1,0,0:0:0:0:
232,224,86352,1,0,0:0:0:0:
240,184,86439,1,0,0:0:0:0:
256,144,86525,1,0,0:0:0:0:
280,112,86611,1,0,0:0:0:0:
320,96,86697,1,0,0:0:0:0:
352,120,86783,1,0,0:0:0:0:
384,144,86870,1,0,0:0:0:0:
392,184,86956,1,0,0:0:0:0:
408,216,87042,1,0,0:0:0:0:
72,64,87301,5,0,0:0:0:0:
80,104,87387,1,0,0:0:0:0:
112,128,87473,1,0,0:0:0:0:
152,128,87559,1,0,0:0:0:0:
184,112,87645,1,0,0:0:0:0:
216,88,87732,1,0,0:0:0:0:
256,80,87818,1,0,0:0:0:0:
296,88,87904,1,0,0:0:0:0:
328,112,87990,1,0,0:0:0:0:
344,152,88076,1,0,0:0:0:0:
344,192,88163,1,0,0:0:0:0:
344,232,88249,1,0,0:0:0:0:
320,264,88335,1,0,0:0:0:0:
64,176,88508,6,0,B|112:184|80:200|128:168|128:184|56:224|120:216|-152:-32|120:240|88:240|200:96|168:328|168:336|176:344|184:352|208:360|200:360,1,270.000010299683
64,296,89025,1,0,0:0:0:0:
64,296,89370,1,0,0:0:0:0:
184,224,89542,1,0,0:0:0:0:
216,88,89714,1,0,0:0:0:0:
64,192,89887,1,0,0:0:0:0:
344,272,90059,1,0,0:0:0:0:
184,144,90232,1,0,0:0:0:0:
368,128,90404,5,0,0:0:0:0:
368,128,90490,1,0,0:0:0:0:
368,128,90576,1,0,0:0:0:0:
208,40,90749,2,0,B|112:40|96:104|66:158,2,135.000005149841
416,104,91439,5,0,0:0:0:0:
400,96,91525,1,0,0:0:0:0:
384,88,91611,1,0,0:0:0:0:
360,88,91697,1,0,0:0:0:0:
336,88,91783,1,0,0:0:0:0:
320,96,91870,1,0,0:0:0:0:
296,104,91956,1,0,0:0:0:0:
280,128,92042,1,0,0:0:0:0:
272,152,92128,1,0,0:0:0:0:
264,176,92214,1,0,0:0:0:0:
248,208,92301,1,0,0:0:0:0:
224,232,92387,1,0,0:0:0:0:
192,240,92473,1,0,0:0:0:0:
160,240,92559,1,0,0:0:0:0:
120,224,92645,1,0,0:0:0:0:
88,200,92732,1,0,0:0:0:0:
72,160,92818,1,0,0:0:0:0:
72,120,92904,1,0,0:0:0:0:
96,88,92990,1,0,0:0:0:0:
128,64,93076,1,0,0:0:0:0:
168,56,93163,1,0,0:0:0:0:
208,72,93249,1,0,0:0:0:0:
240,104,93335,1,0,0:0:0:0:
264,144,93421,1,0,0:0:0:0:
272,192,93508,1,0,0:0:0:0:
304,224,93594,1,0,0:0:0:0:
360,232,93680,1,0,0:0:0:0:
408,208,93766,1,0,0:0:0:0:
440,168,93852,1,0,0:0:0:0:
440,112,93939,1,0,0:0:0:0:
399,89,94025,6,0,B|368:96|368:88|368:88|388:87|406:106|385:41|368:88|390:105|339:102|304:80|304:120|304:120|280:104|304:179|230:214,1,270.000010299683
96,192,94542,1,0,0:0:0:0:
96,192,94887,5,0,0:0:0:0:
200,64,95059,1,0,0:0:0:0:
272,200,95232,1,0,0:0:0:0:
448,48,95404,1,0,0:0:0:0:
405,207,95576,1,0,0:0:0:0:
283,112,95749,1,0,0:0:0:0:
112,304,95921,2,0,L|168:256,2,67.5000025749208
280,320,96266,1,0,0:0:0:0:
176,176,96439,1,0,0:0:0:0:
368,176,96611,1,0,0:0:0:0:
455,305,96956,5,0,0:0:0:0:
429,291,97042,1,0,0:0:0:0:
402,278,97128,1,0,0:0:0:0:
375,264,97214,1,0,0:0:0:0:
349,251,97301,1,0,0:0:0:0:
322,237,97387,1,0,0:0:0:0:
296,224,97473,1,0,0:0:0:0:
269,210,97559,1,0,0:0:0:0:
242,196,97645,1,0,0:0:0:0:
216,183,97732,1,0,0:0:0:0:
189,169,97818,1,0,0:0:0:0:
162,156,97904,1,0,0:0:0:0:
136,142,97990,1,0,0:0:0:0:
109,128,98076,1,0,0:0:0:0:
112,280,98335,5,0,0:0:0:0:
256,24,98508,1,0,0:0:0:0:
392,280,98680,1,0,0:0:0:0:
112,136,98852,1,0,0:0:0:0:
392,144,99025,1,0,0:0:0:0:
112,280,99197,2,0,B|112:208|136:168|152:144|192:120,1,135.000005149842
384,240,99542,1,0,0:0:0:0:
296,88,99714,1,0,0:0:0:0:
248,232,99887,1,0,0:0:0:0:
160,88,100059,1,0,0:0:0:0:
135,310,100232,2,0,P|202:352|304:352,1,180
416,200,100749,5,0,0:0:0:0:
160,88,100921,1,0,0:0:0:0:
352,88,101094,1,0,0:0:0:0:
104,184,101266,1,0,0:0:0:0:
352,88,101439,1,0,0:0:0:0:
392,272,101611,2,0,B|360:312|304:328|240:336|224:328,1,180
123,232,102128,5,0,0:0:0:0:
296,49,102301,1,0,0:0:0:0:
368,232,102473,1,0,0:0:0:0:
194,49,102645,1,0,0:0:0:0:
123,232,102818,1,0,0:0:0:0:
296,49,102990,1,0,0:0:0:0:
368,232,103163,1,0,0:0:0:0:
194,49,103335,5,0,0:0:0:0:
123,232,103508,1,0,0:0:0:0:
296,49,103680,1,0,0:0:0:0:
368,232,103852,1,0,0:0:0:0:
192,48,104025,1,0,0:0:0:0:
120,288,104197,1,0,0:0:0:0:
120,288,104370,2,0,B|152:328|192:344|240:344|296:336,1,180
120,184,105059,5,0,0:0:0:0:
272,304,105232,1,0,0:0:0:0:
120,184,105404,1,0,0:0:0:0:
272,304,105576,1,0,0:0:0:0:
96,112,105749,2,0,B|112:64|144:32|208:32|248:40,1,180
352,128,106266,5,0,0:0:0:0:
192,184,106439,1,0,0:0:0:0:
352,264,106611,1,0,0:0:0:0:
216,328,106783,1,0,0:0:0:0:
192,184,106956,1,0,0:0:0:0:
336,48,107128,2,0,B|384:56|440:88|440:184,1,180
192,272,107645,5,0,0:0:0:0:
192,72,107818,1,0,0:0:0:0:
174,270,107990,1,0,0:0:0:0:
209,73,108163,1,0,0:0:0:0:
168,245,108335,1,0,0:0:0:0:
236,57,108508,1,0,0:0:0:0:
160,229,108680,1,0,0:0:0:0:
260,56,108853,5,0,0:0:0:0:
155,212,109025,1,0,0:0:0:0:
284,58,109198,1,0,0:0:0:0:
153,194,109370,1,0,0:0:0:0:
306,65,109543,1,0,0:0:0:0:
154,176,109714,1,0,0:0:0:0:
352,80,109887,2,0,B|392:104|408:152|416:200|392:240,1,180
