osu file format v5

[General]
AudioFilename: 13 Let's Dance.ogg
AudioLeadIn: 3000
PreviewTime: -1
Countdown: 0
SampleSet: Normal
StackLeniency: 0.7
Mode: 0
LetterboxInBreaks: 0

[Metadata]
Title:Let's Dance
Artist:Delaney Wolff
Creator:m980
Version:Sweatin'
Source:
Tags:

[Difficulty]
HPDrainRate:6
CircleSize:3
OverallDifficulty:5
SliderMultiplier:2.3
SliderTickRate:2

[Events]
//Background and Video events
//Break Periods
2,40092,54890
2,87301,99690
2,116204,131302
//Storyboard Layer 0 (Background)
4,0,1,"bg\swe_badge.png",320,240 F,0,10180,11156,1,1
4,0,1,"bg\swe_badge2.png",320,240 F,0,11156,13107,1,1
//Storyboard Layer 1 (Failing)
//Storyboard Layer 2 (Passing)
//Storyboard Layer 3 (Foreground)
4,3,1,"spr\swe_agents.png",0,360 M,1,7253,8204,0,360,320,240 F,0,7253,9204,1,1
4,3,1,"spr\swe_agentsland.png",320,240 F,0,9204,10180,1,1 M,0,9404,9504,320,-300,320,240
4,3,1,"spr\scn0_swe_car.png",640,240 M,1,5302,6253,640,220,320,240 F,0,5302,7253,1,1
4,3,1,"txt\areyouready.png",320,240 M,0,21399,21599,640,240,320,240 F,0,21399,23839,1,1
4,3,1,"bg\swe_ready.png",320,240 M,0,21399,21599,0,240,320,240 F,0,21399,23839,1,1
4,3,0,"spr\cd_1swe.png",217,0 F,0,23351,23839,1,1
4,3,0,"spr\cd_3.png",0,0 F,0,22375,23839,1,1
4,3,0,"spr\cd_2.png",426,0 F,0,22863,23839,1,1
//Storyboard Sound Samples
5,10180,2,"sfx_eba\hey.wav"
5,21399,3,"sfx\cd_ready.wav"
5,22375,3,"sfx\cd_3.wav"
5,22863,3,"sfx\cd_2.wav"
5,23351,3,"sfx\cd_1.wav"
5,23839,3,"sfx\cd_go.wav"
5,31643,2,"sfx_eba\hey.wav"
5,37985,2,"sfx_eba\hey.wav"
5,39936,2,"sfx_eba\woo.wav"
5,59448,2,"sfx_eba\yeah.wav"
5,65790,2,"sfx_eba\hey.wav"
5,67253,2,"sfx_eba\yeah.wav"
5,70668,2,"sfx_eba\yahoo.wav"
5,73351,2,"sfx_eba\woo.wav"
5,78960,2,"sfx_eba\woo.wav"
5,80912,2,"sfx_eba\woo.wav"
5,84814,2,"sfx_eba\hey.wav"
5,87009,2,"sfx_eba\yahoo.wav"
5,108229,2,"sfx_eba\hey.wav"
5,112131,2,"sfx_eba\woo.wav"
5,116034,2,"sfx_eba\hey.wav"
5,135546,2,"sfx_eba\yeah.wav"
5,141887,2,"sfx_eba\hey.wav"
5,143351,2,"sfx_eba\yeah.wav"
5,146765,2,"sfx_eba\yahoo.wav"
5,149448,2,"sfx_eba\woo.wav"
5,155058,2,"sfx_eba\hey.wav"
5,157009,2,"sfx_eba\hey.wav"
5,161399,2,"sfx_eba\yahoo.wav"
5,11156,0,"sfx\mov_missionm.wav"
//Background Colour Transformations
3,100,163,162,255
3,100,163,162,255
3,100,163,162,255
3,100,163,162,255
3,100,163,162,255
3,100,163,162,255
3,100,163,162,255
3,100,163,162,255
3,100,163,162,255
3,100,163,162,255
3,100,163,162,255
3,100,163,162,255
3,100,163,162,255
3,100,163,162,255
3,100,163,162,255
3,100,163,162,255
3,100,163,162,255
3,100,163,162,255
3,100,163,162,255
3,100,163,162,255
3,100,163,162,255
3,100,163,162,255
3,100,163,162,255
3,100,163,162,255
3,100,163,162,255
3,100,163,162,255
3,100,163,162,255
3,100,163,162,255
3,100,163,162,255
3,100,163,162,255
3,100,163,162,255
3,100,163,162,255
3,100,163,162,255
3,100,163,162,255
3,100,163,162,255
3,100,163,162,255
3,100,163,162,255
3,100,163,162,255
3,100,163,162,255
3,100,163,162,255
3,100,163,162,255
3,100,163,162,255
3,100,163,162,255
3,100,163,162,255
3,100,0,0,0
3,100,0,0,0
3,100,163,162,255
3,100,163,162,255
3,100,163,162,255
3,100,163,162,255
3,100,0,0,0
3,100,163,162,255
3,100,0,0,0
3,100,163,162,255
3,100,163,162,255
3,100,163,162,255
3,100,163,162,255
3,100,163,162,255
3,100,163,162,255
3,100,163,162,255
3,100,163,162,255
3,100,163,162,255
3,100,163,162,255
3,100,163,162,255
3,100,163,162,255
3,100,163,162,255
3,100,163,162,255
3,100,163,162,255
3,100,163,162,255
3,100,163,162,255
3,100,163,162,255
3,100,163,162,255
3,100,163,162,255
3,100,163,162,255
3,100,163,162,255
3,100,163,162,255
3,100,163,162,255
3,100,163,162,255
3,100,163,162,255
3,100,163,162,255
3,100,163,162,255
3,100,163,162,255
3,100,163,162,255
3,100,163,162,255
3,100,163,162,255
3,100,163,162,255
3,100,163,162,255
3,100,163,162,255
3,100,163,162,255
3,100,163,162,255
3,100,163,162,255
3,100,163,162,255
3,100,163,162,255
3,100,163,162,255

[TimingPoints]
1400,487.80487804878,4,1,0,100,1

[HitObjects]
176,64,24326,5,0
336,64,24814,1,0
376,136,25058,1,0
376,136,25180,1,0
296,136,25424,1,0
216,136,25668,1,0
216,136,25790,1,0
256,208,26034,1,0
336,208,26278,1,0
480,272,26765,5,0
384,272,27009,1,0
288,336,27497,1,0
208,272,27741,1,4
96,336,28229,1,0
32,272,28473,1,0
152,96,28960,6,0,B|258:10|368:96,1,230
408,168,29692,1,0
456,96,29936,1,4
496,304,30912,5,0
416,272,31156,1,0
336,304,31399,1,0
256,272,31643,1,0
176,304,31887,1,0
176,64,32131,5,0
336,64,32619,1,0
376,136,32863,1,0
376,136,32985,1,0
296,136,33229,1,0
216,136,33473,1,0
216,136,33595,1,0
256,208,33839,1,0
336,208,34082,1,0
416,272,34570,6,0,B|256:379|64:272,2,345
480,96,36521,5,4
336,160,37009,1,0
176,224,37497,1,4
32,288,37985,1,0
176,304,38717,5,0
240,240,38960,1,0
304,304,39204,1,0
368,240,39448,1,0
432,304,39692,1,0
496,240,39936,1,0
48,336,56034,6,0,B|10:225|32:94|224:112,1,345
224,192,57009,1,0
224,192,57253,1,0
112,304,57741,1,0
112,304,57985,1,0
176,352,58229,5,0
256,352,58473,1,0
336,352,58717,2,0,B|519:351|536:158|432:80,1,345
352,224,59692,5,0
352,144,59936,2,0,B|378:-9|117:-9|160:160,1,345
256,144,60912,1,0
256,144,61156,1,0
152,240,61887,2,0,B|126:393|387:393|344:224,1,345
256,240,62863,1,0
256,240,63107,1,0
464,336,63839,6,0,B|502:225|480:94|288:112,1,345
288,192,64814,1,0
288,192,65058,1,0
400,304,65546,1,0
400,304,65790,1,0
336,352,66034,5,0
256,352,66278,1,0
176,352,66522,2,0,B|-7:351|-24:158|80:80,1,345
256,144,67497,5,0
160,144,67741,2,0,B|133:-11|386:-12|352:160,1,345
352,240,68717,2,0,B|379:395|126:396|160:224,1,345
160,144,69692,2,0,B|133:-11|386:-12|352:160,1,345
256,144,70668,1,0
256,336,71399,5,0
256,336,71643,1,0
432,256,72131,1,0
432,256,72375,1,0
336,80,72863,1,0
160,160,73351,1,0
64,144,75058,5,0
128,80,75302,1,0
400,80,76034,1,0
464,144,76278,1,0
464,288,76765,1,0
328,240,77253,1,0
360,320,77497,5,0
280,312,77741,1,0
208,280,77985,1,0
144,232,78229,1,0
96,168,78473,1,0
64,96,78717,1,0
32,24,78960,1,0
152,320,79448,5,0
232,312,79692,1,0
304,280,79936,1,0
368,232,80180,1,0
416,168,80424,1,0
448,96,80668,1,0
480,24,80911,1,0
400,304,81399,5,0
328,344,81643,1,0
328,264,81887,1,0
256,304,82131,1,0
184,344,82375,1,0
184,264,82619,1,0
112,304,82863,1,0
112,224,83107,1,0
184,184,83351,1,0
256,224,83595,1,0
328,184,83839,1,0
256,144,84082,1,0
328,104,84326,1,0
256,64,84570,1,0
328,24,84814,1,0
256,192,85302,12,0,87009
192,24,100424,5,0
192,144,100912,1,0
256,208,101156,1,0
256,208,101278,1,0
256,80,101521,1,0
320,144,101765,1,0
320,144,101887,1,0
392,184,102131,1,0
464,224,102375,1,0
400,280,102619,6,0,B|321:379|180:382|88:256,1,345
104,192,103595,2,0,B|102:45|288:56,1,230
256,136,104326,1,0
256,216,104570,1,0
256,336,105058,5,0
192,272,105302,1,0
128,336,105546,1,0
64,272,105790,1,0
128,208,106034,1,0
64,144,106277,1,0
0,208,106521,1,0
0,80,107009,1,0
64,24,107253,1,0
128,80,107497,1,0
192,24,107741,1,0
256,80,107985,1,0
320,24,108229,5,0
320,144,108717,1,0
256,208,108961,1,0
256,208,109083,1,0
256,80,109326,1,0
192,144,109570,1,0
192,144,109692,1,0
120,184,109936,1,0
48,224,110180,1,0
112,288,110424,5,0
184,336,110668,2,0,B|335:382|392:248,1,230
392,184,111400,2,0,B|395:90|370:33|248:32,1,230
256,120,112131,1,0
256,336,112863,5,0
192,272,113107,1,0
128,336,113351,1,0
64,272,113595,1,0
128,208,113839,1,0
64,144,114082,1,0
0,208,114326,1,0
0,80,114814,1,0
64,16,115058,1,0
128,80,115302,1,0
192,16,115546,1,0
256,80,115790,1,0
320,16,116034,1,0
464,336,132131,6,0,B|502:225|480:94|288:112,1,345
288,192,133106,1,0
288,192,133350,1,0
400,304,133838,1,0
400,304,134082,1,0
336,352,134326,5,0
256,352,134570,1,0
176,352,134814,2,0,B|-7:351|-24:158|80:80,1,345
160,224,135789,5,0
160,144,136033,2,0,B|134:-9|395:-9|352:160,1,345
256,144,137009,1,0
256,144,137253,1,0
360,240,137984,2,0,B|386:393|125:393|160:224,1,345
256,240,138960,1,0
256,240,139204,1,0
48,336,139936,6,0,B|10:225|32:94|224:112,1,345
224,192,140911,1,0
224,192,141155,1,0
112,304,141643,1,0
112,304,141887,1,0
176,352,142131,5,0
256,352,142375,1,0
336,352,142619,2,0,B|519:351|536:158|432:80,1,345
256,144,143594,5,0
352,144,143838,2,0,B|379:-11|126:-12|160:160,1,345
160,240,144814,2,0,B|133:395|386:396|352:224,1,345
352,144,145789,2,0,B|379:-11|126:-12|160:160,1,345
256,144,146765,1,0
256,336,147496,5,0
256,336,147740,1,0
80,256,148228,1,0
80,256,148472,1,0
176,80,148960,1,0
352,160,149448,1,0
448,144,151155,5,0
384,80,151399,1,0
112,80,152131,1,0
48,144,152375,1,0
48,288,152862,1,0
176,240,153350,1,0
240,304,153594,5,0
304,240,153838,1,0
368,304,154082,1,0
432,240,154326,1,0
368,176,154570,1,0
432,112,154814,1,0
496,176,155057,1,0
496,304,155545,1,0
432,368,155789,1,0
368,304,156033,1,0
304,240,156277,1,0
240,304,156521,1,0
176,240,156765,1,0
112,176,157008,1,0
256,192,157497,12,0,161399
