osu file format v5

[General]
AudioFilename: 13 Let's Dance.ogg
AudioLeadIn: 3000
PreviewTime: -1
Countdown: 0
SampleSet: Normal
StackLeniency: 0.1
Mode: 0
LetterboxInBreaks: 1

[Metadata]
Title:Let's Dance
Artist:Delaney Wolff
Creator:m980
Version:HardRock!
Source:
Tags:

[Difficulty]
HPDrainRate:9
CircleSize:5
OverallDifficulty:8
SliderMultiplier:2.3
SliderTickRate:2

[Events]
//Background and Video events
//Break Periods
2,40092,54890
2,87301,99690
2,116204,131302
//Storyboard Layer 0 (Background)
4,0,1,"bg\hr_badge.png",320,240 F,0,10180,11156,1,1
4,0,1,"bg\hr_badge2.png",320,240 F,0,11156,13107,1,1
//Storyboard Layer 1 (Failing)
//Storyboard Layer 2 (Passing)
//Storyboard Layer 3 (Foreground)
4,3,1,"spr\hr_divas.png",0,360 M,1,7253,8204,0,360,320,240 F,0,7253,9204,1,1
4,3,1,"spr\hr_divasland.png",320,240 F,0,9204,10180,1,1 M,0,9404,9504,320,-300,320,240
4,3,1,"spr\scn0_hr_car.png",640,240 M,1,5302,6253,640,220,320,240 F,0,5302,7253,1,1
4,3,1,"txt\areyouready.png",320,240 M,0,21399,21599,640,240,320,240 F,0,21399,23839,1,1
4,3,1,"bg\hr_ready.png",320,240 M,0,21399,21599,0,240,320,240 F,0,21399,23839,1,1
4,3,0,"spr\cd_1hr.png",217,0 F,0,23351,23839,1,1
4,3,0,"spr\cd_3hr.png",0,0 F,0,22375,23839,1,1
4,3,0,"spr\cd_2hr.png",426,0 F,0,22863,23839,1,1
//Storyboard Sound Samples
5,31643,2,"sfx_eba\fhey.wav"
5,37985,2,"sfx_eba\fhey.wav"
5,39936,2,"sfx_eba\fwoo.wav"
5,59448,2,"sfx_eba\fyeah.wav"
5,65790,2,"sfx_eba\fhey.wav"
5,67253,2,"sfx_eba\fyeah.wav"
5,70668,2,"sfx_eba\fyahoo.wav"
5,73351,2,"sfx_eba\fwoo.wav"
5,78960,2,"sfx_eba\fwoo.wav"
5,80912,2,"sfx_eba\fwoo.wav"
5,84814,2,"sfx_eba\fhey.wav"
5,87009,2,"sfx_eba\fyahoo.wav"
5,108229,2,"sfx_eba\fhey.wav"
5,112131,2,"sfx_eba\fwoo.wav"
5,116034,2,"sfx_eba\fhey.wav"
5,135546,2,"sfx_eba\fyeah.wav"
5,141887,2,"sfx_eba\fhey.wav"
5,143351,2,"sfx_eba\fyeah.wav"
5,146765,2,"sfx_eba\fyahoo.wav"
5,149448,2,"sfx_eba\fwoo.wav"
5,155058,2,"sfx_eba\fhey.wav"
5,157009,2,"sfx_eba\fhey.wav"
5,161399,2,"sfx_eba\fyahoo.wav"
5,21399,3,"sfx\mov_readyf.wav"
5,22375,3,"sfx\mov_3f.wav"
5,22863,3,"sfx\mov_2f.wav"
5,23351,3,"sfx\mov_1f.wav"
5,23839,3,"sfx\mov_gof.wav"
5,10180,2,"sfx_eba\fhey.wav"
5,11156,0,"sfx\mov_missionf.wav"
//Background Colour Transformations
3,100,163,162,255
3,100,163,162,255
3,100,163,162,255
3,100,163,162,255
3,100,163,162,255
3,100,163,162,255
3,100,163,162,255
3,100,163,162,255
3,100,163,162,255
3,100,163,162,255
3,100,163,162,255
3,100,163,162,255
3,100,163,162,255
3,100,163,162,255
3,100,163,162,255
3,100,163,162,255
3,100,163,162,255
3,100,163,162,255
3,100,163,162,255
3,100,163,162,255
3,100,163,162,255
3,100,163,162,255
3,100,163,162,255
3,100,163,162,255
3,100,163,162,255
3,100,163,162,255

[TimingPoints]
1400,487.80487804878,4,1,1,100,1

[HitObjects]
336,320,24326,5,0
176,320,24814,1,0
136,248,25058,1,0
136,248,25180,1,0
216,248,25424,1,0
296,248,25668,1,0
296,248,25790,1,0
256,176,26034,1,0
176,176,26278,1,0
32,112,26765,5,0
128,112,27009,1,0
224,48,27497,1,0
304,112,27741,1,4
416,48,28229,1,0
480,112,28473,1,0
360,288,28960,6,0,B|254:374|144:288,1,230
104,216,29692,1,0
56,288,29936,1,4
16,80,30912,5,0
96,112,31156,1,0
176,80,31399,1,0
256,112,31643,1,0
336,80,31887,1,0
336,320,32131,5,0
176,320,32619,1,0
136,248,32863,1,0
136,248,32985,1,0
216,248,33229,1,0
296,248,33473,1,0
296,248,33595,1,0
256,176,33839,1,0
176,176,34082,1,0
96,112,34570,6,0,B|256:5|448:112,2,345
32,288,36521,5,4
176,224,37009,1,0
336,160,37497,1,4
480,96,37985,1,0
336,80,38717,5,0
272,144,38960,1,0
208,80,39204,1,0
144,144,39448,1,0
80,80,39692,1,0
16,144,39936,1,0
464,48,56034,6,0,B|502:159|480:290|288:272,1,345
288,192,57009,1,0
288,192,57253,1,0
400,80,57741,1,0
400,80,57985,1,0
336,32,58229,5,0
256,32,58473,1,0
176,32,58717,2,0,B|-7:33|-24:226|80:304,1,345
160,160,59692,5,0
160,240,59936,2,0,B|134:393|395:393|352:224,1,345
256,240,60912,1,0
256,240,61156,1,0
360,144,61887,2,0,B|386:-9|125:-9|168:160,1,345
256,144,62863,1,0
256,144,63107,1,0
48,48,63839,6,0,B|10:159|32:290|224:272,1,345
224,192,64814,1,0
224,192,65058,1,0
112,80,65546,1,0
112,80,65790,1,0
176,32,66034,5,0
256,32,66278,1,0
336,32,66522,2,0,B|519:33|536:226|432:304,1,345
256,240,67497,5,0
352,240,67741,2,0,B|379:395|126:396|160:224,1,345
160,144,68717,2,0,B|133:-11|386:-12|352:160,1,345
352,240,69692,2,0,B|379:395|126:396|160:224,1,345
256,240,70668,1,0
256,48,71399,5,0
256,48,71643,1,0
80,128,72131,1,0
80,128,72375,1,0
176,304,72863,1,0
352,224,73351,1,0
448,240,75058,5,0
384,304,75302,1,0
112,304,76034,1,0
48,240,76278,1,0
48,96,76765,1,0
184,144,77253,1,0
152,64,77497,5,0
232,72,77741,1,0
304,104,77985,1,0
368,152,78229,1,0
416,216,78473,1,0
448,288,78717,1,0
480,360,78960,1,0
360,64,79448,5,0
280,72,79692,1,0
208,104,79936,1,0
144,152,80180,1,0
96,216,80424,1,0
64,288,80668,1,0
32,360,80911,1,0
112,80,81399,5,0
184,40,81643,1,0
184,120,81887,1,0
256,80,82131,1,0
328,40,82375,1,0
328,120,82619,1,0
400,80,82863,1,0
400,160,83107,1,0
328,200,83351,1,0
256,160,83595,1,0
184,200,83839,1,0
256,240,84082,1,0
184,280,84326,1,0
256,320,84570,1,0
184,360,84814,1,0
256,192,85302,12,0,87009
320,360,100424,5,0
320,240,100912,1,0
256,176,101156,1,0
256,176,101278,1,0
256,304,101521,1,0
192,240,101765,1,0
192,240,101887,1,0
120,200,102131,1,0
48,160,102375,1,0
112,104,102619,6,0,B|191:5|332:2|424:128,1,345
408,192,103595,2,0,B|410:339|224:328,1,230
256,248,104326,1,0
256,168,104570,1,0
256,48,105058,5,0
320,112,105302,1,0
384,48,105546,1,0
448,112,105790,1,0
384,176,106034,1,0
448,240,106277,1,0
512,176,106521,1,0
512,304,107009,1,0
448,360,107253,1,0
384,304,107497,1,0
320,360,107741,1,0
256,304,107985,1,0
192,360,108229,5,0
192,240,108717,1,0
256,176,108961,1,0
256,176,109083,1,0
256,304,109326,1,0
320,240,109570,1,0
320,240,109692,1,0
392,200,109936,1,0
464,160,110180,1,0
400,96,110424,5,0
328,48,110668,2,0,B|177:2|120:136,1,230
120,200,111400,2,0,B|117:294|142:351|264:352,1,230
256,264,112131,1,0
256,48,112863,5,0
320,112,113107,1,0
384,48,113351,1,0
448,112,113595,1,0
384,176,113839,1,0
448,240,114082,1,0
512,176,114326,1,0
512,304,114814,1,0
448,368,115058,1,0
384,304,115302,1,0
320,368,115546,1,0
256,304,115790,1,0
192,368,116034,1,0
48,48,132131,6,0,B|10:159|32:290|224:272,1,345
224,192,133106,1,0
224,192,133350,1,0
112,80,133838,1,0
112,80,134082,1,0
176,32,134326,5,0
256,32,134570,1,0
336,32,134814,2,0,B|519:33|536:226|432:304,1,345
352,160,135789,5,0
352,240,136033,2,0,B|378:393|117:393|160:224,1,345
256,240,137009,1,0
256,240,137253,1,0
152,144,137984,2,0,B|126:-9|387:-9|352:160,1,345
256,144,138960,1,0
256,144,139204,1,0
464,48,139936,6,0,B|502:159|480:290|288:272,1,345
288,192,140911,1,0
288,192,141155,1,0
400,80,141643,1,0
400,80,141887,1,0
336,32,142131,5,0
256,32,142375,1,0
176,32,142619,2,0,B|-7:33|-24:226|80:304,1,345
256,240,143594,5,0
160,240,143838,2,0,B|133:395|386:396|352:224,1,345
352,144,144814,2,0,B|379:-11|126:-12|160:160,1,345
160,240,145789,2,0,B|133:395|386:396|352:224,1,345
256,240,146765,1,0
256,48,147496,5,0
256,48,147740,1,0
432,128,148228,1,0
432,128,148472,1,0
336,304,148960,1,0
160,224,149448,1,0
64,240,151155,5,0
128,304,151399,1,0
400,304,152131,1,0
464,240,152375,1,0
464,96,152862,1,0
336,144,153350,1,0
272,80,153594,5,0
208,144,153838,1,0
144,80,154082,1,0
80,144,154326,1,0
144,208,154570,1,0
80,272,154814,1,0
16,208,155057,1,0
16,80,155545,1,0
80,16,155789,1,0
144,80,156033,1,0
208,144,156277,1,0
272,80,156521,1,0
336,144,156765,1,0
400,208,157008,1,0
256,192,157497,12,0,161399
