osu file format v5

[General]
AudioFilename: 13 Let's Dance.ogg
AudioLeadIn: 3000
PreviewTime: -1
Countdown: 0
SampleSet: Normal
StackLeniency: 0.7
Mode: 0
LetterboxInBreaks: 0

[Metadata]
Title:Let's Dance
Artist:Delaney Wolff
Creator:m980
Version:Cruisin'
Source:
Tags:

[Difficulty]
HPDrainRate:6
CircleSize:3
OverallDifficulty:6
SliderMultiplier:1.7
SliderTickRate:2

[Events]
//Background and Video events
//Break Periods
2,40092,54890
2,87301,99690
2,116204,131302
//Storyboard Layer 0 (Background)
4,0,1,"bg\cru_badge.png",320,240 F,0,10180,11156,1,1
4,0,1,"bg\cru_badge2.png",320,240 F,0,11156,13107,1,1
//Storyboard Layer 1 (Failing)
//Storyboard Layer 2 (Passing)
//Storyboard Layer 3 (Foreground)
4,3,1,"spr\cru_agents.png",0,360 M,1,7253,8204,0,360,320,240 F,0,7253,9204,1,1
4,3,1,"spr\cru_agentsland.png",320,240 F,0,9204,10180,1,1 M,0,9404,9504,320,-300,320,240
4,3,1,"spr\scn0_cru_car.png",640,240 M,1,5302,6253,640,220,320,240 F,0,5302,7253,1,1
4,3,1,"txt\areyouready.png",320,240 M,0,21399,21599,640,240,320,240 F,0,21399,23839,1,1
4,3,1,"bg\cru_ready.png",320,240 M,0,21399,21599,0,240,320,240 F,0,21399,23839,1,1
4,3,0,"spr\cd_1.png",217,0 F,0,23351,23839,1,1
4,3,0,"spr\cd_3.png",0,0 F,0,22375,23839,1,1
4,3,0,"spr\cd_2.png",426,0 F,0,22863,23839,1,1
//Storyboard Sound Samples
5,10180,2,"sfx_eba\hey.wav"
5,21399,3,"sfx\cd_ready.wav"
5,22375,3,"sfx\cd_3.wav"
5,22863,3,"sfx\cd_2.wav"
5,23351,3,"sfx\cd_1.wav"
5,23839,3,"sfx\cd_go.wav"
5,36034,2,"sfx_eba\yeah.wav"
5,37985,2,"sfx_eba\hey.wav"
5,70668,2,"sfx_eba\woo.wav"
5,82375,2,"sfx_eba\woo.wav"
5,84814,2,"sfx_eba\hey.wav"
5,85302,2,"sfx_eba\yahoo.wav"
5,105790,2,"sfx_eba\yeah.wav"
5,108229,2,"sfx_eba\hey.wav"
5,114082,2,"sfx_eba\yeah.wav"
5,116034,2,"sfx_eba\woo.wav"
5,147253,2,"sfx_eba\hey.wav"
5,153351,2,"sfx_eba\woo.wav"
5,156521,2,"sfx_eba\hey.wav"
5,161399,2,"sfx_eba\yahoo.wav"
5,11156,0,"sfx\mov_missionm.wav"
//Background Colour Transformations
3,100,163,162,255
3,100,163,162,255
3,100,163,162,255
3,100,163,162,255
3,100,163,162,255
3,100,163,162,255

[TimingPoints]
1400,487.80487804878,4,1,1,100,1

[HitObjects]
256,64,24326,5,0
256,64,24814,1,0
256,320,25790,1,0
256,320,26034,1,0
256,320,26278,1,0
128,48,26765,5,0
64,112,27009,1,0
64,272,27497,1,0
128,336,27741,1,0
192,224,28229,1,0
256,160,28473,1,0
144,144,28960,6,0,B|224:48|356:95|400:192,1,255
496,352,30912,5,0
448,288,31156,1,0
400,352,31399,1,0
352,288,31643,1,0
304,352,31887,1,0
256,288,32131,5,0
256,288,32619,1,0
256,64,33595,1,0
256,64,33839,1,0
256,64,34082,1,0
336,256,34570,2,0,B|322:383|174:364|176:240,2,255
256,64,36521,5,0
336,192,37009,1,0
256,320,37497,1,0
176,192,37985,1,0
16,336,38717,5,0
64,272,38960,1,0
112,336,39204,1,0
160,272,39448,1,0
208,336,39692,1,0
256,272,39936,1,0
48,224,56034,6,0,B|28:102|120:37|184:32,1,255
256,32,57009,1,0
256,112,57253,1,0
216,336,57741,1,0
296,336,57985,1,0
176,224,59692,5,0
176,144,59936,2,0,B|179:27|337:32|336:160,1,255
256,144,60912,1,0
256,144,61156,1,0
176,240,61887,2,0,B|171:362|353:358|336:208,1,255
256,240,62863,1,0
256,240,63107,1,0
464,224,63839,6,0,B|484:102|392:37|328:32,1,255
256,32,64814,1,0
256,112,65058,1,0
296,336,65546,1,0
216,336,65790,1,0
256,208,67497,5,0
160,208,67741,2,0,B|146:332|255:343|381:342|352:176,3,340
256,304,71399,5,0
256,304,71643,1,0
256,112,72131,1,0
256,32,72375,1,0
144,176,72863,1,0
368,176,73351,1,4
64,240,75058,5,0
64,320,75302,1,0
432,320,76034,1,0
432,240,76278,1,0
256,240,76765,1,0
256,120,77253,1,0
160,144,77497,2,0,B|144:34|258:-16|366:21|352:152,5,340
464,192,83351,5,0
320,288,83839,1,0
176,192,84326,1,0
48,288,84814,1,0
256,32,85302,1,0
160,80,100424,5,0
352,80,100912,1,0
256,224,101887,1,0
296,152,102131,1,0
216,152,102375,1,0
176,224,102619,6,0,B|162:339|233:387|372:370|336:208,2,340
176,72,105058,5,0
232,16,105302,1,0
288,72,105546,1,0
232,128,105790,1,0
288,184,106034,1,0
344,128,106278,1,0
400,184,106521,1,0
512,72,107009,1,0
456,16,107253,1,0
400,72,107497,1,0
456,128,107741,1,0
400,184,107985,1,0
344,128,108229,1,0
160,128,108717,1,0
24,288,109692,5,0
24,288,109936,1,0
24,288,110180,1,0
104,288,110424,1,0
184,288,110668,2,0,B|181:389|347:390|352:272,2,255
176,72,112863,5,0
232,16,113107,1,0
288,72,113351,1,0
232,128,113595,1,0
288,184,113839,1,0
344,128,114083,1,0
400,184,114326,1,0
512,72,114814,1,0
456,16,115058,1,0
400,72,115302,1,0
456,128,115546,1,0
400,184,115790,1,0
344,128,116034,1,0
464,224,132131,6,0,B|484:102|392:37|328:32,1,255
256,32,133106,1,0
256,32,133350,1,0
256,224,133838,1,0
256,224,134082,1,0
336,224,135789,5,0
336,144,136033,2,0,B|341:39|162:33|176:160,1,255
256,144,137009,1,0
256,144,137253,1,0
336,240,137985,2,0,B|341:345|162:351|176:224,1,255
256,240,138960,1,0
256,240,139204,1,0
48,224,139936,6,0,B|28:102|120:37|184:32,1,255
256,32,140911,1,0
256,32,141155,1,0
256,240,141643,1,0
256,240,141887,1,0
88,176,143594,5,0
168,176,143838,2,0,B|360:176,7,170
368,104,147496,5,0
368,104,147740,1,0
512,160,148228,1,0
456,216,148472,1,0
352,272,148960,1,0
256,208,149448,1,0
352,192,151155,5,0
352,112,151399,2,0,B|352:16|158:8|176:128,1,255
176,192,152375,1,0
256,256,152862,1,0
336,192,153350,1,0
384,264,153594,6,0,B|344:371|259:368|140:363|120:232,3,340
256,192,157497,12,0,161399
