osu file format v9

[General]
AudioFilename: 06 Luftbahn.mp3
AudioLeadIn: 0
PreviewTime: -1
Countdown: 0
SampleSet: Normal
StackLeniency: 0.7
Mode: 0
LetterboxInBreaks: 1

[Editor]
Bookmarks: 59263,86926,117355,133030,164381,193888,208641,223394,238148
DistanceSpacing: 1.1
BeatDivisor: 4
GridSize: 8

[Metadata]
Title:Luftbahn
Artist:Deichkind
Creator:-Xero-
Version:Hard
Source:
Tags:Arbeit Nervt

[Difficulty]
HPDrainRate:7
CircleSize:4
OverallDifficulty:6
ApproachRate:8
SliderMultiplier:1.4
SliderTickRate:1

[Events]
//Background and Video events
0,0,"cloud_city_by_headvoid.png"
//Break Periods
//Storyboard Layer 0 (Background)
//Storyboard Layer 1 (Fail)
//Storyboard Layer 2 (Pass)
//Storyboard Layer 3 (Foreground)
//Storyboard Sound Samples
//Background Colour Transformations
3,100,163,162,255

[TimingPoints]
27913,461.538461538462,4,1,0,60,1,0
84913,-100,4,1,0,5,0,0
88143,-100,4,1,0,60,0,0

[HitObjects]
64,144,27913,1,0
184,48,28374,1,0
336,48,28836,1,0
456,144,29297,1,0
304,128,29759,6,0,B|312:224|400:256,1,140
216,248,30682,2,0,B|208:152|120:120,1,140,0|0
128,224,31374,1,0
216,248,31605,2,0,B|224:344|312:376,1,140,0|0
304,272,32297,5,0
384,272,32528,1,0
304,192,32759,1,0
384,192,32989,1,0
304,112,33220,1,0
384,112,33451,1,0
216,136,33913,6,0,B|224:40|312:8,1,140,0|0
304,112,34605,1,0
384,112,34836,2,0,B|376:208|288:240,1,140,0|0
360,280,35759,5,0
416,224,35989,1,0
416,144,36220,1,0
360,88,36451,1,0
320,184,36682,2,0,B|232:152|168:128,2,140
112,80,38066,1,0
80,152,38297,1,0
144,200,38528,2,0,B|232:232|296:256,2,140
256,96,39913,5,0
328,64,40143,1,0
408,64,40374,2,0,B|456:208,1,140
352,344,41066,1,0
352,344,41297,2,0,B|304:200,1,140
120,112,41989,1,0
120,112,42220,2,0,B|168:256,2,140
256,48,43605,5,0
256,336,44066,1,0
256,192,44528,6,0,B|304:272|400:216|400:216,1,140
328,152,45220,1,0
256,192,45451,2,0,B|208:112|112:168|112:168,1,140
184,232,46143,1,0
184,232,46374,2,0,B|232:312|328:256|328:256,1,140
440,192,47297,5,0
416,192,47528,1,0
392,192,47759,1,0
368,192,47989,1,0
280,192,48220,2,0,B|168:96,1,140
174,101,48913,1,0
120,200,49143,2,0,B|232:296,1,140
296,328,49836,1,0
376,328,50066,1,0
152,88,50528,5,0
240,88,50759,1,0
240,176,50989,1,0
152,176,51220,1,0
152,88,51451,1,0
240,176,51682,2,0,B|240:256|336:176|336:256,2,140
152,176,52836,1,0
152,88,53066,1,0
240,88,53297,2,0,B|240:8|336:88|336:8,2,140
376,96,54682,5,0
296,88,54913,1,0
216,80,55143,2,0,B|264:224,1,140
448,328,55836,1,0
448,328,56066,2,0,B|400:184,1,140
216,80,56759,1,0
216,80,56989,2,0,B|264:224,2,140
256,192,58028,12,0,59297
64,72,60220,5,0
128,120,60451,1,0
192,72,60682,1,0
256,32,60913,1,0
256,32,61143,2,0,B|288:104|256:176,1,140
152,280,62066,1,0
128,304,62528,1,0
256,32,62989,6,0,B|224:104|256:176,1,140
328,144,63682,1,0
376,80,63913,1,0
440,128,64143,1,0
392,192,64374,1,0
328,144,64605,1,0
272,88,64836,2,0,B|128:88,1,140,0|0
131,87,65528,5,0
64,128,65759,1,0
64,208,65989,1,0
136,240,66220,1,0
208,208,66451,1,0
288,208,66682,1,0
440,128,67143,5,0
440,208,67374,1,0
72,296,68066,1,0
72,216,68297,1,0
72,136,68528,2,0,B|80:40|168:8,1,140,0|0
72,216,69451,2,0,B|80:312|168:344,1,140,0|0
168,176,70374,5,0
240,144,70605,2,0,B|304:112,1,70
392,232,71066,2,0,B|328:264,1,70
392,144,71528,2,0,B|456:112,1,70
240,232,71989,2,0,B|176:264,1,70
64,72,72682,6,0,B|64:152|160:72|160:152,1,140
96,184,73374,1,0
160,232,73605,1,0
96,280,73836,1,0
160,328,74066,1,0
448,72,74989,5,0
384,120,75220,1,0
320,72,75451,1,0
256,32,75682,1,0
256,32,75912,2,0,B|224:104|256:176,1,140
360,280,76835,1,0
384,304,77297,1,0
408,336,77759,5,0
408,336,77989,1,0
456,272,78220,1,0
424,200,78451,2,0,B|344:176,1,70
232,216,78913,2,0,B|312:240,1,70
104,336,79605,1,0
56,272,79836,1,0
88,200,80066,1,0
88,200,80297,2,0,B|168:176,1,70
280,216,80759,2,0,B|200:240,1,70
288,64,81451,5,0
288,64,81913,1,0
355,105,82143,1,0
355,185,82373,1,0
283,217,82604,1,0
211,185,82835,1,0
131,185,83066,2,0,B|48:184,1,70
256,192,85143,12,0,87913
208,128,88836,6,0,B|200:224|112:256,1,140
296,248,89759,2,0,B|304:152|392:120,1,140,0|0
384,224,90451,1,0
296,248,90682,2,0,B|288:344|200:376,1,140,0|0
208,272,91374,5,0
128,272,91605,1,0
208,192,91836,1,0
128,192,92066,1,0
208,112,92297,1,0
128,112,92528,1,0
296,136,92990,6,0,B|288:40|200:8,1,140,0|0
208,112,93682,1,0
128,112,93913,2,0,B|136:208|224:240,1,140,0|0
336,272,94836,5,0
336,192,95066,1,0
256,192,95297,1,0
416,192,95528,1,0
336,192,95759,2,0,B|336:40,2,140
256,192,97143,1,0
96,192,97374,1,0
176,192,97605,2,0,B|176:344,2,140
80,72,98989,6,0,B|224:64,1,140
280,160,99682,1,0
264,192,99913,2,0,B|120:200,1,140,0|0
168,304,100605,1,0
184,336,100836,2,0,B|328:344,1,140,0|0
464,280,101759,2,0,B|464:136,3,140
