osu file format v5

[General]
AudioFilename: 07 Flower.mp3
AudioLeadIn: 0
PreviewTime: -1
Countdown: 1
SampleSet: Normal
StackLeniency: 0.7
Mode: 0
LetterboxInBreaks: 1

[Metadata]
Title:Flower
Artist:Deerhoof
Creator:Hex
Version:Normal
Source:
Tags:round 2 internet battle

[Difficulty]
HPDrainRate:5
CircleSize:5
OverallDifficulty:5
SliderMultiplier:1.4
SliderTickRate:1

[Events]
//Background and Video events
0,0,"015.jpg"
//Break Periods
//Storyboard Layer 0 (Background)
//Storyboard Layer 1 (Failing)
//Storyboard Layer 2 (Passing)
//Storyboard Layer 3 (Foreground)
//Storyboard Sound Samples
//Background Colour Transformations
3,100,163,162,255

[TimingPoints]
3761,286.420597785349,4,1,0,100,1

[HitObjects]
128,192,3474,1,0
224,192,4620,1,0
320,192,5479,1,0
416,192,6338,1,0
96,256,9775,5,0
192,256,10921,1,0
288,256,11780,1,0
416,256,12640,1,0
96,192,14072,2,0,B|352:192|352:192|352:64|224:96|160:96,9,420
128,128,22951,2,0,B|-32:160,1,140
192,192,25242,1,0
352,128,26388,1,0
128,128,27533,1,0
256,192,28679,1,0
320,128,29538,1,0
192,128,30684,1,0
256,192,32975,12,0,36412
128,160,38704,1,0
224,160,39277,1,0
128,160,39849,1,0
224,160,40422,1,0
128,160,40995,1,0
224,160,41568,1,0
128,160,42141,1,0
224,160,42714,1,0
128,160,43287,1,0
224,160,43859,1,0
160,256,45005,1,0
256,192,46437,5,0
256,96,47010,1,0
160,96,47869,1,0
160,192,49015,1,0
256,192,49874,1,0
320,288,51020,5,0
224,288,51879,1,0
128,288,53025,1,0
128,160,54171,5,0
128,64,55030,1,0
224,64,55889,1,0
160,192,57608,2,0,B|384:128|352:320|192:320,5,280
160,256,61331,2,0,B|288:96|192:64|384:256,9,280
416,256,67346,2,0,B|-32:256,2,420
256,192,69351,12,0,71929
192,160,77371,1,0
256,128,77943,1,0
192,192,78516,1,0
256,192,79089,1,0
256,128,79662,1,0
192,128,80235,1,0
192,192,80808,1,0
256,192,81380,1,0
256,128,81953,1,0
192,128,82813,1,0
192,192,83099,1,0
256,192,83672,1,0
256,128,84245,1,0
256,192,86250,12,0,90882
