osu file format v5

[General]
AudioFilename: 01 Dog on the Sidewalk.mp3
AudioLeadIn: 0
PreviewTime: -1
Countdown: 1
SampleSet: Normal
StackLeniency: 0.7
Mode: 0
LetterboxInBreaks: 1

[Metadata]
Title:Dog on the Sidewalk
Artist:Deerhoof
Creator:Hex
Version:
Source:
Tags:Hello,

[Difficulty]
HPDrainRate:5
CircleSize:5
OverallDifficulty:5
SliderMultiplier:1.4
SliderTickRate:1

[Events]
//Background and Video events
0,0,"0003.jpg"
//Break Periods
//Storyboard Layer 0 (Background)
//Storyboard Layer 1 (Failing)
//Storyboard Layer 2 (Passing)
//Storyboard Layer 3 (Foreground)
//Storyboard Sound Samples
//Background Colour Transformations
3,100,0,0,0

[TimingPoints]
1975,466.810684866421,4,1,0,100,1

[HitObjects]
96,128,1975,1,12
160,128,2908,1,12
224,128,5709,1,12
352,128,7576,1,12
320,128,9443,1,12
320,192,9910,1,12
224,224,10377,1,12
224,128,11311,1,12
160,96,11778,1,12
288,64,12244,1,12
64,64,12711,1,12
352,160,13178,1,12
96,256,13645,1,12
256,96,14112,1,12
96,0,14578,1,12
416,64,15045,1,12
320,320,15512,1,12
96,224,15979,1,12
192,96,16446,1,12
448,224,16912,1,12
224,288,17379,1,12
416,160,17846,1,12
96,96,18313,1,12
384,256,18780,1,12
192,128,21114,5,12
256,128,22514,5,12
320,128,23448,1,12
384,128,24848,5,12
448,128,25782,5,12
320,128,26715,1,12
224,128,27649,1,12
128,128,29050,1,12
128,32,30450,1,12
256,32,31384,1,12
416,128,33251,1,12
64,288,34184,5,12
64,192,35585,1,12
64,96,36518,1,12
192,96,38386,1,12
256,192,39319,1,12
416,320,41187,1,12
416,192,42120,5,12
288,192,43054,1,12
160,192,44454,1,12
64,128,45388,1,12
352,128,47255,1,12
416,128,47722,1,12
192,160,48656,1,12
96,160,49122,1,12
256,160,50990,5,12
352,192,51456,1,12
224,256,51923,1,12
128,192,52390,1,12
416,96,52857,1,12
416,0,53324,1,12
64,32,54257,1,0
96,160,55191,1,0
256,192,55658,1,0
480,96,56125,1,0
384,256,56591,1,0
128,288,57058,1,0
352,160,57992,1,0
96,96,58459,1,0
192,160,58925,1,0
416,288,59392,1,0
160,256,60326,1,0
384,128,60793,1,0
288,256,61259,1,0
192,160,61726,1,0
256,192,64527,12,0,65125
