osu file format v6

[General]
AudioFilename: Deep_Spirit_-_No_Cover_Song__Manox_Club_Mix_.mp3
AudioLeadIn: 0
PreviewTime: 107687
Countdown: 1
SampleSet: Normal
StackLeniency: 0.7
Mode: 0
LetterboxInBreaks: 1

[Editor]
Bookmarks: 67413,134536
DistanceSpacing: 0.800000011920929
BeatDivisor: 4
GridSize: 8

[Metadata]
Title:No Cover Song (Manox Club Mix)
Artist:Deep Spirit
Creator:osuplayer111
Version:Normal
Source:
Tags:

[Difficulty]
HPDrainRate:4
CircleSize:4
OverallDifficulty:4
SliderMultiplier:1.6
SliderTickRate:1

[Events]
//Background and Video events
0,0,"1113089557637.jpg"
//Break Periods
//Storyboard Layer 0 (Background)
//Storyboard Layer 1 (Fail)
//Storyboard Layer 2 (Pass)
//Storyboard Layer 3 (Foreground)
//Storyboard Sound Samples
//Background Colour Transformations
3,100,163,162,255

[TimingPoints]
280,419.58041958042,4,2,0,100,1,0
69720,-200,4,2,0,100,0,0
70769,-100,4,2,0,100,0,0
76433,-200,4,2,0,100,0,0
77062,-100,4,2,0,100,0,0
80418,-200,4,2,0,100,0,0
80838,-100,4,1,1,100,0,0
93423,-200,4,1,1,100,0,0
94157,-100,4,2,0,100,0,0
94367,-100,4,1,1,100,0,0
100870,-100,4,2,0,100,0,0
101080,-100,4,1,1,100,0,0
104331,-100,4,2,0,100,0,0
104436,-100,4,1,0,30,0,0
105170,-100,4,1,0,60,0,0
106009,-100,4,1,1,80,0,0
107687,-100,4,1,0,100,0,0
111043,-200,4,1,0,100,0,0
112721,-100,4,1,0,100,0,0
120273,1678.32167832168,4,1,0,100,1,0
121112,419.58041958042,4,1,0,100,1,0
129921,-200,4,1,0,100,0,0
130341,-100,4,1,0,100,0,0
132858,-100,4,1,0,100,0,1
134536,-100,4,1,1,100,0,0

[Colours]
Combo1 : 0,0,0
Combo2 : 128,0,64
Combo3 : 255,255,128
Combo4 : 255,0,0
Combo5 : 255,255,255

[HitObjects]
424,88,67412,1,4
296,88,67832,2,0,B|296:253,1,160,2|2
184,304,68671,2,0,B|184:140,1,160,2|2
296,88,69720,2,0,B|336:72|352:8|424:104|456:96|504:48,1,200,2|0
480,192,71189,5,2
408,296,71608,2,0,B|368:336|352:336|328:336,1,80,8|0
272,336,72028,1,2
144,336,72447,2,0,B|144:248,1,80
143,257,72867,1,2
32,192,73286,5,8
136,120,73706,1,0
240,192,74126,1,2
368,192,74545,6,0,B|376:240|448:248,1,80,2|0
488,248,74965,1,8
448,128,75384,2,0,B|480:88|432:40,1,80,2|0
384,56,75804,1,2
216,56,76433,2,0,B|168:88|152:16|80:64,1,120,2|0
32,160,77482,5,0
32,288,77902,1,2
144,352,78321,1,8
256,288,78741,1,0
368,352,79161,2,0,B|424:288,1,80,0|2
421,292,79580,1,0
424,160,80000,1,8
320,72,80419,6,0,B|272:72|256:24,1,80,0|4
128,32,81259,1,0
32,120,81678,1,8
208,192,82307,2,0,B|160:192|144:240,1,80
256,304,82937,1,0
320,192,83356,1,8
88,96,84196,6,0,B|144:96|208:144|208:200,1,160,8|0
256,304,85035,1,8
384,304,85454,2,0,B|480:304,2,80,0|0|8
256,304,86293,1,0
128,304,86713,1,8
56,56,87552,6,0,B|112:8|128:96|136:8|216:56,1,160
256,168,88391,2,0,B|196:165|179:200,1,80,8|0
256,296,89021,1,0
320,296,89231,2,0,B|344:208|368:208|400:304,2,160,0|0|8
448,72,90909,5,0
328,32,91328,1,0
208,72,91748,1,8
88,32,92168,1,0
24,144,92587,1,8
88,256,93007,1,8
208,256,93426,2,0,B|264:256|272:304,1,80,8|0
384,352,94266,5,4
496,296,94685,1,8
488,168,95105,2,0,B|424:88,1,80
312,72,95734,2,0,B|264:73|236:30,1,80,0|8
112,40,96363,1,0
48,152,96783,1,8
112,264,97203,1,0
240,264,97622,5,8
368,264,98042,1,0
432,152,98461,1,8
344,40,98881,1,0
216,40,99300,1,8
256,160,99720,1,0
128,184,100140,1,8
128,184,100559,6,0,B|79:258|187:268|156:353,1,160,0|4
272,264,101398,2,0,B|336:264|352:296|336:344|256:336,1,160,8|0
320,152,102447,2,0,B|400:208,1,80,8|0
388,197,102867,2,0,B|460:136,1,80,0|8
384,32,103496,1,8
128,32,104335,5,4
216,120,104755,2,0,B|144:192,1,80,0|8
158,176,105175,1,0
40,224,105594,1,0
40,352,106014,5,8
168,352,106433,1,8
256,264,106853,2,0,B|256:192,2,40,8|0|0
320,264,107273,1,8
448,264,107692,5,4
384,152,108112,1,8
256,120,108531,2,0,B|160:88,1,80
180,96,108951,1,8
96,192,109370,2,0,B|152:232|152:280|80:344,2,160,0|8|4
336,320,111049,6,0,B|336:264|352:264|352:240,1,80,8|0
472,184,111888,2,0,B|416:184,1,40,8|0
400,120,112307,2,0,B|360:104|360:152|320:136,1,80,0|8
256,64,113042,2,0,B|216:8|144:40,1,120
104,88,113566,2,0,B|104:144|200:128|168:224,1,160,8|0
256,312,114405,5,8
384,312,114825,2,0,B|312:304|312:216|312:216|312:176,1,160,0|8
376,184,115454,1,0
376,56,115874,1,0
376,56,116084,2,0,B|208:56,2,160,8|0|8
160,192,117762,5,8
32,192,118182,1,0
144,256,118601,1,8
16,256,119021,1,0
128,320,119440,1,8
0,320,119860,1,0
128,320,120273,6,0,B|168:344|208:312,1,80,8|4
256,200,121531,1,0
360,120,121951,2,0,B|448:120,1,80,8|0
480,168,122370,2,0,B|480:272,1,80
480,312,122790,1,8
352,312,123209,1,0
256,232,123629,1,8
48,80,124468,6,0,B|152:80,1,80,8|0
160,24,124888,2,0,B|208:24|232:72,1,80,0|0
288,80,125307,1,8
400,128,125727,1,0
400,256,126146,2,0,B|312:256|296:312,2,120,8|0|0
464,256,126986,1,8
216,328,127825,5,4
88,304,128244,2,0,B|48:216,1,80,8|0
104,192,128664,2,0,B|192:192,1,80
256,88,129293,1,0
256,88,129503,1,8
408,192,129923,2,0,B|384:160|352:232|312:168,1,80,0|8
96,96,131181,6,0,B|96:184,1,80,8|0
160,184,131601,2,0,B|248:184,1,80
240,248,132021,2,0,B|240:336,1,80,8|0
304,328,132440,2,0,B|416:328,1,80
256,192,132860,12,4,134538
