osu file format v6

[General]
AudioFilename: Deep_Spirit_-_No_Cover_Song__Manox_Club_Mix_.mp3
AudioLeadIn: 0
PreviewTime: 107687
Countdown: 1
SampleSet: Normal
StackLeniency: 0.7
Mode: 0
LetterboxInBreaks: 1

[Editor]
Bookmarks: 67413,134536,188245,215095,251582,282218,288930
DistanceSpacing: 1.39999997615814
BeatDivisor: 4
GridSize: 8

[Metadata]
Title:No Cover Song (Manox Club Mix)
Artist:Deep Spirit
Creator:osuplayer111
Version:Insane
Source:
Tags:

[Difficulty]
HPDrainRate:7
CircleSize:5
OverallDifficulty:6
SliderMultiplier:1.6
SliderTickRate:1

[Events]
//Background and Video events
0,0,"1113089557637.jpg"
//Break Periods
2,188435,193898
2,201861,214038
//Storyboard Layer 0 (Background)
//Storyboard Layer 1 (Fail)
//Storyboard Layer 2 (Pass)
//Storyboard Layer 3 (Foreground)
//Storyboard Sound Samples
//Background Colour Transformations
3,100,163,162,255

[TimingPoints]
280,419.58041958042,4,2,0,100,1,0
69720,-200,4,2,0,100,0,0
70769,-100,4,2,0,100,0,0
76433,-200,4,2,0,100,0,0
77062,-100,4,2,0,100,0,0
80418,-200,4,2,0,100,0,0
80838,-100,4,1,1,100,0,0
93423,-200,4,1,1,100,0,0
94157,-100,4,2,0,100,0,0
94367,-100,4,1,1,100,0,0
100870,-100,4,2,0,100,0,0
101080,-100,4,1,1,100,0,0
104331,-100,4,2,0,100,0,0
104436,-100,4,1,0,30,0,0
105170,-100,4,1,0,60,0,0
106009,-100,4,1,1,80,0,0
107687,-100,4,1,0,100,0,0
111043,-200,4,1,0,100,0,0
112721,-100,4,1,0,100,0,0
120273,1678.32167832168,4,1,0,100,1,0
121112,419.58041958042,4,1,0,100,1,0
129921,-200,4,1,0,100,0,0
130341,-100,4,1,0,100,0,0
134536,-100,4,1,1,100,0,0
135795,-200,4,1,1,100,0,0
136214,-100,4,2,0,100,0,0
137683,-100,4,1,1,100,0,0
139570,-100,4,2,0,100,0,0
140829,-200,4,2,0,100,0,0
141249,-100,4,1,0,100,0,0
143661,-200,4,1,0,100,0,0
144395,-100,4,1,0,100,0,0
163798,-200,4,1,0,100,0,0
164532,-100,4,1,0,100,0,0
170510,-200,4,1,0,100,0,0
171244,-100,4,1,0,100,0,0
183935,-200,4,1,0,100,0,0
184669,-100,4,1,0,100,0,0
186242,-100,4,1,0,60,0,0
187606,1678.32167832168,4,1,0,60,1,0
188235,419.58041958042,4,1,0,100,1,0
214245,-100,4,2,0,100,0,0
217391,-200,4,2,0,100,0,0
218440,-100,4,2,0,100,0,0
227670,1678.32167832168,4,2,0,100,1,0
228520,419.58041958042,4,1,1,100,1,0
241839,-100,4,2,0,100,0,0
242049,-100,4,1,1,100,0,0
248552,-100,4,2,0,100,0,0
248761,-100,4,1,1,100,0,0
249810,-100,4,1,1,60,0,0
250125,-100,4,1,0,30,0,0
251174,-100,4,1,0,60,0,0
253481,-100,4,1,1,100,0,0
255579,-100,4,1,0,100,0,0
267955,1678.32167832168,4,1,0,100,1,0
268794,419.58041958042,4,1,0,100,1,0
287252,-100,4,1,0,100,0,1
288931,-100,4,1,0,100,0,0

[Colours]
Combo1 : 0,0,0
Combo2 : 128,0,64
Combo3 : 255,255,128
Combo4 : 255,0,0
Combo5 : 255,255,255

[HitObjects]
256,192,67412,1,4
32,32,67832,2,0,B|32:128,1,80,2|0
32,192,68252,1,2
488,352,68671,2,0,B|488:256,1,80,2|0
488,192,69091,1,2
32,352,69720,2,0,B|72:336|88:272|160:368|192:360|240:312,1,200,0|2
224,248,70979,5,0
176,192,71189,1,2
160,176,71293,1,0
144,160,71398,1,0
87,92,71608,6,0,B|13:12,1,80,8|0
424,89,72028,2,0,B|499:11,1,80,2|0
92,303,72447,2,0,B|20:367,1,80
420,303,72867,2,0,B|484:359,1,80,2|0
256,184,73286,5,8
256,184,73496,1,0
256,184,73706,1,2
256,184,73916,1,0
256,184,74126,1,2
480,32,74545,6,0,B|416:64|496:88,1,80,2|0
472,192,74965,1,8
32,352,75384,2,0,B|96:320|16:296,1,80,2|0
40,192,75804,1,2
472,336,76433,2,0,B|424:368|408:296|336:344,1,120,2|0
280,336,77273,6,0,B|280:248,1,80,0|0
208,216,77692,1,2
280,184,77902,1,0
208,144,78112,1,2
280,112,78321,1,8
208,72,78531,1,2
280,40,78741,1,0
360,40,78951,1,2
400,104,79161,5,0
400,120,79266,1,0
400,136,79370,1,2
400,152,79475,1,0
400,168,79580,1,0
400,184,79685,1,0
400,200,79790,1,2
464,248,80000,2,0,B|384:312,1,80,8|0
402,298,80419,6,0,B|354:298|338:250,1,80,0|0
176,256,81259,1,0
256,120,81678,1,8
104,40,82307,2,0,B|56:40|40:88,1,80
160,192,82937,1,0
40,304,83356,1,8
352,40,84196,6,0,B|408:40|472:88|472:144,1,160,8|0
328,192,85035,1,8
256,336,85454,2,0,B|344:336,2,80,0|0|8
184,192,86293,1,0
256,48,86713,1,8
256,48,87552,6,0,B|200:96|184:8|176:96|96:48,1,160
32,192,88391,1,8
32,192,88601,1,0
192,208,89021,1,0
256,168,89231,2,0,B|344:192|344:216|248:248,2,160,0|0|8
480,192,90909,5,0
256,32,91328,1,0
256,352,91748,1,8
32,192,92168,1,0
112,192,92377,5,0
128,192,92482,1,0
144,192,92587,1,8
144,112,92797,1,0
152,96,92902,1,0
168,88,93007,1,8
184,88,93112,1,0
200,88,93217,1,0
256,40,93426,2,0,B|312:40|320:88,1,80,8|8
318,81,94056,1,0
318,81,94266,5,4
320,320,94685,1,8
32,232,95105,2,0,B|32:144,1,80
256,192,95734,1,0
256,192,95944,1,0
376,192,96363,1,8
320,80,96783,1,0
320,320,97203,1,8
128,192,97622,5,0
128,32,98042,1,8
128,360,98461,1,0
256,192,98881,1,8
128,32,99300,1,0
360,360,99720,1,8
488,184,100140,1,0
488,184,100559,2,0,B|440:184|440:200|408:200,1,80,8|0
328,200,100979,5,4
216,88,101398,2,0,B|216:24|248:8|296:24|288:104,1,160,8|0
88,192,102447,2,0,B|24:256,1,80,8|0
88,192,102867,2,0,B|152:264,1,80,0|8
256,352,103496,1,8
256,272,103706,5,0
256,192,103916,1,8
256,176,104021,1,0
256,160,104126,1,0
256,144,104231,1,0
256,128,104335,5,4
208,64,104545,1,0
136,24,104755,1,8
64,56,104965,1,0
136,96,105175,1,8
64,128,105384,1,0
136,168,105594,1,8
64,200,105804,1,0
136,240,106014,5,8
136,256,106119,1,0
136,272,106224,1,0
144,288,106328,1,0
152,304,106433,1,8
168,312,106538,1,0
184,312,106643,1,0
200,312,106748,1,0
216,312,106853,1,8
232,312,106958,1,0
248,312,107063,1,0
264,312,107168,1,0
280,312,107273,1,8
296,304,107377,1,0
312,296,107482,1,0
328,288,107587,1,0
336,272,107692,5,4
256,24,108112,1,8
256,192,108531,2,0,B|344:192,1,80
368,120,108951,1,8
288,120,109161,1,0
208,120,109370,2,0,B|168:176|120:176|56:104,2,160,0|8|4
424,344,111049,6,0,B|424:288|440:288|440:264,1,80,8|0
488,192,111678,1,0
464,96,111888,2,0,B|408:96,1,40,8|0
352,40,112307,2,0,B|312:24|312:72|272:56,1,80,0|8
160,56,113042,1,0
64,128,113356,1,0
112,192,113566,2,0,B|112:248|208:232|176:328,1,160,8|0
440,336,114405,5,8
440,336,114825,2,0,B|368:328|368:240|368:240|368:200,1,160,0|8
288,192,115454,1,0
288,192,115874,1,0
240,128,116084,2,0,B|72:128,2,160,8|0|8
480,32,117762,5,8
320,32,118182,1,0
320,192,118601,1,8
160,192,119021,1,0
72,320,119440,1,8
160,192,119860,1,0
320,192,120273,6,0,B|320:240|376:248,1,80,8|4
456,112,121531,1,0
296,88,121951,2,0,B|208:88,1,80,8|0
152,40,122370,2,0,B|56:40,1,80
32,112,122790,1,8
168,192,123209,1,0
32,280,123629,1,8
168,192,124049,6,0,B|168:240,3,40
168,192,124468,5,8
240,232,124678,1,0
320,232,124888,2,0,B|368:232|392:280,1,80,8|0
328,328,125307,1,0
312,328,125412,1,0
296,328,125517,1,0
216,312,125727,1,8
200,312,125832,1,0
184,312,125937,1,0
104,328,126146,2,0,B|104:240|48:224,2,120,8|0|0
56,226,126986,1,8
256,40,127405,5,0
256,40,127615,1,0
256,40,127825,5,4
256,40,128035,1,0
336,56,128244,2,0,B|336:144,1,80,8|0
392,192,128664,2,0,B|480:192,1,80
40,192,129293,1,0
40,192,129503,1,8
40,192,129608,1,0
40,192,129713,1,0
136,192,129923,2,0,B|160:144|96:136|136:96,1,80,0|8
328,32,131181,6,0,B|328:120,1,80,8|0
384,192,131601,2,0,B|384:104,1,80
440,32,132021,2,0,B|440:120,1,80,8|0
496,192,132440,2,0,B|496:104,1,80
416,192,132860,1,8
400,208,132965,1,0
384,192,133070,1,0
368,208,133174,1,0
352,192,133279,1,0
336,208,133384,1,0
320,192,133489,1,0
304,208,133594,1,0
288,192,133699,1,8
272,208,133804,1,0
256,192,133909,1,0
240,208,134014,1,0
224,192,134118,1,0
208,208,134223,1,0
192,192,134328,1,0
128,136,134538,5,4
56,168,134748,1,0
128,200,134958,1,8
56,232,135167,1,0
128,264,135377,1,0
56,296,135587,1,0
128,328,135797,2,0,B|184:328|192:280,1,80,8|2
328,288,136426,5,0
368,360,136636,1,2
400,288,136846,1,0
440,360,137056,1,2
472,288,137265,1,0
472,208,137475,1,2
384,56,137685,5,0
384,56,137895,2,0,B|384:144,1,80,8|0
320,184,138314,1,0
256,128,138524,2,0,B|168:128,1,80,0|8
112,184,138944,1,0
112,184,139049,1,8
32,272,139363,1,0
112,352,139573,6,0,B|216:352,1,80,2|0
192,272,139993,2,0,B|288:272,1,80,2|0
304,344,140412,1,2
336,272,140622,1,0
376,344,140832,2,0,B|464:344,1,80,2|0
472,192,141461,5,0
424,128,141671,1,0
376,64,141881,2,0,B|304:112,1,80
128,72,142300,2,0,B|216:112,1,80
256,352,142720,2,0,B|256:264,1,80
256,176,143139,1,0
256,176,143349,1,4
176,176,143559,1,0
176,176,143664,2,0,B|128:136|104:224|40:192,1,140
48,194,144503,5,0
46,195,144608,1,4
32,272,144818,1,0
56,344,145028,1,0
88,272,145237,1,0
112,344,145447,1,0
144,272,145657,1,0
144,272,145762,1,0
456,344,146077,6,0,B|360:344,1,80
416,272,146496,2,0,B|416:184,1,80
496,192,146916,1,0
496,192,147021,1,4
336,192,147335,1,0
336,192,147440,1,4
256,32,147755,5,0
256,32,147860,1,0
256,32,147965,1,4
256,32,148174,2,0,B|160:32,1,80
175,33,148489,1,0
176,33,148594,1,0
96,56,148804,1,0
24,80,149014,1,0
96,112,149223,1,0
96,192,149433,1,0
24,224,149643,5,0
32,240,149748,1,0
40,256,149853,1,0
48,272,149958,1,0
56,288,150063,1,0
128,328,150272,1,0
128,328,150482,1,0
128,328,150692,1,0
128,328,150902,1,0
128,328,151112,1,0
200,288,151321,5,0
208,272,151426,1,0
216,256,151531,1,0
280,208,151741,1,0
288,224,151846,1,0
296,240,151951,1,0
360,288,152160,5,0
368,272,152265,1,0
376,256,152370,1,0
440,208,152580,1,0
448,224,152685,1,0
456,240,152790,1,0
464,32,153000,6,0,B|464:120,1,80
463,32,153419,2,0,B|351:32,1,80
368,112,153839,1,0
352,96,153944,1,0
336,88,154049,1,0
256,96,154258,2,0,B|192:152,1,80
136,96,154678,5,4
120,104,154783,1,0
104,112,154888,1,0
88,120,154993,1,0
72,128,155098,1,0
56,136,155202,1,0
48,144,155307,1,0
40,160,155412,1,0
40,176,155517,1,0
48,192,155622,1,0
64,208,155727,1,0
80,224,155832,1,0
96,232,155937,1,0
112,232,156042,1,0
128,232,156146,1,0
160,296,156356,5,0
184,296,156461,1,0
208,296,156566,1,0
288,360,156776,1,0
264,360,156881,1,0
240,360,156986,1,0
280,296,157195,5,0
304,296,157300,1,0
328,296,157405,1,0
168,360,157615,1,0
144,360,157720,1,0
120,360,157825,1,0
48,320,158035,5,4
48,304,158139,1,0
48,288,158244,1,0
48,272,158349,1,0
48,256,158454,1,0
48,240,158559,1,0
48,224,158664,1,0
48,208,158769,1,0
48,192,158874,1,0
56,176,158979,1,0
72,160,159084,1,0
88,152,159188,1,0
104,152,159293,1,0
120,152,159398,1,0
136,144,159503,1,0
208,104,159713,5,0
232,56,159853,1,0
256,104,159993,1,0
288,56,160132,1,0
312,104,160272,1,0
344,56,160412,1,0
368,104,160552,2,0,B|368:184,6,53.3333333333333,0|0|0|0|0|0|8
448,104,161601,5,0
488,176,161811,1,0
448,248,162021,1,0
488,320,162230,1,8
424,368,162440,1,0
352,320,162650,2,0,B|256:320,2,80,0|0|8
312,248,163279,1,0
256,192,163489,1,0
176,192,163699,1,0
176,192,163804,2,0,B|152:144|240:128|224:48,1,140,8|0
227,68,164643,5,0
227,67,164748,1,8
304,48,164958,2,0,B|328:16|344:16|376:64,1,80
432,120,165377,2,0,B|408:152|392:152|360:104,1,80,0|8
312,176,165797,1,0
312,176,165902,1,0
384,272,166216,5,0
368,280,166321,1,0
352,288,166426,1,8
280,320,166636,2,0,B|216:240,1,80
152,256,167056,1,0
152,256,167160,1,8
32,256,167475,1,0
32,256,167580,1,0
88,96,167895,5,0
88,80,168000,1,0
88,64,168105,1,8
256,24,168314,6,0,B|256:112,1,80
256,192,168734,1,0
24,192,168944,2,0,B|120:192,1,80,8|0
256,192,169363,1,0
488,192,169573,2,0,B|400:192,1,80,0|8
256,368,169993,2,0,B|256:280,1,80,0|8
256,192,170412,1,0
256,192,170517,2,0,B|200:192|184:144|184:88,1,140,8|0
184,91,171356,5,0
185,90,171461,1,8
112,48,171671,2,0,B|72:40|32:64,1,80
32,144,172091,1,0
112,144,172300,1,8
32,144,172510,1,0
32,144,172615,1,8
72,256,172930,5,0
88,264,173035,1,0
104,272,173139,1,8
184,280,173349,2,0,B|184:336|232:344,1,80
296,320,173769,1,0
296,320,173874,1,8
416,336,174188,1,0
416,336,174293,1,0
472,224,174608,5,0
472,208,174713,1,0
472,192,174818,1,4
448,112,175028,1,0
416,40,175237,1,8
392,112,175447,1,0
360,40,175657,1,0
336,112,175867,1,0
304,40,176077,1,8
280,112,176286,1,0
248,40,176496,5,0
224,112,176706,1,0
192,40,176916,1,8
168,112,177125,1,0
152,112,177230,1,0
256,352,177545,5,8
256,336,177650,1,0
256,320,177755,1,8
256,240,177965,5,0
256,224,178070,1,0
256,208,178174,1,0
216,136,178384,2,0,B|304:136,1,80,0|8
344,72,178804,1,0
360,72,178909,1,0
376,72,179014,1,0
448,112,179223,1,0
464,112,179328,1,8
464,232,179643,5,0
432,304,179853,1,0
352,304,180063,1,0
312,232,180272,1,8
280,304,180482,1,0
280,304,180587,1,0
184,232,180902,1,0
184,232,181007,1,8
88,304,181321,5,0
72,304,181426,1,0
56,304,181531,1,0
32,224,181741,1,0
32,208,181846,1,0
32,192,181951,1,8
80,128,182160,1,0
96,120,182265,1,0
112,112,182370,1,0
168,56,182580,1,0
184,56,182685,1,0
200,56,182790,1,8
256,112,183000,1,0
312,56,183209,5,0
328,56,183314,1,0
344,56,183419,1,0
400,112,183629,1,8
464,160,183839,1,0
464,160,183944,2,0,B|480:208|416:248|456:296,1,140
454,295,184783,5,0
454,295,184888,1,8
392,344,185098,2,0,B|304:312,1,80
256,256,185517,2,0,B|344:208,1,80,0|8
256,176,185937,1,0
256,176,186042,1,0
256,56,186356,5,0
240,56,186461,1,0
224,56,186566,1,8
160,104,186776,1,0
80,120,186986,1,0
136,176,187195,1,0
136,176,187300,1,0
256,256,187606,6,0,B|336:256,1,60,0|4
48,112,194948,5,4
48,256,195367,1,0
144,192,195787,1,0
224,192,195997,1,8
240,192,196102,1,0
320,192,196311,1,8
336,192,196416,1,0
472,344,196626,5,0
472,192,197046,1,0
376,272,197465,1,0
296,272,197675,1,8
280,272,197780,1,0
200,272,197990,1,8
184,272,198095,1,0
40,344,198304,5,0
40,192,198724,1,0
40,48,199144,1,0
120,48,199353,1,8
136,48,199458,1,0
216,48,199668,1,8
232,48,199773,1,0
472,48,199983,5,0
472,192,200402,1,0
320,192,200822,1,2
256,256,201032,1,2
256,256,201137,1,0
200,192,201346,1,2
200,192,201451,1,0
256,128,201661,1,4
256,32,215088,5,4
32,192,215507,1,2
112,192,215717,1,0
192,192,215927,1,8
480,192,216346,1,2
396,192,216556,1,0
312,192,216766,1,2
160,312,217395,2,0,B|240:272|288:344|368:304,1,200,2|0
312,240,218654,5,2
384,216,218864,2,0,B|456:160,1,80
424,88,219283,1,8
344,64,219493,1,0
272,32,219703,2,0,B|184:32,1,80
144,96,220123,1,2
72,136,220332,1,0
48,216,220542,2,0,B|96:288,1,80
152,336,220962,1,8
168,336,221067,1,0
184,336,221172,1,0
256,296,221381,1,2
256,216,221591,1,0
296,144,221801,6,0,B|192:144,2,80,2|0|0
376,144,222430,1,0
408,216,222640,2,0,B|408:312|480:264|488:360,1,160,8|0
408,352,223269,1,0
328,344,223479,1,2
144,184,224109,1,0
144,184,224318,2,0,B|72:184|64:136|64:104|0:120,2,160,8|0|2
224,160,225367,6,0,B|224:256,1,80
296,272,225787,2,0,B|376:344,1,80,0|8
432,304,226207,2,0,B|368:240,1,80
304,208,226626,2,0,B|304:104,1,80,0|2
304,48,227046,1,0
288,48,227151,1,0
272,48,227255,1,2
256,48,227360,1,0
240,48,227465,1,0
152,48,227670,6,0,B|144:88|168:96|168:104|152:104|160:128,1,80,8|0
160,336,228939,1,8
480,160,229359,2,0,B|480:224|432:232,1,80
344,64,229988,1,0
344,64,230198,2,0,B|320:104|272:104|232:64|304:0,2,160,8|0|0
32,192,231876,5,8
256,192,232296,2,0,B|320:200|328:240,2,80,0|0|8
32,192,233135,1,0
88,136,233345,1,0
120,64,233554,2,0,B|32:64,1,80,8|0
120,64,233974,2,0,B|208:64,1,80
256,120,234394,1,8
256,280,234813,5,0
256,120,235233,5,8
400,192,235652,1,0
464,48,236072,1,8
384,64,236282,2,0,B|288:64|280:0|216:56,1,160
152,48,236911,1,8
80,192,237331,1,0
144,336,237750,1,8
432,192,238589,5,0
272,192,239009,1,8
432,192,239429,1,0
272,192,239848,1,8
352,328,240268,1,0
272,328,240478,1,0
192,328,240687,1,0
104,192,241107,5,8
120,192,241212,1,0
136,192,241317,1,8
184,128,241526,1,0
208,48,241736,1,0
288,48,241946,6,0,B|288:224,1,160,4|8
216,352,242785,1,0
152,296,242995,2,0,B|40:296|40:208,1,160
40,128,243624,1,8
176,40,244044,1,0
40,128,244464,1,8
200,136,244883,1,0
328,40,245303,5,8
328,120,245513,1,0
328,120,245617,1,0
328,120,245722,2,0,B|376:120|376:64|432:56|480:88,2,160,0|8|0
256,264,246981,1,8
112,192,247401,1,0
192,192,247610,1,0
152,120,247820,1,8
312,144,248240,2,0,B|328:120|328:120|312:120|312:120|312:112|312:112|328:112|328:112|328:104|328:104|312:104|312:104|312:96|312:96|328:96|328:96|328:88|328:88|312:88|312:88|312:80|312:80|328:80|328:80,1,160,0|4
168,40,249079,5,0
312,144,249499,2,0,B|248:104|200:224|136:152|48:152,1,240,8|0
104,232,250338,1,0
32,256,250547,2,0,B|32:360,1,80,0|8
104,304,250967,1,0
168,344,251177,1,0
232,304,251387,1,0
296,344,251596,1,8
312,336,251701,1,0
328,344,251806,1,0
344,336,251911,1,0
360,344,252016,6,0,B|376:288|304:264|368:184,1,160,8|0
256,104,252645,1,0
112,40,252855,2,0,B|104:96|176:120|112:200,1,160,8|0
24,320,253694,5,8
40,320,253799,1,0
56,320,253904,1,0
120,360,254114,1,8
136,360,254219,1,0
152,360,254324,1,0
224,320,254533,1,8
240,320,254638,1,0
256,320,254743,1,0
312,264,254953,2,0,B|312:216,2,40,8|0|0
368,320,255373,5,4
464,192,255792,1,8
360,64,256212,1,0
288,24,256422,1,0
216,64,256631,1,8
136,64,256841,1,0
176,136,257051,2,0,B|72:136|88:224|24:192,2,160,0|8|0
328,192,258310,5,8
328,192,258520,1,0
328,192,258729,5,0
296,352,259149,2,0,B|200:352,1,80,8|0
144,312,259568,1,0
256,200,259988,1,8
192,56,260408,2,0,B|192:112|136:128|104:136,2,120,0|8|0
256,16,261247,1,0
192,56,262086,6,0,B|144:56|112:88|96:128|104:168,1,160,8|0
256,192,262925,1,8
256,192,263135,1,0
256,192,263554,1,0
256,192,263764,1,8
320,328,264184,2,0,B|368:328|400:296|416:256|408:216,1,160,0|8
88,240,265443,6,0,B|88:288|120:320|160:336|200:328,1,160,8|0
256,192,266282,1,8
256,32,266701,1,0
320,80,266911,1,0
400,80,267121,1,8
464,224,267540,2,0,B|416:224|392:248|384:256|400:256,1,80
320,312,267955,6,0,B|248:312|248:368,1,80,8|4
88,328,269213,1,8
48,176,269633,2,0,B|112:96,1,80
160,64,270052,2,0,B|216:136,1,80,8|0
288,128,270472,1,0
448,128,270891,1,8
288,128,271311,1,0
368,328,272150,5,8
368,328,272570,2,0,B|280:328,1,80
208,328,272989,1,8
208,168,273409,1,0
312,48,273828,2,0,B|184:48,2,120,8|0|0
392,48,274668,1,8
256,352,275507,5,12
256,192,275926,1,0
256,40,276346,1,8
256,192,276975,1,0
256,192,277185,1,8
472,192,277605,1,0
40,192,278024,2,0,B|136:192,1,80,8|0
80,264,278444,2,0,B|80:352,1,80
160,344,278863,6,0,B|248:344,1,80,8|0
320,344,279283,2,0,B|320:240,1,80
344,184,279703,2,0,B|448:184,1,80,8|0
480,240,280122,2,0,B|480:360,1,80
400,336,280542,1,8
384,336,280647,1,0
368,336,280752,1,0
304,288,280961,5,0
296,264,281066,1,0
272,272,281171,1,0
272,248,281276,1,0
240,264,281381,1,8
240,232,281486,1,0
216,248,281591,1,0
216,216,281696,1,0
184,232,281800,1,0
184,208,281905,1,0
208,192,282010,1,0
184,184,282115,1,0
208,160,282220,1,4
112,32,282430,6,0,B|16:32,1,80,0|8
32,144,282849,1,0
32,256,283059,1,0
104,336,283269,1,0
216,336,283479,1,8
328,336,283689,1,0
424,272,283898,5,0
424,272,284003,1,0
424,272,284108,1,0
488,184,284318,2,0,B|392:184,1,80,8|0
376,72,284738,1,0
264,40,284947,1,0
152,72,285157,1,8
64,136,285367,1,0
160,192,285577,5,0
160,192,285682,1,0
160,192,285787,1,0
160,192,285996,2,0,B|248:192,1,80,8|0
336,136,286416,1,0
336,248,286626,1,0
336,136,286835,1,8
336,248,287045,1,0
256,192,287255,12,4,288933
