osu file format v6

[General]
AudioFilename: Deep_Spirit_-_No_Cover_Song__Manox_Club_Mix_.mp3
AudioLeadIn: 0
PreviewTime: 107687
Countdown: 1
SampleSet: Soft
StackLeniency: 0.7
Mode: 0
LetterboxInBreaks: 1

[Editor]
Bookmarks: 67413,134536,188245,215095,251582,282218,288930
DistanceSpacing: 1
BeatDivisor: 4
GridSize: 8

[Metadata]
Title:No Cover Song (Manox Club Mix)
Artist:Deep Spirit
Creator:osuplayer111
Version:Hard
Source:
Tags:

[Difficulty]
HPDrainRate:6
CircleSize:4
OverallDifficulty:5
SliderMultiplier:1.6
SliderTickRate:1

[Events]
//Background and Video events
0,0,"1113089557637.jpg"
//Break Periods
2,188435,193748
2,201861,213888
//Storyboard Layer 0 (Background)
//Storyboard Layer 1 (Fail)
//Storyboard Layer 2 (Pass)
//Storyboard Layer 3 (Foreground)
//Storyboard Sound Samples
//Background Colour Transformations
3,100,163,162,255

[TimingPoints]
280,419.58041958042,4,2,0,100,1,0
69720,-200,4,2,0,100,0,0
70769,-100,4,2,0,100,0,0
76433,-200,4,2,0,100,0,0
77062,-100,4,2,0,100,0,0
80418,-200,4,2,0,100,0,0
80838,-100,4,1,1,100,0,0
93423,-200,4,1,1,100,0,0
94157,-100,4,2,0,100,0,0
94367,-100,4,1,1,100,0,0
100870,-100,4,2,0,100,0,0
101080,-100,4,1,1,100,0,0
104331,-100,4,2,0,100,0,0
104436,-100,4,1,0,30,0,0
105170,-100,4,1,0,60,0,0
106009,-100,4,1,1,80,0,0
107687,-100,4,1,0,100,0,0
111043,-200,4,1,0,100,0,0
112721,-100,4,1,0,100,0,0
120273,1678.32167832168,4,1,0,100,1,0
121112,419.58041958042,4,1,0,100,1,0
129921,-200,4,1,0,100,0,0
130341,-100,4,1,0,100,0,0
134536,-100,4,1,1,100,0,0
135795,-200,4,1,1,100,0,0
136214,-100,4,2,0,100,0,0
137683,-100,4,1,1,100,0,0
139570,-100,4,2,0,100,0,0
140829,-200,4,2,0,100,0,0
141249,-100,4,1,0,100,0,0
143661,-200,4,1,0,100,0,0
144395,-100,4,1,0,100,0,0
163798,-200,4,1,0,100,0,0
164532,-100,4,1,0,100,0,0
170510,-200,4,1,0,100,0,0
171244,-100,4,1,0,100,0,0
183935,-200,4,1,0,100,0,0
184669,-100,4,1,0,100,0,0
186242,-100,4,1,0,60,0,0
187606,1678.32167832168,4,1,0,60,1,0
188235,419.58041958042,4,1,0,100,1,0
214245,-100,4,2,0,100,0,0
217391,-200,4,2,0,100,0,0
218440,-100,4,2,0,100,0,0
227670,1678.32167832168,4,2,0,100,1,0
228520,419.58041958042,4,1,1,100,1,0
241839,-100,4,2,0,100,0,0
242049,-100,4,1,1,100,0,0
248552,-100,4,2,0,100,0,0
248761,-100,4,1,1,100,0,0
250125,-100,4,1,0,30,0,0
251174,-100,4,1,0,60,0,0
253481,-100,4,1,1,100,0,0
255579,-100,4,1,0,100,0,0
267955,1678.32167832168,4,1,0,100,1,0
268794,419.58041958042,4,1,0,100,1,0
287252,-100,4,1,0,100,0,1
288931,-100,4,1,0,100,0,0

[Colours]
Combo1 : 0,0,0
Combo2 : 128,0,64
Combo3 : 255,255,128
Combo4 : 255,0,0
Combo5 : 255,255,255

[HitObjects]
128,32,67412,1,4
288,32,67832,2,0,B|288:128,1,80,2|0
232,168,68252,1,2
368,248,68671,2,0,B|368:152,1,80,2|0
448,168,69091,1,2
32,352,69720,2,0,B|72:336|88:272|160:368|192:360|240:312,1,200,0|2
176,264,70979,5,0
104,232,71189,1,2
32,192,71398,1,0
24,112,71608,2,0,B|120:104,1,80,8|0
176,64,72028,2,0,B|192:160,1,80,2|0
264,160,72447,2,0,B|352:136,1,80
392,200,72867,2,0,B|464:264,1,80,2|0
408,320,73286,5,8
328,336,73496,1,0
248,320,73706,1,2
168,336,73916,1,0
88,320,74126,1,2
56,160,74545,6,0,B|-8:192|72:216,1,80,2|0
136,192,74965,1,8
272,104,75384,2,0,B|336:72|256:48,1,80,2|0
192,80,75804,1,2
472,192,76433,2,0,B|424:224|408:152|336:200,1,120,2|0
304,248,77273,6,0,B|216:320,1,80,0|0
176,344,77692,1,2
104,304,77902,1,0
32,344,78112,1,2
32,264,78321,1,8
32,184,78531,1,2
72,112,78741,1,0
136,64,78951,1,2
216,48,79161,6,0,B|312:40,1,80,0|2
376,40,79580,1,0
456,56,79790,1,2
464,136,80000,2,0,B|464:232,1,80,8|0
456,304,80419,6,0,B|408:304|392:256,1,80,0|0
256,344,81259,1,0
256,184,81678,1,8
72,24,82307,2,0,B|24:24|8:72,1,80
112,184,82937,1,0
112,344,83356,1,8
352,40,84196,6,0,B|408:40|472:88|472:144,1,160,8|0
472,288,85035,1,8
320,248,85454,2,0,B|320:160,2,80,0|0|8
160,288,86293,1,0
32,192,86713,1,8
256,32,87552,6,0,B|304:88|216:104|304:112|256:192,1,160
96,192,88391,1,8
96,272,88601,1,0
256,296,89021,1,0
328,264,89231,2,0,B|416:288|416:312|320:344,2,160,0|0|8
256,32,90909,5,0
256,32,91328,1,0
96,32,91748,1,8
96,32,92168,1,0
56,104,92377,6,0,B|144:104,1,80,0|8
168,176,92797,1,0
248,176,93007,1,8
288,104,93217,1,0
368,104,93426,2,0,B|424:104|432:152,1,80,8|8
432,224,94056,1,0
432,224,94266,5,4
312,328,94685,1,8
152,336,95105,2,0,B|64:264,1,80
32,136,95734,1,0
32,136,95944,1,0
152,32,96363,1,8
312,32,96783,1,0
472,32,97203,1,8
312,32,97622,5,0
152,32,98042,1,8
152,192,98461,1,0
256,312,98881,1,8
360,192,99300,1,0
256,72,99720,1,8
152,192,100140,1,0
152,192,100559,2,0,B|152:240|168:240|168:272,1,80,8|0
248,288,100979,5,4
336,152,101398,2,0,B|400:152|416:184|400:232|320:224,1,160,8|0
184,32,102447,2,0,B|120:96,1,80,8|0
56,128,102867,2,0,B|56:216,1,80,0|8
144,344,103496,1,8
216,320,103706,5,0
288,344,103916,1,8
360,320,104126,1,0
432,288,104335,5,4
456,208,104545,2,0,B|352:200,1,80,0|8
336,136,104965,1,0
304,56,105175,1,8
224,40,105384,2,0,B|136:40,1,80,0|8
72,80,105804,1,0
40,152,106014,5,8
32,232,106224,1,0
64,304,106433,1,8
144,320,106643,1,0
224,312,106853,2,0,B|200:240,2,40,8|0|0
304,328,107273,1,8
384,320,107482,1,0
456,280,107692,5,4
424,120,108112,1,8
280,192,108531,2,0,B|184:152,1,80
208,64,108951,1,8
208,64,109161,1,0
208,64,109370,2,0,B|168:120|120:120|56:48,2,160,0|8|4
424,344,111049,6,0,B|424:288|440:288|440:264,1,80,8|0
488,192,111678,1,0
464,96,111888,2,0,B|408:96,1,40,8|0
352,40,112307,2,0,B|312:24|312:72|272:56,1,80,0|8
160,56,113042,1,0
64,128,113356,1,0
112,192,113566,2,0,B|112:248|208:232|176:328,1,160,8|0
256,184,114405,5,8
328,328,114825,2,0,B|336:256|424:256|424:256|464:256,1,160,0|8
456,176,115454,1,0
328,72,115874,1,0
256,40,116084,2,0,B|88:40,2,160,8|0|8
104,320,117762,5,8
104,160,118182,1,0
264,160,118601,1,8
264,320,119021,1,0
104,320,119440,1,8
104,160,119860,1,0
264,160,120273,6,0,B|264:112|208:104,1,80,8|4
360,40,121531,1,0
480,144,121951,2,0,B|480:232,1,80,8|0
400,208,122370,2,0,B|400:312,1,80
480,312,122790,1,8
320,312,123209,1,0
160,336,123629,1,8
88,192,124049,6,0,B|24:192,2,40
112,112,124468,6,0,B|216:112,1,80,8|0
256,64,124888,2,0,B|304:64|328:112,1,80,0|0
392,64,125307,1,8
464,104,125517,1,0
480,184,125727,1,0
432,248,125937,1,0
360,288,126146,2,0,B|272:288|256:344,2,120,8|0|0
432,248,126986,1,8
280,192,127405,5,0
200,192,127615,1,0
136,144,127825,5,4
72,88,128035,1,0
136,40,128244,2,0,B|224:32,1,80,8|0
296,48,128664,2,0,B|384:56,1,80
456,192,129293,5,0
408,256,129503,1,8
360,192,129713,1,0
360,192,129923,2,0,B|312:168|304:232|264:192,1,80,0|8
48,248,131181,6,0,B|48:336,1,80,8|0
128,328,131601,2,0,B|128:240,1,80
208,248,132021,2,0,B|208:336,1,80,8|0
288,328,132440,2,0,B|288:240,1,80
288,168,132860,2,0,B|184:168,1,80,8|0
128,168,133279,1,0
48,168,133489,1,0
48,88,133699,1,8
128,80,133909,1,0
208,64,134118,1,0
288,48,134328,6,0,B|376:48,1,80,0|4
440,80,134748,1,0
368,120,134958,1,8
440,144,135167,1,0
368,184,135377,1,0
440,208,135587,1,0
376,248,135797,2,0,B|320:248|312:296,1,80,8|2
256,344,136426,5,0
176,344,136636,1,2
104,312,136846,1,0
48,256,137056,1,2
32,176,137265,1,0
64,104,137475,1,2
128,56,137685,5,0
136,136,137895,2,0,B|224:136,1,80,8|0
240,56,138314,1,0
320,40,138524,2,0,B|320:136,1,80,0|8
400,136,138944,1,0
440,136,139049,1,8
472,248,139363,1,0
440,320,139573,6,0,B|352:320,1,80,2|0
320,248,139993,2,0,B|416:248,1,80,2|0
400,168,140412,1,2
352,104,140622,1,0
272,104,140832,2,0,B|160:104,1,80,2|0
120,64,141461,5,0
48,104,141671,1,0
40,184,141881,2,0,B|112:240,1,80
104,312,142300,2,0,B|200:328,1,80
264,336,142720,2,0,B|264:248,1,80
312,192,143139,1,0
312,192,143349,1,4
256,128,143559,1,0
256,128,143664,2,0,B|208:88|184:176|120:144,1,140
128,148,144503,5,0
127,147,144608,1,4
56,184,144818,1,0
24,256,145028,1,0
56,328,145237,1,0
136,328,145447,1,0
216,328,145657,1,0
256,328,145762,1,0
416,328,146077,6,0,B|320:328,1,80
336,248,146496,2,0,B|336:160,1,80
416,192,146916,1,0
456,192,147021,1,4
456,72,147335,1,0
456,72,147440,1,4
336,40,147755,5,0
272,88,147965,1,4
208,40,148174,2,0,B|112:40,1,80
88,40,148489,1,0
48,40,148594,1,0
72,112,148804,1,0
16,168,149014,1,0
72,224,149223,1,0
152,224,149433,6,0,B|184:312,1,80
256,320,149853,1,0
328,352,150063,1,0
320,272,150272,1,0
392,304,150482,1,0
448,240,150692,1,0
480,168,150902,1,0
464,88,151112,6,0,B|376:56,1,80
312,48,151531,1,0
312,48,151741,1,0
312,48,151951,1,0
232,40,152160,6,0,B|192:136,1,80
128,80,152580,1,0
56,40,152790,1,0
40,120,153000,6,0,B|64:200,1,80
128,248,153419,2,0,B|217:216,1,80
256,280,153839,1,0
320,328,154049,1,0
344,248,154258,2,0,B|456:216,1,80
448,152,154678,6,0,B|496:152,2,40,4|0|0
376,120,155098,2,0,B|328:120,2,40
448,80,155517,2,0,B|504:80,2,40
376,48,155937,2,0,B|312:48,2,40
256,48,156356,6,0,B|152:48,1,80,0|0
192,128,156776,2,0,B|104:128,1,80
40,168,157195,2,0,B|0:208|48:248,1,80
112,272,157615,2,0,B|200:272,1,80
256,320,158035,6,0,B|312:320,14,40,4|0|0|0|0|0|0|0|0|0|0|0|0|0|0
256,192,159713,12,8,161391
368,48,161601,5,0
432,88,161811,1,0
368,136,162021,1,0
440,176,162230,1,8
440,256,162440,1,0
376,304,162650,2,0,B|280:304,2,80,0|0|8
344,232,163279,1,0
264,232,163489,1,0
200,184,163699,1,0
200,184,163804,2,0,B|176:136|264:120|248:40,1,140,8|0
216,40,164643,5,0
176,40,164748,1,8
128,104,164958,2,0,B|104:136|88:136|56:88,1,80
32,176,165377,2,0,B|0:216|32:248,1,80,0|8
88,304,165797,1,0
120,328,165902,1,0
240,336,166216,5,0
320,352,166426,1,8
400,336,166636,2,0,B|448:248,1,80
472,192,167056,1,0
472,192,167160,1,8
456,72,167475,1,0
456,72,167580,1,0
344,32,167895,5,0
264,56,168105,1,8
184,32,168314,2,0,B|88:32,1,80
56,96,168734,1,0
40,176,168944,2,0,B|136:176,1,80,8|0
184,216,169363,1,0
264,232,169573,2,0,B|264:320,1,80,0|8
344,336,169993,2,0,B|344:248,1,80,0|8
432,232,170412,1,0
432,232,170517,2,0,B|376:232|360:184|360:128,1,140,8|0
360,132,171356,5,0
361,131,171461,1,8
312,64,171671,2,0,B|272:40|232:72,1,80
160,48,172091,1,0
88,72,172300,1,8
40,136,172510,1,0
24,168,172615,1,8
48,288,172930,5,0
112,328,173139,1,8
192,328,173349,2,0,B|248:328|256:280,1,80
312,240,173769,1,0
352,240,173874,1,8
472,240,174188,1,0
432,240,174293,1,0
424,120,174608,6,0,B|336:120,1,80,0|4
304,48,175028,1,0
224,48,175237,1,8
152,80,175447,1,0
80,112,175657,2,0,B|80:176|128:192,1,80
120,264,176077,1,8
160,328,176286,1,0
200,264,176496,1,0
248,328,176706,2,0,B|336:304,1,80,0|8
408,312,177125,1,0
448,312,177230,1,0
464,192,177545,5,8
464,192,177755,1,8
456,112,177965,5,0
392,56,178174,1,0
312,40,178384,2,0,B|224:40,1,80,0|8
152,56,178804,1,0
72,72,179014,1,0
40,144,179223,1,0
40,184,179328,1,8
88,296,179643,5,0
168,312,179853,1,0
248,296,180063,1,0
264,216,180272,1,8
240,136,180482,1,0
256,96,180587,1,0
368,48,180902,1,0
408,48,181007,1,8
408,48,181321,6,0,B|464:48|488:88,1,80
472,152,181741,2,0,B|432:184|392:176,1,80,0|8
320,176,182160,2,0,B|264:168|248:136,1,80
248,64,182580,2,0,B|272:32|328:40,1,80,0|8
400,40,183000,1,0
464,80,183209,1,0
464,160,183419,1,0
392,192,183629,1,8
344,256,183839,1,0
344,256,183944,2,0,B|296:272|256:208|208:248,1,140
176,264,184783,5,0
144,280,184888,1,8
64,288,185098,2,0,B|24:208,1,80
80,160,185517,2,0,B|112:80,1,80,0|8
184,48,185937,1,0
224,32,186042,1,0
344,32,186356,5,0
424,40,186566,1,8
384,112,186776,1,0
440,168,186986,1,0
416,248,187195,1,0
416,248,187300,1,0
256,232,187606,6,0,B|256:152,1,60,0|4
336,40,194948,6,0,B|168:40,1,160
256,176,195787,1,0
256,256,195997,1,8
256,296,196102,1,0
336,296,196311,1,8
376,296,196416,1,0
456,272,196626,6,0,B|456:88,1,160
304,48,197465,1,0
224,48,197675,1,8
184,48,197780,1,0
136,112,197990,1,8
96,112,198095,1,0
40,168,198304,6,0,B|184:272,1,160
296,352,199144,1,0
344,288,199353,1,8
384,288,199458,1,0
440,232,199668,1,8
440,192,199773,1,0
400,120,199983,6,0,B|256:40,1,160
96,40,200822,1,2
56,112,201032,1,2
40,144,201137,1,0
112,168,201346,1,2
136,200,201451,1,0
96,264,201661,1,4
256,352,215088,5,4
112,288,215507,1,2
112,208,215717,1,0
112,128,215927,1,8
256,56,216346,1,2
256,136,216556,1,0
256,216,216766,1,2
464,296,217395,2,0,B|424:216|496:168|456:88,1,200,2|0
392,56,218654,5,2
320,96,218864,2,0,B|216:96,1,80
168,56,219283,1,8
104,112,219493,1,0
72,184,219703,2,0,B|32:264,1,80
96,312,220123,1,2
168,344,220332,1,0
240,312,220542,6,0,B|344:312,1,80
392,280,220962,1,8
464,312,221172,1,0
464,232,221381,1,2
392,200,221591,1,0
336,136,221801,6,0,B|232:136,2,80,2|0|0
416,136,222430,1,0
336,136,222640,2,0,B|336:40|264:88|256:-8,1,160,8|0
184,40,223269,1,0
104,32,223479,1,2
176,256,224109,1,0
112,200,224318,2,0,B|112:272|64:280|32:280|48:344,2,160,8|0|2
160,136,225367,6,0,B|248:136,1,80
240,56,225787,2,0,B|136:56,1,80,0|8
240,56,226207,2,0,B|344:56,1,80
304,136,226626,2,0,B|392:136,1,80,0|2
400,56,227046,1,0
480,56,227255,1,2
480,136,227465,1,0
480,216,227670,6,0,B|472:256|496:264|496:272|480:272|488:296,1,80,8|0
328,336,228939,1,8
256,192,229359,2,0,B|192:192|184:144,1,80
136,312,229988,1,0
56,288,230198,2,0,B|16:264|16:216|56:176|120:248,2,160,8|0|0
256,40,231876,5,8
400,104,232296,2,0,B|464:112|472:152,2,80,0|0|8
256,184,233135,1,0
224,112,233345,1,0
144,112,233554,2,0,B|56:112,1,80,8|0
40,184,233974,2,0,B|128:184,1,80
168,248,234394,1,8
304,328,234813,5,0
304,328,235233,5,8
384,192,235652,1,0
456,48,236072,1,8
456,48,236282,2,0,B|360:48|352:-16|288:40,1,160
256,88,236911,1,8
104,32,237331,1,0
96,192,237750,1,8
320,288,238589,6,0,B|416:288|400:368|488:320,3,160,0|8|0|8
464,168,240268,1,0
424,96,240478,1,0
360,40,240687,1,8
200,40,241107,5,8
144,96,241317,1,8
104,168,241526,1,0
152,232,241736,1,0
192,304,241946,6,0,B|360:304,1,160,4|8
464,192,242785,1,0
384,192,242995,2,0,B|272:192|272:104,1,160
273,107,243624,1,8
128,32,244044,1,0
40,160,244464,1,8
128,296,244883,1,0
288,312,245303,5,8
288,312,245513,1,0
288,312,245722,2,0,B|336:312|336:256|392:248|440:280,2,160,0|8|0
256,152,246981,1,8
384,56,247401,1,0
304,56,247610,1,0
224,56,247820,1,8
72,112,248240,2,0,B|56:136|56:136|72:136|72:136|72:144|72:144|56:144|56:144|56:152|56:152|72:152|72:152|72:160|72:160|56:160|56:160|56:168|56:168|72:168|72:168|72:176|72:176|56:176|56:176,1,160,0|4
56,336,249079,5,0
200,272,249499,2,0,B|264:312|312:192|376:264|464:264,1,240,8|0
464,184,250338,1,0
392,144,250547,2,0,B|392:56,1,80,0|8
312,40,250967,1,0
232,64,251177,1,0
152,40,251387,1,0
72,64,251596,1,8
32,136,251806,1,0
32,136,252016,6,0,B|88:152|112:80|192:144,1,160,8|0
256,176,252645,1,0
256,176,252855,2,0,B|248:232|320:256|256:336,1,160,8|0
424,320,253694,6,0,B|472:320,2,40,8|0|0
392,248,254114,1,8
464,208,254324,1,0
392,168,254533,2,0,B|344:120,2,40,8|0|0
464,128,254953,2,0,B|496:88,2,40,8|0|0
424,56,255373,5,4
264,40,255792,1,8
104,64,256212,1,0
32,96,256422,1,0
104,136,256631,1,8
32,168,256841,1,0
104,208,257051,2,0,B|104:312|192:296|160:360,2,160,0|8|0
256,256,258310,5,8
256,336,258520,1,0
256,256,258729,5,0
256,96,259149,2,0,B|256:0,1,80,8|0
256,17,259568,1,0
408,64,259988,1,8
496,192,260408,2,0,B|496:248|440:264|408:272,2,120,0|8|0
416,192,261247,1,0
136,40,262086,6,0,B|88:40|56:72|40:112|48:152,1,160,8|0
48,312,262925,1,8
120,344,263135,1,0
280,344,263554,1,0
344,304,263764,1,8
192,240,264184,2,0,B|240:240|272:208|288:168|280:128,1,160,0|8
88,240,265443,6,0,B|88:288|120:320|160:336|200:328,1,160,8|0
256,192,266282,1,8
256,32,266701,1,0
320,80,266911,1,0
400,80,267121,1,8
256,152,267540,2,0,B|256:200|280:224|288:232|288:216,1,80
272,304,267955,6,0,B|200:304|200:360,1,80,8|4
48,288,269213,1,8
32,128,269633,2,0,B|96:48,1,80
160,64,270052,2,0,B|216:136,1,80,8|0
256,64,270472,1,0
400,128,270891,1,8
256,192,271311,1,0
376,328,272150,5,8
376,328,272570,2,0,B|288:328,1,80
216,344,272989,1,8
72,264,273409,1,0
216,200,273828,2,0,B|216:72,2,120,8|0|0
215,201,274668,1,8
480,192,275507,5,12
480,352,275926,1,0
480,192,276346,1,8
256,96,276975,1,0
256,96,277185,1,8
128,192,277605,1,0
40,328,278024,2,0,B|136:328,1,80,8|0
200,336,278444,2,0,B|200:232,1,80
248,192,278863,6,0,B|336:192,1,80,8|0
408,176,279283,2,0,B|408:72,1,80
344,48,279703,2,0,B|240:48,1,80,8|0
184,48,280122,2,0,B|128:128,1,80
64,144,280542,1,8
64,144,280752,1,0
32,216,280961,2,0,B|112:288,1,80
136,336,281381,1,8
184,272,281591,1,0
264,272,281800,2,0,B|328:272|336:320,1,80
408,328,282220,5,4
456,264,282430,2,0,B|488:184,1,80,0|8
448,120,282849,1,0
400,56,283059,1,0
320,56,283269,1,0
272,120,283479,2,0,B|184:120,1,80,8|0
136,56,283898,5,0
80,112,284108,1,0
136,176,284318,2,0,B|88:256,1,80,8|0
40,304,284738,1,0
112,336,284947,1,0
184,304,285157,2,0,B|216:352|256:344,1,80,8|0
312,296,285577,5,0
312,296,285787,1,0
312,296,285996,2,0,B|400:296,1,80,8|0
440,232,286416,1,0
488,168,286626,1,0
432,104,286835,1,8
480,40,287045,1,0
256,192,287255,12,4,288933
