osu file format v6

[General]
AudioFilename: Deep_Spirit_-_No_Cover_Song__Manox_Club_Mix_.mp3
AudioLeadIn: 0
PreviewTime: 107687
Countdown: 1
SampleSet: Soft
StackLeniency: 0.7
Mode: 0
LetterboxInBreaks: 1

[Editor]
Bookmarks: 67413,134536
DistanceSpacing: 0.600000023841858
BeatDivisor: 4
GridSize: 8

[Metadata]
Title:No Cover Song (Manox Club Mix)
Artist:Deep Spirit
Creator:osuplayer111
Version:Easy
Source:
Tags:

[Difficulty]
HPDrainRate:2
CircleSize:4
OverallDifficulty:2
SliderMultiplier:1.2
SliderTickRate:1

[Events]
//Background and Video events
0,0,"1113089557637.jpg"
//Break Periods
//Storyboard Layer 0 (Background)
//Storyboard Layer 1 (Fail)
//Storyboard Layer 2 (Pass)
//Storyboard Layer 3 (Foreground)
//Storyboard Sound Samples
//Background Colour Transformations
3,100,163,162,255

[TimingPoints]
280,419.58041958042,4,2,0,100,1,0
69720,-200,4,2,0,100,0,0
70769,-100,4,2,0,100,0,0
76433,-200,4,2,0,100,0,0
77062,-100,4,2,0,100,0,0
80838,-100,4,1,1,100,0,0
93423,-200,4,1,1,100,0,0
94157,-100,4,2,0,100,0,0
94367,-100,4,1,1,100,0,0
100870,-100,4,2,0,100,0,0
101080,-100,4,1,1,100,0,0
107687,-100,4,1,0,100,0,0
112616,-100,4,1,1,100,0,0
112826,-100,4,1,0,100,0,0
115134,-100,4,1,1,100,0,0
115343,-100,4,1,0,100,0,0
129921,-200,4,1,0,100,0,0
130341,-100,4,1,0,100,0,0
132858,-100,4,1,0,100,0,1
134536,-100,4,1,0,100,0,0

[Colours]
Combo1 : 0,0,0
Combo2 : 128,0,64
Combo3 : 255,255,128
Combo4 : 255,0,0
Combo5 : 255,255,255

[HitObjects]
112,304,67412,1,4
256,304,68252,1,2
256,160,69091,1,0
256,56,69720,2,0,B|304:0|328:0|384:64,1,150,2|0
408,192,71608,6,0,B|342:170|342:227|288:216,1,120,8|0
256,280,72447,2,0,B|128:280,1,120,0|2
80,232,73286,2,0,B|77:161|140:134,2,120,8|0|2
152,240,74545,6,0,B|103:293|172:369,1,120,2|8
216,304,75384,2,0,B|257:242|199:184,1,120,2|0
192,56,76433,2,0,B|160:94|126:16|90:74,1,90,2|0
24,56,77482,5,0
80,192,78321,1,8
128,56,79161,2,0,B|272:56,1,120,0|2
320,56,80000,1,8
320,128,80419,6,0,B|303:200|231:195,1,120,0|4
88,192,81678,1,8
24,280,82307,2,0,B|24:312|24:352,1,60
168,344,83356,1,8
256,224,84196,6,0,B|316:201|338:219|365:289,1,120,8|0
416,224,85035,2,0,B|365:172|440:131|400:104,1,120,8|0
352,72,85874,1,0
208,56,86713,1,8
64,80,87552,6,0,B|111:115|26:141|112:160|55:217,1,120
136,224,88391,2,0,B|151:257|168:301,1,60,8|0
256,320,89231,2,0,B|238:254|304:232|316:216,2,120,0|0|8
184,192,90909,6,0,B|48:191,4,120,0|8|0|8|0
256,192,93007,1,8
328,192,93426,2,0,B|384:192|407:192,1,60,8|0
392,264,94266,5,4
464,264,94685,1,8
456,336,95105,2,0,B|376:336,1,60
320,320,95734,2,0,B|272:320|248:320,1,60,0|8
184,336,96363,1,0
112,320,96783,1,8
48,192,97622,5,8
112,64,98461,1,8
184,192,99300,1,8
256,64,100140,1,8
328,64,100559,6,0,B|265:120|338:162|363:173,1,120,8|4
408,128,101398,2,0,B|466:123|488:144|488:176|480:216,1,120,8|0
408,272,102447,2,0,B|344:328,1,60,8|0
304,360,103077,1,8
248,312,103496,1,0
256,192,104335,12,4,107692
360,184,108112,5,8
288,160,108531,2,0,B|167:117,1,120,0|8
128,176,109370,2,0,B|188:200|187:259|156:292,2,120,0|8|4
272,152,111049,6,0,B|272:96|276:77|273:29,1,120,8|0
200,32,111888,2,0,B|125:31,1,60,8|0
128,64,112307,2,0,B|4:146|139:259,1,240
120,328,113566,1,8
232,256,114405,5,8
232,184,114825,2,0,B|240:112|328:112|328:112|382:114,1,180,0|0
416,56,115874,1,0
384,40,116084,2,0,B|238:39,2,120,8|0|8
256,112,117762,5,8
112,112,118601,1,8
112,256,119440,1,8
184,256,119860,1,0
256,256,120279,2,0,B|324:296|392:232,1,120,8|0
408,192,121119,5,4
376,128,121538,2,0,B|376:64,1,60,8|0
304,64,122168,2,0,B|304:143,1,60,0|8
232,128,122797,1,0
184,72,123217,1,8
136,128,123636,1,0
64,248,124475,6,0,B|168:328,1,120,8|0
232,320,125314,1,8
304,304,125734,1,0
376,288,126154,2,0,B|376:200|320:184,2,120,8|0|0
480,192,127832,5,4
424,144,128252,2,0,B|372:29,1,120,8|0
264,32,129300,1,0
224,32,129510,1,8
144,32,129930,2,0,B|120:0|104:35|73:32,1,60,0|8
88,176,131189,6,0,B|88:320,1,120,8|0
160,296,132028,2,0,B|160:152,1,120,8|0
256,192,132867,12,4,134545
