osu file format v12

[General]
AudioFilename: hito ayumishi unmei ni yosete.mp3
AudioLeadIn: 0
PreviewTime: 71787
Countdown: 0
SampleSet: Soft
StackLeniency: 0.7
Mode: 0
LetterboxInBreaks: 1
WidescreenStoryboard: 0

[Editor]
Bookmarks: 27771,44228,46971,49714,71656,90856,92228,93599,103199,115542,137485,159428,175885,181371,203314,225256
DistanceSpacing: 1.2
BeatDivisor: 2
GridSize: 8

[Metadata]
Title:Hito Ayumishi Unmei ni Yosete
TitleUnicode:人歩みし運命に寄せて
Artist:Dee! feat. Nomiya Ayumi
ArtistUnicode:Dee! feat. 野宮あゆみ
Creator:Mixagji
Version:Normal
Source:Touhou
Tags:ten desires toyosatomimi no miko shoutoku legend true administrator ore++ includeore
BeatmapID:287002
BeatmapSetID:94977

[Difficulty]
HPDrainRate:4
CircleSize:3
OverallDifficulty:4
ApproachRate:4
SliderMultiplier:0.999999999999999
SliderTickRate:1

[Events]
//Background and Video events
0,0,"dsf.jpg",0,0
//Break Periods
2,93930,103381
//Storyboard Layer 0 (Background)
//Storyboard Layer 1 (Fail)
//Storyboard Layer 2 (Pass)
//Storyboard Layer 3 (Foreground)
//Storyboard Sound Samples
//Background Colour Transformations
3,100,163,162,255

[TimingPoints]
5959,342.857142857143,4,2,2,60,1,0
181501,-100,4,2,2,80,0,1
203444,-100,4,2,2,70,0,0
203616,-100,4,2,2,70,0,0
224016,-100,4,2,1,70,0,0

[Colours]
Combo1 : 128,255,0
Combo2 : 128,255,255
Combo3 : 255,128,64

[HitObjects]
134,153,27901,6,0,L|142:208,1,50,2|0,0:0|0:0,0:0:0:0:
131,261,28244,2,0,P|200:251|287:278,1,150,8|2,0:0|0:0,0:0:0:0:
322,310,28930,1,8,0:0:0:0:
435,350,29273,6,0,L|462:245,1,99.9999999999999,2|8,0:0|0:0,0:0:0:0:
294,181,30130,2,0,P|227:189|152:153,1,150,2|0,0:0|0:0,0:0:0:0:
112,42,30987,6,0,P|179:34|254:70,1,150,8|2,0:0|0:0,0:0:0:0:
270,125,31673,1,8,0:0:0:0:
179,204,32016,6,0,P|148:241|142:297,1,99.9999999999999,2|8,0:0|0:0,0:0:0:0:
172,342,32530,2,0,P|220:364|271:355,1,99.9999999999999,2|0,0:0|0:0,0:0:0:0:
307,315,33044,1,8,0:0:0:0:
393,231,33387,6,0,L|385:181,1,50
378,121,33730,2,0,P|304:139|234:113,1,150,8|2,0:0|0:0,0:0:0:0:
199,67,34416,2,0,L|170:22,2,50,8|0|0,0:0|0:0|0:0,0:0:0:0:
188,186,35101,6,0,P|176:253|93:287,2,150,8|2|2,0:0|0:0|0:0,0:0:0:0:
67,177,36473,2,0,P|50:129|99:49,1,150,8|2,0:0|0:0,0:0:0:0:
157,40,37159,1,8,0:0:0:0:
256,105,37501,6,0,P|304:120|358:108,1,99.9999999999999,0|8,0:0|0:0,0:0:0:0:
458,55,38187,2,0,L|432:160,2,99.9999999999999,0|8|4,0:0|0:0|0:0,0:0:0:0:
351,110,39216,6,0,B|333:185|333:185|363:259,1,150,8|2,0:0|0:0,0:0:0:0:
391,304,39901,1,8,0:0:0:0:
272,285,40244,6,0,P|218:280|173:302,1,99.9999999999999,0|8,0:0|0:0,0:0:0:0:
32,190,41101,2,0,P|84:218|166:186,1,150,2|0,0:0|0:0,0:0:0:0:
204,74,41959,6,0,P|284:43|336:71,1,150,8|2,0:0|0:0,0:0:0:0:
357,127,42644,2,0,L|377:174,2,50,8|0|0,0:0|0:0|0:0,0:0:0:0:
282,221,43330,6,0,P|283:290|353:333,1,150,8|2,0:0|0:0,0:0:0:0:
405,334,44016,1,8,0:0:0:0:
256,192,44359,12,4,47101,0:0:0:0:
126,247,49844,6,0,P|172:230|195:185,1,99.9999999999999,4|8,0:0|0:0,0:0:0:0:
197,66,50530,1,0,0:0:0:0:
296,133,50873,1,8,0:0:0:0:
402,78,51216,6,0,P|419:132|405:179,1,99.9999999999999,0|8,0:0|0:0,0:0:0:0:
317,251,51901,2,0,P|299:295|308:348,1,99.9999999999999,0|8,0:0|0:0,0:0:0:0:
422,312,52587,5,0,0:0:0:0:
414,192,52930,1,8,0:0:0:0:
300,152,53273,2,0,P|250:167|222:209,1,99.9999999999999,0|8,0:0|0:0,0:0:0:0:
150,300,53959,6,0,L|124:357,2,50,0|0|8,0:0|0:0|0:0,0:0:0:0:
145,180,54644,2,0,P|127:134|81:108,1,99.9999999999999,0|8,0:0|0:0,0:0:0:0:
181,36,55330,6,0,P|193:85|236:116,1,99.9999999999999,0|8,0:0|0:0,0:0:0:0:
337,170,56016,1,0,0:0:0:0:
451,132,56359,1,8,0:0:0:0:
379,35,56701,6,0,L|274:35,1,99.9999999999999,0|8,0:0|0:0,0:0:0:0:
190,116,57387,1,0,0:0:0:0:
210,234,57730,1,8,0:0:0:0:
322,277,58073,6,0,P|373:273|415:242,1,99.9999999999999,0|8,0:0|0:0,0:0:0:0:
451,132,58759,1,0,0:0:0:0:
339,176,59101,1,8,0:0:0:0:
225,136,59444,5,2,0:0:0:0:
120,77,59787,2,0,L|95:32,2,50,8|0|2,0:0|0:0|0:0,0:0:0:0:
124,197,60473,1,8,0:0:0:0:
233,245,60816,6,0,P|246:293|233:349,1,99.9999999999999,4|8,0:0|0:0,0:0:0:0:
116,347,61501,1,0,0:0:0:0:
36,256,61844,1,8,0:0:0:0:
132,184,62187,6,0,P|170:146|177:100,1,99.9999999999999,0|8,0:0|0:0,0:0:0:0:
271,26,62873,1,0,0:0:0:0:
313,138,63216,1,8,0:0:0:0:
266,248,63559,6,0,P|251:296|264:343,1,99.9999999999999,0|8,0:0|0:0,0:0:0:0:
383,351,64244,1,0,0:0:0:0:
456,256,64587,1,8,0:0:0:0:
379,163,64930,5,2,0:0:0:0:
260,142,65273,2,0,L|206:160,2,50,8|0|2,0:0|0:0|0:0,0:0:0:0:
335,48,65959,1,8,0:0:0:0:
452,70,66301,6,0,L|466:177,1,99.9999999999999,0|8,0:0|0:0,0:0:0:0:
409,276,66987,1,0,0:0:0:0:
298,322,67330,1,8,0:0:0:0:
316,203,67673,6,0,P|304:154|269:117,1,99.9999999999999,0|8,0:0|0:0,0:0:0:0:
152,97,68359,1,0,0:0:0:0:
62,176,68701,1,8,0:0:0:0:
166,234,69044,6,0,P|195:275|196:331,2,99.9999999999999,0|8|0,0:0|0:0|0:0,0:0:0:0:
76,314,70073,1,8,0:0:0:0:
72,194,70416,6,0,B|96:122|173:104|173:104|214:150|214:150|245:94|306:105,1,300,0|8,0:0|0:0,0:0:0:0:
411,96,71787,6,0,L|365:190,1,99.9999999999999,4|8,0:0|0:0,0:0:0:0:
316,295,72473,2,0,L|295:343,2,50,0|0|8,0:0|0:0|0:0,0:0:0:0:
435,280,73159,1,2,0:0:0:0:
364,183,73501,6,0,P|311:171|261:189,2,99.9999999999999,8|0|8,0:0|0:0|0:0,0:0:0:0:
475,138,74530,6,0,P|462:86|425:56,1,99.9999999999999,0|8,0:0|0:0,0:0:0:0:
308,42,75216,1,0,0:0:0:0:
193,77,75559,1,8,0:0:0:0:
154,190,75901,6,0,B|106:233|106:233|128:278|97:299|97:299|70:308,2,150,2|2|8,0:0|0:0|0:0,0:0:0:0:
52,125,77273,6,0,P|113:59|219:82,1,200
261,186,78301,2,0,P|268:237|306:269,1,99.9999999999999,8|2,0:0|0:0,0:0:0:0:
420,243,78987,6,0,L|383:347,2,99.9999999999999,8|0|8,0:0|0:0|0:0,0:0:0:0:
468,132,80016,6,0,P|374:142|314:63,1,200,2|0,0:0|0:0,0:0:0:0:
200,104,81044,1,8,0:0:0:0:
122,195,81387,5,2,0:0:0:0:
164,307,81730,2,0,L|154:362,2,50,8|0|2,0:0|0:0|0:0,0:0:0:0:
250,222,82416,1,8,0:0:0:0:
357,167,82759,6,0,P|362:270|294:335,1,200,4|0,0:0|0:0,0:0:0:0:
181,301,83787,2,0,P|130:295|87:316,1,99.9999999999999,8|2,0:0|0:0,0:0:0:0:
56,199,84473,6,0,L|84:102,2,99.9999999999999,8|0|8,0:0|0:0|0:0,0:0:0:0:
175,184,85501,6,0,L|271:149,1,99.9999999999999,0|8,0:0|0:0,0:0:0:0:
350,61,86187,1,0,0:0:0:0:
466,89,86530,1,8,0:0:0:0:
384,177,86873,6,0,B|363:215|372:258|372:258|401:274|415:311,2,150,2|2|8,0:0|0:0|0:0,0:0:0:0:
271,134,88244,6,0,P|173:152|142:244,1,200
96,349,89273,2,0,L|204:325,1,99.9999999999999,8|0,0:0|0:0,0:0:0:0:
314,328,89959,6,0,L|411:349,2,99.9999999999999,8|0|8,0:0|0:0|0:0,0:0:0:0:
256,224,90987,1,4,0:0:0:0:
256,192,92359,12,0,93730,0:0:0:0:
434,145,104701,6,0,P|352:194|267:144,1,200,4|0,0:0|0:0,0:0:0:0:
205,44,105730,1,8,0:0:0:0:
166,157,106073,2,0,P|132:199|88:210,2,99.9999999999999,2|8|0,0:0|0:0|0:0,0:0:0:0:
87,65,107101,1,8,0:0:0:0:
205,44,107444,6,0,P|270:80|289:150,1,150,2|0,0:0|0:0,0:0:0:0:
219,247,108301,2,0,B|284:285|284:285|364:291,1,150,2|2,0:0|0:0,0:0:0:0:
460,141,109330,2,0,P|429:201|349:204,1,150,2|8,0:0|0:0,0:0:0:0:
269,120,110187,6,0,P|168:85|110:153,1,200
120,264,111216,1,8,0:0:0:0:
239,272,111559,2,0,L|200:176,2,99.9999999999999,0|8|0,0:0|0:0|0:0,0:0:0:0:
357,289,112587,1,8,0:0:0:0:
256,192,112930,12,2,114301,0:0:0:0:
224,264,114987,6,0,L|183:220,2,50,0|0|8,0:0|0:0|0:0,0:0:0:0:
319,338,115673,6,0,P|420:319|439:230,1,200,4|0,0:0|0:0,0:0:0:0:
376,133,116701,1,8,0:0:0:0:
268,186,117044,6,0,P|170:192|131:104,1,200
222,33,118073,1,8,0:0:0:0:
332,79,118416,6,0,P|384:86|429:63,1,99.9999999999999,0|8,0:0|0:0,0:0:0:0:
459,181,119101,2,0,L|482:228,2,50,0|2|8,0:0|0:0|0:0,0:0:0:0:
339,192,119787,6,0,P|301:226|291:279,1,99.9999999999999,0|8,0:0|0:0,0:0:0:0:
172,299,120473,2,0,L|117:318,2,50,0|2|8,0:0|0:0|0:0,0:0:0:0:
76,226,121159,6,0,P|173:198|194:107,1,200
95,43,122187,1,8,0:0:0:0:
214,31,122530,6,0,B|315:31|315:31|361:121,1,200
345,238,123559,1,8,0:0:0:0:
270,331,123901,6,0,P|317:354|365:356,1,99.9999999999999,0|8,0:0|0:0,0:0:0:0:
457,280,124587,2,0,L|486:221,2,50,0|2|8,0:0|0:0|0:0,0:0:0:0:
345,238,125273,6,0,P|308:201|302:152,1,99.9999999999999,0|8,0:0|0:0,0:0:0:0:
347,44,125959,2,0,L|398:27,2,50,0|2|8,0:0|0:0|0:0,0:0:0:0:
227,38,126644,6,0,P|130:59|108:148,1,200,4|0,0:0|0:0,0:0:0:0:
168,250,127673,1,8,0:0:0:0:
78,330,128016,6,0,P|171:369|265:326,1,200
330,237,129044,1,8,0:0:0:0:
329,116,129387,6,0,P|379:123|420:155,1,99.9999999999999,0|8,0:0|0:0,0:0:0:0:
446,269,130073,2,0,L|452:320,2,50,0|2|8,0:0|0:0|0:0,0:0:0:0:
330,237,130759,6,0,P|281:246|245:285,1,99.9999999999999,0|8,0:0|0:0,0:0:0:0:
137,329,131444,2,0,P|149:281|134:229,1,99.9999999999999,0|8,0:0|0:0,0:0:0:0:
109,115,132130,6,0,P|204:149|277:94,1,200
390,53,133159,1,8,0:0:0:0:
397,172,133501,6,0,P|405:224|442:259,2,99.9999999999999,0|8|0,0:0|0:0|0:0,0:0:0:0:
390,53,134530,1,8,0:0:0:0:
306,139,134873,6,0,P|260:188|178:190,2,150,2|0|0,0:0|0:0|0:0,0:0:0:0:
204,74,136244,2,0,P|125:77|79:126,2,150
318,35,137616,6,0,L|413:80,1,99.9999999999999,4|8,0:0|0:0,0:0:0:0:
431,195,138301,2,0,L|423:245,2,50,0|2|8,0:0|0:0|0:0,0:0:0:0:
310,200,138987,6,0,P|262:220|239:271,1,99.9999999999999,2|8,0:0|0:0,0:0:0:0:
127,302,139673,2,0,L|135:351,2,50,0|2|8,0:0|0:0|0:0,0:0:0:0:
84,189,140359,6,0,L|22:274,2,99.9999999999999,2|8|0,0:0|0:0|0:0,0:0:0:0:
161,97,141387,1,8,0:0:0:0:
271,49,141730,6,0,P|321:55|360:96,1,99.9999999999999,0|8,0:0|0:0,0:0:0:0:
415,94,142244,2,0,L|393:197,1,99.9999999999999,2|2,0:0|0:0,0:0:0:0:
380,250,142759,1,8,0:0:0:0:
283,321,143101,6,0,P|260:278|264:227,1,99.9999999999999,2|8,0:0|0:0,0:0:0:0:
224,114,143787,2,0,L|184:74,2,50,0|2|8,0:0|0:0|0:0,0:0:0:0:
152,210,144473,5,2,0:0:0:0:
66,293,144816,2,0,P|107:327|156:330,1,99.9999999999999,8|0,0:0|0:0,0:0:0:0:
257,274,145501,1,8,0:0:0:0:
289,158,145844,6,0,P|314:107|357:95,1,99.9999999999999,2|8,0:0|0:0,0:0:0:0:
431,185,146530,2,0,B|422:232|422:232|433:286,2,99.9999999999999,0|8|0,0:0|0:0|0:0,0:0:0:0:
457,67,147559,5,8,0:0:0:0:
337,60,147901,2,0,L|280:58,2,50,0|2|8,0:0|0:0|0:0,0:0:0:0:
332,180,148587,6,0,P|315:232|273:257,1,99.9999999999999,4|8,0:0|0:0,0:0:0:0:
174,194,149273,2,0,L|142:153,2,50,0|2|8,0:0|0:0|0:0,0:0:0:0:
193,312,149959,6,0,P|227:351|280:355,1,99.9999999999999,2|8,0:0|0:0,0:0:0:0:
390,332,150644,2,0,L|443:348,2,50,0|2|8,0:0|0:0|0:0,0:0:0:0:
348,219,151330,6,0,P|342:169|363:125,2,99.9999999999999,2|8|0,0:0|0:0|0:0,0:0:0:0:
233,182,152359,1,8,0:0:0:0:
248,63,152701,6,0,L|354:38,1,99.9999999999999,2|8,0:0|0:0,0:0:0:0:
405,48,153216,2,0,L|472:128,1,99.9999999999999,2|2,0:0|0:0,0:0:0:0:
457,183,153730,1,8,0:0:0:0:
339,207,154073,6,0,P|292:232|271:282,1,99.9999999999999,2|8,0:0|0:0,0:0:0:0:
161,319,154759,2,0,L|108:328,2,50,0|2|8,0:0|0:0|0:0,0:0:0:0:
193,203,155444,6,0,P|189:150|155:107,1,99.9999999999999,2|8,0:0|0:0,0:0:0:0:
42,114,156130,1,0,0:0:0:0:
49,233,156473,1,8,0:0:0:0:
150,297,156816,6,0,P|252:294|297:211,1,200,2|0,0:0|0:0,0:0:0:0:
256,103,157844,1,8,0:0:0:0:
374,81,158187,6,0,B|382:192|297:216|297:216|317:282|395:289,1,300,0|8,0:0|0:0,0:0:0:0:
278,324,159559,6,0,P|236:352|185:357,1,99.9999999999999,4|8,0:0|0:0,0:0:0:0:
80,303,160244,2,0,P|49:261|47:210,1,99.9999999999999,0|8,0:0|0:0,0:0:0:0:
93,103,160930,2,0,L|181:33,2,99.9999999999999,0|8|0,0:0|0:0|0:0,0:0:0:0:
166,198,161959,1,8,0:0:0:0:
283,175,162301,6,0,B|333:167|368:116,1,99.9999999999999,2|8,0:0|0:0,0:0:0:0:
450,204,162987,2,0,P|480:100|428:24,1,200,0|2,0:0|0:0,0:0:0:0:
313,34,164016,1,8,0:0:0:0:
194,51,164359,2,0,L|143:58,2,50,0|2|8,0:0|0:0|0:0,0:0:0:0:
241,161,165044,6,0,P|223:208|179:232,1,99.9999999999999,0|8,0:0|0:0,0:0:0:0:
61,246,165730,2,0,L|33:204,2,50,0|0|8,0:0|0:0|0:0,0:0:0:0:
157,318,166416,2,0,P|236:349|329:286,1,200,2|0,0:0|0:0,0:0:0:0:
363,176,167444,1,8,0:0:0:0:
325,61,167787,6,0,P|243:68|198:122,2,150,2|0|8,0:0|0:0|0:0,0:0:0:0:
431,117,169159,6,0,P|452:165|445:213,1,99.9999999999999,0|8,0:0|0:0,0:0:0:0:
419,265,169673,2,0,L|326:306,1,99.9999999999999,2|0,0:0|0:0,0:0:0:0:
268,293,170187,1,8,0:0:0:0:
243,175,170530,6,0,P|153:129|69:181,1,200,4|0,0:0|0:0,0:0:0:0:
62,293,171559,1,8,0:0:0:0:
157,220,171901,2,0,P|247:266|331:214,1,200
333,101,172930,1,8,0:0:0:0:
224,49,173273,6,0,P|154:58|106:118,1,150,2|0,0:0|0:0,0:0:0:0:
123,174,173959,2,0,P|133:225|116:274,1,99.9999999999999,0|8,0:0|0:0,0:0:0:0:
222,330,174644,6,0,P|283:284|364:289,1,150,2|2,0:0|0:0,0:0:0:0:
449,212,175501,2,0,L|429:166,1,50,2|8,0:0|0:0,0:0:0:0:
359,67,176016,6,0,L|256:53,2,99.9999999999999,4|8|0,0:0|0:0|0:0,0:0:0:0:
282,159,177044,1,8,0:0:0:0:
163,138,177387,2,0,L|56:123,2,99.9999999999999,4|8|0,0:0|0:0|0:0,0:0:0:0:
198,252,178416,1,8,0:0:0:0:
299,315,178759,6,0,P|331:342|368:349,2,74.9999999999999,4|0|0,0:0|0:0|0:0,0:0:0:0:
323,260,179444,2,0,P|362:253|397:231,2,74.9999999999999,4|0|0,0:0|0:0|0:0,0:0:0:0:
263,266,180130,2,0,P|214:244|190:200,1,99.9999999999999,4|8,0:0|0:0,0:0:0:0:
300,155,180816,2,0,P|315:104|299:55,1,99.9999999999999,0|8,0:0|0:0,0:0:0:0:
182,53,181501,6,0,P|81:72|62:161,1,200,4|0,0:0|0:0,0:0:0:0:
135,249,182530,1,8,0:0:0:0:
244,198,182873,6,0,P|342:192|381:280,1,200
290,351,183901,1,8,0:0:0:0:
180,305,184244,6,0,P|128:298|83:321,1,99.9999999999999,0|8,0:0|0:0,0:0:0:0:
53,203,184930,2,0,L|30:156,2,50,0|2|8,0:0|0:0|0:0,0:0:0:0:
173,192,185616,6,0,P|211:158|221:105,1,99.9999999999999,0|8,0:0|0:0,0:0:0:0:
340,85,186301,2,0,L|395:66,2,50,0|2|8,0:0|0:0|0:0,0:0:0:0:
436,158,186987,6,0,P|339:186|318:277,1,200
226,352,188016,1,8,0:0:0:0:
158,251,188359,2,0,P|107:235|55:259,2,99.9999999999999,0|8|0,0:0|0:0|0:0,0:0:0:0:
249,172,189387,1,8,0:0:0:0:
242,53,189730,6,0,P|195:30|147:28,1,99.9999999999999,0|8,0:0|0:0,0:0:0:0:
55,104,190416,2,0,L|26:163,2,50,0|2|8,0:0|0:0|0:0,0:0:0:0:
167,146,191101,6,0,P|204:183|210:232,1,99.9999999999999,0|8,0:0|0:0,0:0:0:0:
165,340,191787,2,0,L|114:357,2,50,0|2|8,0:0|0:0|0:0,0:0:0:0:
285,346,192473,6,0,P|382:325|404:236,1,200,4|0,0:0|0:0,0:0:0:0:
344,134,193501,1,8,0:0:0:0:
434,54,193844,6,0,P|341:15|247:58,1,200
182,147,194873,1,8,0:0:0:0:
183,268,195216,6,0,P|133:261|92:229,1,99.9999999999999,0|8,0:0|0:0,0:0:0:0:
66,115,195901,2,0,L|60:64,2,50,0|2|8,0:0|0:0|0:0,0:0:0:0:
182,147,196587,6,0,P|231:138|267:99,1,99.9999999999999,0|8,0:0|0:0,0:0:0:0:
375,55,197273,2,0,P|363:103|378:155,1,99.9999999999999,0|8,0:0|0:0,0:0:0:0:
403,269,197959,6,0,P|308:235|235:290,1,200
122,331,198987,1,8,0:0:0:0:
115,212,199330,6,0,P|107:160|70:125,2,99.9999999999999,0|8|0,0:0|0:0|0:0,0:0:0:0:
122,331,200359,1,8,0:0:0:0:
206,245,200701,6,0,P|252:196|334:194,2,150,0|0|8,0:0|0:0|0:0,0:0:0:0:
308,310,202073,2,0,P|387:307|433:258,2,150,0|0|8,0:0|0:0|0:0,0:0:0:0:
225,222,203444,6,0,P|205:148|134:116,1,150,4|0,0:0|0:0,0:0:0:0:
46,186,204301,2,0,L|73:240,1,50,2|8,0:0|0:0,0:0:0:0:
96,347,204816,6,0,P|160:317|247:330,1,150
354,348,205673,2,0,L|371:300,1,50,2|8,0:0|0:0,0:0:0:0:
458,218,206187,6,0,P|405:182|389:101,1,150
290,32,207044,2,0,L|262:74,1,50,2|8,0:0|0:0,0:0:0:0:
142,85,207559,6,0,P|151:135|189:167,1,99.9999999999999,0|8,0:0|0:0,0:0:0:0:
268,253,208244,2,0,P|298:212|300:160,1,99.9999999999999,0|8,0:0|0:0,0:0:0:0:
368,64,208930,6,0,P|417:118|414:197,1,150
429,310,209787,2,0,L|375:291,1,50,2|8,0:0|0:0,0:0:0:0:
268,253,210301,6,0,P|197:246|145:306,1,150
32,261,211159,2,0,L|61:207,1,50,2|8,0:0|0:0,0:0:0:0:
57,96,211673,6,0,P|115:130|200:109,1,150
285,38,212530,2,0,L|328:69,1,50,2|8,0:0|0:0,0:0:0:0:
397,163,213044,6,0,L|451:150,2,50,2|0|8,0:0|0:0|0:0,0:0:0:0:
339,183,213559,2,0,P|290:209|283:304,1,150,0|8,0:0|0:0,0:0:0:0:
172,352,214416,6,0,L|138:198,1,150,4|0,0:0|0:0,0:0:0:0:
156,86,215273,2,0,L|194:142,1,50,2|8,0:0|0:0,0:0:0:0:
276,203,215787,6,0,P|352:199|387:134,1,150
472,56,216644,2,0,L|421:40,1,50,2|8,0:0|0:0,0:0:0:0:
314,90,217159,6,0,P|374:124|401:201,1,150
441,310,218016,2,0,L|390:322,1,50,2|8,0:0|0:0,0:0:0:0:
273,337,218530,6,0,P|243:295|243:242,1,99.9999999999999,0|8,0:0|0:0,0:0:0:0:
120,249,219216,2,0,P|126:197|154:159,1,99.9999999999999,0|8,0:0|0:0,0:0:0:0:
193,46,219901,6,0,L|347:72,1,150
449,122,220759,2,0,L|405:154,1,50,2|8,0:0|0:0,0:0:0:0:
437,267,221273,6,0,L|283:241,1,150
198,163,222130,2,0,L|157:192,1,50,2|8,0:0|0:0,0:0:0:0:
70,274,222644,6,0,L|217:298,1,150
317,365,223501,2,0,L|357:335,1,50,2|8,0:0|0:0,0:0:0:0:
256,192,224016,12,4,225387,2:0:0:0:
