osu file format v12

[General]
AudioFilename: hito ayumishi unmei ni yosete.mp3
AudioLeadIn: 0
PreviewTime: 71787
Countdown: 0
SampleSet: Soft
StackLeniency: 0.7
Mode: 0
LetterboxInBreaks: 1
WidescreenStoryboard: 0

[Editor]
Bookmarks: 27771,44228,46971,49714,71656,90856,92228,93599,103199,115542,137485,159428,175885,181371,203314,225256
DistanceSpacing: 0.8
BeatDivisor: 4
GridSize: 8

[Metadata]
Title:Hito Ayumishi Unmei ni Yosete
TitleUnicode:人歩みし運命に寄せて
Artist:Dee! feat. Nomiya Ayumi
ArtistUnicode:Dee! feat. 野宮あゆみ
Creator:Mixagji
Version:Lunatic
Source:Touhou
Tags:ten desires toyosatomimi no miko shoutoku legend true administrator ore++ includeore
BeatmapID:255323
BeatmapSetID:94977

[Difficulty]
HPDrainRate:7
CircleSize:4
OverallDifficulty:8
ApproachRate:9
SliderMultiplier:0.899999999999999
SliderTickRate:1

[Events]
//Background and Video events
0,0,"dsf.jpg",0,0
//Break Periods
2,93930,102730
//Storyboard Layer 0 (Background)
//Storyboard Layer 1 (Fail)
//Storyboard Layer 2 (Pass)
//Storyboard Layer 3 (Foreground)
//Storyboard Sound Samples
//Background Colour Transformations
3,100,163,162,255

[TimingPoints]
5959,342.857142857143,4,2,2,60,1,0
38187,-100,4,2,1,70,0,0
38873,-100,4,2,2,70,0,0
44701,-80,4,2,1,70,0,0
45044,-66.6666666666667,4,2,1,75,0,0
45387,-50,4,2,1,80,0,0
47101,-50,4,2,2,85,0,0
49159,-50,4,2,1,60,0,0
49844,-50,4,2,2,70,0,0
50530,-50,4,2,1,70,0,0
51216,-50,4,2,2,70,0,0
51901,-50,4,2,1,70,0,0
52587,-50,4,2,2,70,0,0
53273,-50,4,2,1,70,0,0
53959,-50,4,2,2,70,0,0
54130,-50,4,2,1,70,0,0
54473,-50,4,2,2,70,0,0
54644,-50,4,2,1,70,0,0
55159,-50,4,2,2,70,0,0
56016,-50,4,2,1,70,0,0
56701,-50,4,2,2,70,0,0
57387,-50,4,2,1,70,0,0
58073,-50,4,2,2,70,0,0
58759,-50,4,2,1,70,0,0
59444,-50,4,2,2,70,0,0
59616,-50,4,2,1,70,0,0
60816,-50,4,2,2,70,0,0
61501,-50,4,2,1,70,0,0
62187,-50,4,2,2,70,0,0
62873,-50,4,2,1,70,0,0
63559,-50,4,2,2,70,0,0
64244,-50,4,2,1,70,0,0
64930,-50,4,2,2,70,0,0
65101,-50,4,2,1,70,0,0
65444,-50,4,2,2,70,0,0
65616,-50,4,2,1,70,0,0
66130,-50,4,2,2,70,0,0
66987,-50,4,2,1,70,0,0
67673,-50,4,2,2,70,0,0
68359,-50,4,2,1,70,0,0
69044,-50,4,2,2,70,0,0
69730,-50,4,2,1,70,0,0
71787,-50,4,2,2,70,0,0
71873,-50,4,2,1,70,0,0
73159,-50,4,2,2,70,0,0
73244,-50,4,2,1,70,0,0
74530,-50,4,2,2,70,0,0
74616,-50,4,2,1,70,0,0
75901,-50,4,2,2,70,0,0
75987,-50,4,2,1,70,0,0
76416,-50,4,2,2,70,0,0
76501,-50,4,2,1,70,0,0
77101,-50,4,2,2,70,0,0
77187,-50,4,2,1,70,0,0
78644,-50,4,2,2,70,0,0
78730,-50,4,2,1,70,0,0
80016,-50,4,2,2,70,0,0
80101,-50,4,2,1,70,0,0
81387,-50,4,2,2,70,0,0
81473,-50,4,2,1,70,0,0
82759,-50,4,2,2,70,0,0
82844,-50,4,2,1,70,0,0
84130,-50,4,2,2,70,0,0
84216,-50,4,2,1,70,0,0
85501,-50,4,2,2,70,0,0
85587,-50,4,2,1,70,0,0
86873,-50,4,2,2,70,0,0
86959,-50,4,2,1,70,0,0
87387,-50,4,2,2,70,0,0
87473,-50,4,2,1,70,0,0
88073,-50,4,2,2,70,0,0
88159,-50,4,2,1,70,0,0
89616,-50,4,2,2,70,0,0
90987,-50,4,2,2,70,0,0
125273,-50,4,2,1,70,0,0
126473,-50,4,2,2,70,0,0
130930,-50,4,2,1,70,0,0
131187,-50,4,2,2,70,0,0
131444,-50,4,2,1,70,0,0
131530,-50,4,2,2,70,0,0
131959,-50,4,2,1,70,0,0
132044,-50,4,2,2,70,0,0
160244,-50,4,2,1,70,0,0
160930,-50,4,2,2,70,0,0
161616,-50,4,2,1,70,0,0
163673,-50,4,2,2,70,0,0
163930,-50,4,2,1,70,0,0
165044,-50,4,2,2,70,0,0
165730,-50,4,2,1,70,0,0
166416,-50,4,2,2,70,0,0
167101,-50,4,2,1,70,0,0
167787,-50,4,2,2,70,0,0
169330,-50,4,2,1,70,0,0
169844,-50,4,2,2,70,0,0
170016,-50,4,2,1,70,0,0
170530,-50,4,2,2,70,0,0
171216,-50,4,2,1,70,0,0
171901,-50,4,2,2,70,0,0
172587,-50,4,2,1,70,0,0
174216,-50,4,2,2,70,0,0
174644,-50,4,2,1,70,0,0
175159,-50,4,2,2,70,0,0
175330,-50,4,2,1,70,0,0
175501,-50,4,2,2,70,0,0
178759,-50,4,1,1,40,0,0
179444,-50,4,1,1,55,0,0
180130,-50,4,1,1,70,0,0
180816,-50,4,2,1,70,0,0
181501,-50,4,2,2,80,0,1
203444,-50,4,2,2,70,0,0
203616,-50,4,2,1,70,0,0

[Colours]
Combo1 : 128,255,0
Combo2 : 128,255,255
Combo3 : 255,128,64

[HitObjects]
219,89,27901,2,0,L|234:135,1,45,2|0,0:0|0:0,0:0:0:0:
321,150,28244,2,0,P|308:197|274:224,1,89.9999999999999,8|0,0:0|0:0,0:0:0:0:
186,220,28759,1,0,3:0:0:0:
100,191,28930,2,0,L|45:175,1,45,8|0,0:0|0:0,0:0:0:0:
186,220,29273,2,0,P|214:257|222:304,1,89.9999999999999,2|8,0:0|0:0,0:0:0:0:
325,49,30130,6,0,L|292:145,1,89.9999999999999
321,220,30644,2,0,P|334:240|355:256,1,45,2|0,0:0|0:0,0:0:0:0:
377,339,30987,2,0,P|416:314|440:270,1,89.9999999999999,8|0,0:0|0:0,0:0:0:0:
436,186,31501,1,0,0:0:0:0:
409,99,31673,2,0,L|393:49,2,45,8|0|2,0:0|0:0|0:0,0:0:0:0:
436,186,32187,5,0,0:0:0:0:
358,233,32359,1,8,0:0:0:0:
291,173,32530,2,0,L|276:123,2,45,2|0|0,0:0|0:0|0:0,0:0:0:0:
271,261,33044,1,8,0:0:0:0:
180,260,33216,1,0,0:0:0:0:
89,163,33387,6,0,P|96:183|109:204,1,45,2|0,0:0|0:0,0:0:0:0:
180,260,33730,2,0,P|162:305|130:330,1,89.9999999999999,8|0,0:0|0:0,0:0:0:0:
194,211,34244,1,0,0:0:0:0:
185,121,34416,2,0,P|176:89|167:71,1,45,8|0,0:0|0:0,0:0:0:0:
297,32,34759,2,0,P|306:77|326:127,1,89.9999999999999,2|8,0:0|0:0,0:0:0:0:
318,298,35616,6,0,P|346:263|381:231,1,89.9999999999999
348,147,36130,2,0,P|371:144|394:145,1,45,2|0,0:0|0:0,0:0:0:0:
308,177,36473,2,0,P|263:190|215:194,1,89.9999999999999,8|0,0:0|0:0,0:0:0:0:
136,159,36987,2,0,L|91:142,2,45,0|8|0,0:0|0:0|0:0,0:0:0:0:
116,293,37501,6,0,P|164:301|215:290,1,89.9999999999999,8|8,0:0|0:0,0:0:0:0:
276,239,38016,1,0,0:0:0:0:
276,239,38101,1,0,0:0:0:0:
276,239,38187,2,0,L|344:254,2,67.5,2|2|2,0:0|0:0|0:0,0:0:0:0:
208,71,38873,6,0,P|202:96|203:125,1,45,4|0,0:0|0:0,0:0:0:0:
120,155,39216,2,0,P|124:200|139:254,1,89.9999999999999,8|0,0:0|0:0,0:0:0:0:
191,313,39730,1,0,0:0:0:0:
266,361,39901,2,0,P|272:337|272:313,1,45,8|0,0:0|0:0,0:0:0:0:
306,139,40244,2,0,L|382:196,1,89.9999999999999,2|8,0:0|0:0,0:0:0:0:
116,260,41101,6,0,P|159:239|194:211,1,89.9999999999999
219,126,41616,2,0,P|223:103|221:78,1,45,2|0,0:0|0:0,0:0:0:0:
289,198,41959,2,0,P|285:244|293:292,1,89.9999999999999,8|0,0:0|0:0,0:0:0:0:
369,332,42473,1,0,0:0:0:0:
435,271,42644,1,8,0:0:0:0:
414,183,42816,1,0,0:0:0:0:
256,192,42987,12,0,44016,0:0:0:0:
127,176,44359,6,0,L|154:188,3,22.5
189,276,44701,2,0,L|222:262,3,28.125,8|0|0|0,0:0|0:0|0:0|0:0,0:0:0:0:
304,303,45044,2,0,L|324:268,3,33.7500012874603
412,242,45387,2,0,L|415:197,3,45,8|0|0|0,0:0|0:0|0:0|0:0,0:0:0:0:
462,124,45730,5,0,0:0:0:0:
432,102,45816,1,0,0:0:0:0:
400,84,45901,1,0,0:0:0:0:
383,52,45987,1,0,0:0:0:0:
348,62,46073,1,8,0:0:0:0:
314,75,46159,1,0,0:0:0:0:
278,77,46244,1,0,0:0:0:0:
264,110,46330,1,0,0:0:0:0:
248,142,46416,6,0,L|223:161,16,22.5,0|0|0|0|0|0|0|0|0|0|0|0|2|2|2|2|4,0:0|0:0|0:0|0:0|0:0|0:0|0:0|0:0|0:0|0:0|0:0|0:0|0:0|0:0|0:0|0:0|0:0,0:0:0:0:
360,98,49159,6,0,L|376:70,2,22.5,2|0|0,0:0|0:0|0:0,0:0:0:0:
275,103,49330,2,0,L|252:153,1,45
176,168,49501,2,0,L|193:224,1,45,2|0,0:0|0:0,0:0:0:0:
152,285,49673,2,0,L|187:317,1,45
320,353,49844,6,0,B|331:306|331:306|331:263,1,89.9999999999999,4|0,0:0|0:0,0:0:0:0:
444,101,50187,1,8,0:0:0:0:
444,101,50359,1,0,0:0:0:0:
321,189,50530,5,2,0:0:0:0:
323,41,50701,1,2,0:0:0:0:
451,117,50873,2,0,B|448:161|448:161|431:210,1,89.9999999999999,8|2,0:0|0:0,0:0:0:0:
321,189,51216,5,2,0:0:0:0:
148,285,51387,1,0,0:0:0:0:
184,152,51559,2,0,B|169:108|169:108|166:64,1,89.9999999999999,8|0,0:0|0:0,0:0:0:0:
235,230,51901,1,2,0:0:0:0:
235,230,52073,1,2,0:0:0:0:
323,273,52244,2,0,B|338:317|338:317|341:361,1,89.9999999999999,8|2,0:0|0:0,0:0:0:0:
415,231,52587,5,2,0:0:0:0:
365,107,52759,1,0,0:0:0:0:
235,230,52930,1,8,0:0:0:0:
185,106,53101,1,0,0:0:0:0:
365,107,53273,6,0,P|333:139|287:150,1,89.9999999999999,2|2,0:0|0:0,0:0:0:0:
283,50,53616,1,8,0:0:0:0:
235,230,53787,1,2,0:0:0:0:
415,231,53959,5,2,0:0:0:0:
261,146,54130,1,2,0:0:0:0:
261,146,54216,1,0,0:0:0:0:
261,146,54301,1,8,0:0:0:0:
114,266,54473,1,2,0:0:0:0:
327,226,54644,5,2,0:0:0:0:
202,307,54816,1,2,0:0:0:0:
124,179,54987,1,8,0:0:0:0:
249,100,55159,1,2,0:0:0:0:
415,231,55330,6,0,P|423:277|423:323,1,89.9999999999999,4|0,0:0|0:0,0:0:0:0:
362,150,55673,1,8,0:0:0:0:
381,53,55844,1,0,0:0:0:0:
454,119,56016,5,2,0:0:0:0:
307,143,56187,1,2,0:0:0:0:
327,240,56359,5,8,0:0:0:0:
381,53,56530,1,2,0:0:0:0:
141,117,56701,6,0,B|191:122|191:122|241:116,1,89.9999999999999,2|0,0:0|0:0,0:0:0:0:
104,192,57044,1,8,0:0:0:0:
248,40,57216,2,0,B|298:35|298:35|348:41,1,89.9999999999999,0|2,0:0|0:0,0:0:0:0:
400,120,57559,1,2,0:0:0:0:
376,216,57730,2,0,B|368:264|368:264|368:305,1,89.9999999999999,8|2,0:0|0:0,0:0:0:0:
400,120,58073,5,2,0:0:0:0:
468,203,58244,1,0,0:0:0:0:
279,205,58416,1,8,0:0:0:0:
237,304,58587,1,0,0:0:0:0:
139,224,58759,1,2,0:0:0:0:
279,205,58930,2,0,B|265:161|265:161|232:124,1,89.9999999999999,2|8,0:0|0:0,0:0:0:0:
237,304,59273,1,2,0:0:0:0:
363,194,59444,5,2,0:0:0:0:
444,123,59616,1,2,0:0:0:0:
464,151,59701,1,0,0:0:0:0:
468,186,59787,1,8,0:0:0:0:
408,281,59959,1,2,0:0:0:0:
304,110,60130,2,0,L|283:71,2,45,2|0|0,0:0|0:0|0:0,0:0:0:0:
318,247,60473,1,8,0:0:0:0:
207,148,60644,1,2,0:0:0:0:
96,292,60816,6,0,B|136:271|136:271|164:237,1,89.9999999999999,4|0,0:0|0:0,0:0:0:0:
318,247,61159,1,8,0:0:0:0:
207,148,61330,2,0,B|187:103|187:103|181:59,1,89.9999999999999,0|2,0:0|0:0,0:0:0:0:
239,226,61673,1,2,0:0:0:0:
93,136,61844,1,8,0:0:0:0:
259,83,62016,1,2,0:0:0:0:
346,37,62187,6,0,B|353:83|353:83|347:130,1,89.9999999999999,2|0,0:0|0:0,0:0:0:0:
409,203,62530,1,8,0:0:0:0:
259,83,62701,1,0,0:0:0:0:
290,279,62873,2,0,B|283:233|283:233|289:186,1,89.9999999999999,2|2,0:0|0:0,0:0:0:0:
141,322,63216,2,0,L|239:346,1,89.9999999999999,8|2,0:0|0:0,0:0:0:0:
327,355,63559,5,2,0:0:0:0:
174,229,63730,1,0,0:0:0:0:
344,184,63901,1,8,0:0:0:0:
104,120,64073,1,0,0:0:0:0:
267,126,64244,2,0,L|179:94,1,89.9999999999999,2|2,0:0|0:0,0:0:0:0:
371,82,64587,2,0,L|282:48,1,89.9999999999999,8|2,0:0|0:0,0:0:0:0:
174,229,64930,5,2,0:0:0:0:
344,184,65101,1,0,0:0:0:0:
344,184,65187,1,0,0:0:0:0:
343,183,65273,1,8,0:0:0:0:
345,331,65444,1,2,0:0:0:0:
174,229,65616,5,2,0:0:0:0:
272,294,65787,1,0,0:0:0:0:
139,322,65959,1,8,0:0:0:0:
250,160,66130,1,2,0:0:0:0:
426,210,66301,6,0,B|382:214|382:214|338:203,1,89.9999999999999,4|0,0:0|0:0,0:0:0:0:
469,133,66644,1,8,0:0:0:0:
250,160,66816,2,0,B|218:127|218:127|198:81,1,89.9999999999999,0|2,0:0|0:0,0:0:0:0:
253,277,67159,2,0,B|245:323|245:323|248:371,2,89.9999999999999,2|8|2,0:0|0:0|0:0,0:0:0:0:
78,182,67673,6,0,P|125:182|175:204,1,89.9999999999999,2|0,0:0|0:0,0:0:0:0:
164,197,68016,1,8,0:0:0:0:
361,234,68187,2,0,P|314:234|264:256,1,89.9999999999999,0|2,0:0|0:0,0:0:0:0:
274,249,68530,1,2,0:0:0:0:
335,326,68701,1,8,0:0:0:0:
276,136,68873,1,2,0:0:0:0:
401,196,69044,6,0,B|449:188|449:188|486:165,1,89.9999999999999,2|0,0:0|0:0,0:0:0:0:
314,211,69387,1,8,0:0:0:0:
314,211,69559,1,0,0:0:0:0:
176,267,69730,1,2,0:0:0:0:
276,136,69901,1,2,0:0:0:0:
159,43,70073,2,0,L|195:130,1,89.9999999999999,8|2,0:0|0:0,0:0:0:0:
176,267,70416,6,0,P|147:277|123:298,1,45
240,236,70587,2,0,P|243:212|241:183,1,45
235,303,70759,2,0,P|251:324|277:339,1,45
405,282,70930,2,0,P|377:275|358:276,1,45
323,183,71101,2,0,P|351:188|369:187,1,45
437,116,71273,2,0,P|406:114|383:107,1,45
335,43,71444,5,8,0:0:0:0:
335,43,71787,6,0,L|245:56,1,89.9999999999999,4|0,0:0|0:0,0:0:0:0:
100,190,72130,1,8,0:0:0:0:
293,148,72301,2,0,B|250:166|250:166|205:177,1,89.9999999999999,2|0,0:0|0:0,0:0:0:0:
313,344,72644,1,0,0:2:0:0:
399,165,72816,2,0,B|402:210|402:210|383:257,1,89.9999999999999,8|2,0:0|0:0,0:0:0:0:
197,315,73159,5,2,0:0:0:0:
197,315,73330,1,0,0:0:0:0:
214,167,73501,2,0,P|203:119|180:84,1,89.9999999999999,8|2,0:0|0:0,0:0:0:0:
82,196,73844,2,0,P|93:244|116:279,1,89.9999999999999,0|2,0:0|0:0,0:0:0:0:
303,340,74187,2,0,L|267:258,1,89.9999999999999,8|2,0:0|0:0,0:0:0:0:
343,86,74530,6,0,B|338:130|338:130|313:169,1,89.9999999999999,2|0,0:0|0:0,0:0:0:0:
281,23,74873,1,8,0:0:0:0:
435,116,75044,2,0,B|438:165|438:165|435:197|435:197|438:235|438:235|427:299,1,180,2|2,0:0|0:0,0:0:0:0:
306,331,75559,1,8,0:0:0:0:
192,235,75730,1,2,0:0:0:0:
264,105,75901,5,2,0:0:0:0:
306,331,76073,1,2,0:0:0:0:
306,331,76159,1,0,0:0:0:0:
306,331,76244,1,8,0:0:0:0:
89,251,76416,2,0,B|123:282|123:282|164:308,1,89.9999999999999,2|2,0:0|0:0,0:0:0:0:
130,160,76759,1,0,0:0:0:0:
189,80,76930,2,0,B|155:49|155:49|114:23,1,89.9999999999999,8|2,0:0|0:0,0:0:0:0:
259,163,77273,6,0,P|314:164|354:163,1,89.9999999999999,2|0,0:0|0:0,0:0:0:0:
233,324,77616,1,8,0:0:0:0:
130,160,77787,2,0,P|116:206|108:249,1,89.9999999999999
188,66,78130,1,2,0:0:0:0:
385,48,78301,2,0,P|337:51|286:51,1,89.9999999999999,8|0,0:0|0:0,0:0:0:0:
453,171,78644,5,2,0:0:0:0:
453,171,78816,1,0,0:0:0:0:
264,235,78987,2,0,B|295:268|295:268|312:314,1,89.9999999999999,8|2,0:0|0:0,0:0:0:0:
336,163,79330,2,0,B|305:130|305:130|288:84,1,89.9999999999999,0|2,0:0|0:0,0:0:0:0:
453,171,79673,2,0,P|418:204|382:231,1,89.9999999999999,8|2,0:0|0:0,0:0:0:0:
170,142,80016,6,0,P|218:64|312:57,1,180,2|8,0:0|0:0,0:0:0:0:
272,152,80530,1,2,0:0:0:0:
125,226,80701,2,0,L|52:280,1,89.9999999999999,0|2,0:0|0:0,0:0:0:0:
232,269,81044,2,0,L|202:356,1,89.9999999999999,8|2,0:0|0:0,0:0:0:0:
245,87,81387,5,2,0:0:0:0:
334,263,81559,1,2,0:0:0:0:
366,279,81644,1,0,0:0:0:0:
402,276,81730,2,0,B|444:258|444:258|468:220,1,89.9999999999999,8|2,0:0|0:0,0:0:0:0:
384,40,82073,2,0,L|413:88,1,45,0|2,0:0|0:0,0:0:0:0:
390,194,82244,2,0,L|361:152,1,45,0|2,0:0|0:0,0:0:0:0:
309,87,82416,2,0,P|263:82|217:61,1,89.9999999999999,8|0,0:0|0:0,0:0:0:0:
53,132,82759,6,0,L|124:77,1,89.9999999999999,4|0,0:0|0:0,0:0:0:0:
283,194,83101,1,8,0:0:0:0:
92,248,83273,2,0,B|132:222|132:222|182:211,1,89.9999999999999,2|0,0:0|0:0,0:0:0:0:
343,313,83616,1,2,0:0:0:0:
283,194,83787,2,0,P|288:101|365:70,1,180,8|2,0:0|0:0,0:0:0:0:
446,269,84301,1,2,0:0:0:0:
366,216,84473,6,0,P|399:185|443:171,1,89.9999999999999,8|2,0:0|0:0,0:0:0:0:
343,313,84816,2,0,P|303:340|260:348,1,89.9999999999999,0|2,0:0|0:0,0:0:0:0:
75,215,85159,2,0,P|102:252|146:269,1,89.9999999999999,8|2,0:0|0:0,0:0:0:0:
291,139,85501,6,0,B|303:94|303:94|327:55,1,89.9999999999999,2|0,0:0|0:0,0:0:0:0:
230,204,85844,1,8,0:0:0:0:
396,96,86016,1,0,0:0:0:0:
361,188,86187,5,2,0:0:0:0:
203,120,86359,1,2,0:0:0:0:
268,283,86530,1,8,0:0:0:0:
73,215,86701,1,2,0:0:0:0:
123,59,86873,6,0,P|110:102|121:149,1,89.9999999999999,2|2,0:0|0:0,0:0:0:0:
119,145,87130,1,0,0:0:0:0:
119,145,87216,1,8,0:0:0:0:
165,317,87387,2,0,P|175:276|168:230,1,89.9999999999999,2|0,0:0|0:0,0:0:0:0:
73,215,87730,1,2,0:0:0:0:
262,193,87901,2,0,L|268:283,1,89.9999999999999,8|2,0:0|0:0,0:0:0:0:
205,94,88244,6,0,B|227:47|227:47|261:19,1,89.9999999999999,2|0,0:0|0:0,0:0:0:0:
424,128,88587,1,8,0:0:0:0:
262,193,88759,2,0,B|314:184|350:186|350:186|388:200|427:234,1,180,2|0,0:0|0:0,0:0:0:0:
279,365,89273,2,0,P|291:322|286:275,1,89.9999999999999,8|2,0:0|0:0,0:0:0:0:
170,157,89616,5,2,0:0:0:0:
170,157,89787,1,0,0:0:0:0:
112,237,89959,2,0,B|96:281|96:281|104:329,1,89.9999999999999,8|2,0:0|0:0,0:0:0:0:
252,117,90301,2,0,B|268:73|268:73|260:25,1,89.9999999999999,0|2,0:0|0:0,0:0:0:0:
170,157,90644,2,0,B|183:204|206:238|206:238|236:255|296:270,1,180,8|4,0:0|0:0,0:0:0:0:
256,192,92359,12,0,93730,0:0:0:0:
224,101,103330,6,0,L|176:101,1,45
192,192,103501,2,0,L|128:192,1,45,2|0,0:0|0:0,0:0:0:0:
160,280,103673,2,0,L|104:280,1,45,2|0,0:0|0:0,0:0:0:0:
248,256,103844,2,0,L|304:256,1,45,2|0,0:0|0:0,0:0:0:0:
288,168,104016,2,0,L|336:168,1,45,2|0,0:0|0:0,0:0:0:0:
320,80,104187,2,0,L|376:80,1,45,2|0,0:0|0:0,0:0:0:0:
424,152,104359,5,8,0:0:0:0:
424,156,104444,1,0,0:0:0:0:
424,160,104530,1,0,0:0:0:0:
424,164,104616,1,0,0:0:0:0:
424,168,104701,6,0,P|423:218|421:260,1,89.9999999999999,4|0,0:0|0:0,0:0:0:0:
354,331,105044,1,8,0:0:0:0:
182,267,105216,2,0,B|221:265|221:265|272:273,1,89.9999999999999
109,313,105559,5,0,0:0:0:0:
253,178,105730,1,8,0:0:0:0:
105,191,105901,1,0,0:0:0:0:
171,57,106073,6,0,P|176:102|176:152,1,89.9999999999999,2|0,0:0|0:0,0:0:0:0:
267,322,106416,2,0,P|267:277|272:232,1,89.9999999999999,8|0,0:0|0:0,0:0:0:0:
447,140,106759,1,0,0:0:0:0:
320,62,106930,5,0,0:0:0:0:
318,205,107101,1,8,0:0:0:0:
447,140,107273,1,0,0:0:0:0:
207,80,107444,6,0,B|243:119|243:119|286:133,1,89.9999999999999,2|0,0:0|0:0,0:0:0:0:
120,86,107787,1,8,0:0:0:0:
118,224,107959,2,0,B|162:218|162:218|208:190,1,89.9999999999999
386,58,108301,2,0,L|384:153,2,89.9999999999999,0|8|0,0:0|0:0|0:0,0:0:0:0:
318,205,108816,6,0,P|355:233|406:238,1,89.9999999999999,2|0,0:0|0:0,0:0:0:0:
397,239,109159,1,8,0:0:0:0:
237,123,109330,2,0,P|146:109|64:145,1,180,2|2,0:0|0:0,0:0:0:0:
115,335,109844,6,0,B|125:290|125:290|122:244,1,89.9999999999999,8|0,0:0|0:0,0:0:0:0:
229,349,110187,2,0,P|228:259|217:169,1,180,2|8,0:0|0:0,0:0:0:0:
364,36,110701,2,0,P|365:126|376:216,1,180,2|0,0:0|0:0,0:0:0:0:
276,208,111216,5,8,0:0:0:0:
455,123,111387,1,0,0:0:0:0:
387,255,111559,2,0,B|386:300|386:300|401:345,1,89.9999999999999,2|0,0:0|0:0,0:0:0:0:
316,163,111901,2,0,B|319:119|319:119|305:71,1,89.9999999999999,8|0,0:0|0:0,0:0:0:0:
158,208,112244,1,0,0:0:0:0:
207,206,112330,1,0,0:0:0:0:
250,230,112416,1,0,0:0:0:0:
270,274,112501,1,0,0:0:0:0:
274,323,112587,1,8,0:0:0:0:
317,163,112759,1,0,0:0:0:0:
247,31,112930,6,0,B|253:76|253:76|236:132,1,89.9999999999999,2|0,0:0|0:0,0:0:0:0:
274,323,113273,1,8,0:0:0:0:
158,208,113444,2,0,B|133:248|133:248|127:293,1,89.9999999999999,2|0,0:0|0:0,0:0:0:0:
127,290,113787,5,0,0:0:0:0:
99,144,113959,1,8,0:0:0:0:
234,82,114130,1,0,0:0:0:0:
350,174,114301,6,0,L|387:211,2,45,2|0|0,0:0|0:0|0:0,0:0:0:0:
234,82,114644,1,0,0:0:0:0:
264,264,114816,1,0,0:0:0:0:
202,192,114987,1,8,0:0:0:0:
241,161,115073,1,8,0:0:0:0:
288,148,115159,1,0,0:0:0:0:
319,109,115244,1,0,0:0:0:0:
366,93,115330,1,8,0:0:0:0:
274,322,115673,6,0,B|226:333|184:333|184:333|146:321|106:284,1,180,4|8,0:0|0:0,0:0:0:0:
109,87,116187,2,0,B|135:122|135:122|144:175,1,89.9999999999999
205,244,116530,1,2,0:0:0:0:
284,184,116701,2,0,P|303:143|308:95,1,89.9999999999999,8|0,0:0|0:0,0:0:0:0:
421,274,117044,6,0,B|432:221|403:181|403:181|411:142|447:101,1,180,2|8,0:0|0:0,0:0:0:0:
324,243,117559,2,0,P|280:257|253:292,1,89.9999999999999
253,290,117901,1,2,0:0:0:0:
338,341,118073,1,8,0:0:0:0:
222,180,118244,1,0,0:0:0:0:
246,33,118416,6,0,B|208:54|162:51|162:51|125:79|113:142,1,180,2|8,0:0|0:0,0:0:0:0:
106,310,118930,2,0,P|128:271|129:227,1,89.9999999999999
222,180,119273,1,2,0:0:0:0:
338,341,119444,1,8,0:0:0:0:
419,216,119616,1,0,0:0:0:0:
237,269,119787,6,0,L|324:244,1,89.9999999999999,2|0,0:0|0:0,0:0:0:0:
324,244,120130,1,8,0:0:0:0:
133,167,120301,2,0,L|223:180,1,89.9999999999999,2|0,0:0|0:0,0:0:0:0:
222,180,120644,1,2,0:0:0:0:
345,97,120816,5,8,0:0:0:0:
345,97,120987,1,0,0:0:0:0:
148,75,121159,6,0,L|177:253,1,180,2|8,0:0|0:0,0:0:0:0:
309,184,121673,2,0,L|324:279,1,89.9999999999999
345,97,122016,1,2,0:0:0:0:
423,259,122187,2,0,L|410:171,1,89.9999999999999,8|0,0:0|0:0,0:0:0:0:
252,304,122530,6,0,P|168:336|112:279,1,180,2|8,0:0|0:0,0:0:0:0:
137,81,123044,2,0,P|161:123|161:171,1,89.9999999999999
162,163,123387,1,2,0:0:0:0:
64,150,123559,1,8,0:0:0:0:
255,100,123730,1,0,0:0:0:0:
403,231,123901,6,0,P|310:232|241:180,1,180,2|8,0:0|0:0,0:0:0:0:
48,297,124416,2,0,L|99:223,1,89.9999999999999
187,267,124759,1,2,0:0:0:0:
137,81,124930,2,0,P|149:128|184:159,1,89.9999999999999,8|0,0:0|0:0,0:0:0:0:
327,158,125273,5,8,0:0:0:0:
280,298,125444,1,2,0:0:0:0:
300,343,125530,1,0,0:0:0:0:
346,358,125616,1,0,0:0:0:0:
187,267,125787,2,0,P|142:268|101:287,1,89.9999999999999,2|0,0:0|0:0,0:0:0:0:
59,260,126044,1,0,0:0:0:0:
39,214,126130,1,2,0:0:0:0:
56,167,126216,1,0,0:0:0:0:
100,146,126301,1,2,0:0:0:0:
198,158,126473,1,2,0:0:0:0:
376,107,126644,6,0,B|328:128|328:128|287:135,1,89.9999999999999,4|0,0:0|0:0,0:0:0:0:
290,134,126987,1,8,0:0:0:0:
214,317,127159,2,0,B|251:286|292:268|292:268|344:263|390:268,1,180,0|2,0:0|0:0,0:0:0:0:
208,190,127673,2,0,P|177:151|157:112,1,89.9999999999999,8|0,0:0|0:0,0:0:0:0:
60,287,128016,6,0,B|85:248|85:248|102:205,1,89.9999999999999,2|0,0:0|0:0,0:0:0:0:
101,207,128359,1,8,0:0:0:0:
201,37,128530,2,0,B|247:53|276:85|276:85|292:133|291:182,1,180,0|2,0:0|0:0,0:0:0:0:
329,326,129044,2,0,B|337:279|337:279|357:241,1,89.9999999999999,8|0,0:0|0:0,0:0:0:0:
258,255,129387,6,0,P|172:289|96:249,1,180,2|8,0:0|0:0,0:0:0:0:
254,129,129901,2,0,P|340:95|416:135,1,180,2|0,0:0|0:0,0:0:0:0:
416,321,130416,2,0,L|424:232,1,89.9999999999999,8|0,0:0|0:0,0:0:0:0:
331,196,130759,5,2,0:0:0:0:
183,182,130930,1,2,0:0:0:0:
142,154,131016,1,0,0:0:0:0:
131,105,131101,1,8,0:0:0:0:
149,301,131273,1,2,0:0:0:0:
182,192,131444,5,2,0:0:0:0:
262,300,131616,1,2,0:0:0:0:
371,221,131787,1,8,0:0:0:0:
291,111,131959,1,2,0:0:0:0:
183,202,132130,6,0,B|229:200|229:200|276:183,1,89.9999999999999,4|0,0:0|0:0,0:0:0:0:
270,185,132473,1,8,0:0:0:0:
468,183,132644,2,0,B|424:161|398:127|398:127|390:81|393:38,1,180,0|2,0:0|0:0,0:0:0:0:
393,37,133159,1,8,0:0:0:0:
371,221,133330,1,0,0:0:0:0:
224,87,133501,6,0,B|269:92|269:92|314:117,1,89.9999999999999,2|0,0:0|0:0,0:0:0:0:
308,113,133844,1,8,0:0:0:0:
342,308,134016,2,0,B|285:303|253:277|253:277|234:243|235:191,1,180,0|2,0:0|0:0,0:0:0:0:
60,125,134530,2,0,L|148:147,1,89.9999999999999,8|0,0:0|0:0,0:0:0:0:
127,244,134873,6,0,B|190:237|190:237|241:225|241:225|306:217,1,180,2|0,0:0|0:0,0:0:0:0:
215,336,135387,2,0,B|278:329|278:329|329:317|329:317|394:309,1,180
392,309,135901,1,0,0:0:0:0:
385,140,136244,6,0,B|322:147|322:147|271:159|271:159|206:167,1,180
297,48,136759,2,0,B|234:55|234:55|183:67|183:67|118:75,1,180
119,74,137273,1,0,0:0:0:0:
229,349,137616,6,0,P|248:308|251:258,1,89.9999999999999,4|0,0:0|0:0,0:0:0:0:
212,172,137959,2,0,L|139:117,1,89.9999999999999,8|0,0:0|0:0,0:0:0:0:
317,206,138301,1,0,0:0:0:0:
345,193,138387,1,0,0:0:0:0:
373,179,138473,1,2,0:0:0:0:
401,164,138559,1,0,0:0:0:0:
429,150,138644,1,8,0:0:0:0:
295,110,138816,1,0,0:0:0:0:
357,297,138987,5,0,0:0:0:0:
213,261,139159,1,0,0:0:0:0:
357,297,139330,1,8,0:0:0:0:
213,261,139501,1,0,0:0:0:0:
295,110,139673,2,0,L|288:62,1,45
215,29,139844,2,0,L|219:74,1,45,2|0,0:0|0:0,0:0:0:0:
225,147,140016,2,0,L|138:192,1,89.9999999999999,8|0,0:0|0:0,0:0:0:0:
115,283,140359,5,2,0:0:0:0:
137,86,140530,1,0,0:0:0:0:
321,84,140701,2,0,B|280:98|280:98|234:99,1,89.9999999999999,8|0,0:0|0:0,0:0:0:0:
417,112,141044,2,0,B|406:177|406:177|367:237,2,135,0|8|8,0:0|0:0|0:0,0:0:0:0:
240,202,141730,6,0,L|263:290,1,89.9999999999999,2|0,0:0|0:0,0:0:0:0:
352,331,142073,1,8,0:0:0:0:
167,258,142244,2,0,B|121:265|121:265|75:259,1,89.9999999999999,2|0,0:0|0:0,0:0:0:0:
200,341,142587,1,2,0:0:0:0:
321,184,142759,2,0,B|308:139|308:139|285:102,1,89.9999999999999,8|0,0:0|0:0,0:0:0:0:
90,137,143101,6,0,P|136:149|183:139,1,89.9999999999999,2|0,0:0|0:0,0:0:0:0:
228,56,143444,2,0,L|313:86,1,89.9999999999999,8|0,0:0|0:0,0:0:0:0:
341,282,143787,1,0,0:0:0:0:
386,263,143873,1,0,0:0:0:0:
416,224,143959,1,2,0:0:0:0:
418,174,144044,1,0,0:0:0:0:
399,140,144130,1,8,0:0:0:0:
313,189,144301,1,0,0:0:0:0:
260,328,144473,5,0,0:0:0:0:
216,186,144644,2,0,B|215:233|215:233|203:276,1,89.9999999999999,0|8,0:0|0:0,0:0:0:0:
123,215,144987,1,0,0:0:0:0:
215,39,145159,2,0,L|193:84,1,45
280,86,145330,2,0,L|301:45,1,45,2|0,0:0|0:0,0:0:0:0:
352,128,145501,2,0,B|338:174|338:174|344:229,1,89.9999999999999,8|0,0:0|0:0,0:0:0:0:
437,185,145844,5,2,0:0:0:0:
351,306,146016,1,0,0:0:0:0:
236,210,146187,1,8,0:0:0:0:
323,90,146359,1,0,0:0:0:0:
124,79,146530,6,0,P|120:148|168:187,1,135
236,210,146873,2,0,P|213:252|167:269,1,89.9999999999999,8|0,0:0|0:0,0:0:0:0:
124,79,147216,5,2,0:0:0:0:
124,79,147387,1,0,0:0:0:0:
294,52,147559,2,0,B|253:75|253:75|206:85,1,89.9999999999999,8|0,0:0|0:0,0:0:0:0:
248,149,147816,2,0,L|156:166,1,89.9999999999999
140,195,148073,1,2,0:0:0:0:
276,256,148244,1,8,0:0:0:0:
401,176,148416,1,8,0:0:0:0:
401,176,148587,6,0,P|392:131|394:88,1,89.9999999999999,4|0,0:0|0:0,0:0:0:0:
468,270,148930,2,0,P|436:302|396:328,1,89.9999999999999,8|0,0:0|0:0,0:0:0:0:
201,312,149273,1,0,0:0:0:0:
226,269,149359,1,0,0:0:0:0:
224,219,149444,1,2,0:0:0:0:
198,177,149530,1,0,0:0:0:0:
151,158,149616,2,0,L|63:183,1,89.9999999999999,8|0,0:0|0:0,0:0:0:0:
126,260,149959,5,0,0:0:0:0:
320,223,150130,1,0,0:0:0:0:
184,78,150301,2,0,P|222:103|268:109,1,89.9999999999999,8|0,0:0|0:0,0:0:0:0:
461,140,150644,2,0,L|415:138,1,45
435,237,150816,2,0,L|400:208,1,45,2|0,0:0|0:0,0:0:0:0:
339,160,150987,2,0,B|321:196|321:196|322:251,1,89.9999999999999,8|0,0:0|0:0,0:0:0:0:
351,340,151330,5,0,0:0:0:0:
257,309,151501,1,0,0:0:0:0:
163,274,151673,2,0,L|70:241,1,89.9999999999999,8|0,0:0|0:0,0:0:0:0:
130,52,152016,2,0,B|191:77|191:77|216:141,1,135
118,153,152359,2,0,B|79:177|79:177|64:220,1,89.9999999999999,8|0,0:0|0:0,0:0:0:0:
257,309,152701,6,0,P|253:264|231:226,1,89.9999999999999,2|0,0:0|0:0,0:0:0:0:
230,225,153044,1,8,0:0:0:0:
375,125,153216,2,0,P|332:125|293:148,1,89.9999999999999,2|0,0:0|0:0,0:0:0:0:
292,148,153559,1,2,0:0:0:0:
360,220,153730,1,8,0:0:0:0:
286,36,153901,1,0,0:0:0:0:
94,85,154073,6,0,P|123:159|214:161,1,180,2|8,0:0|0:0,0:0:0:0:
284,91,154587,1,0,0:0:0:0:
447,202,154759,1,0,0:0:0:0:
443,251,154844,1,0,0:0:0:0:
417,292,154930,1,2,0:0:0:0:
369,307,155016,1,0,0:0:0:0:
319,302,155101,2,0,P|286:255|270:225,1,89.9999999999999,8|0,0:0|0:0,0:0:0:0:
173,206,155444,5,2,0:0:0:0:
356,216,155616,1,0,0:0:0:0:
242,119,155787,1,8,0:0:0:0:
193,310,155959,1,0,0:0:0:0:
90,202,156130,2,0,L|57:166,2,45,0|0|2,0:0|0:0|0:0,0:0:0:0:
141,117,156473,1,8,0:0:0:0:
258,207,156644,1,0,0:0:0:0:
389,137,156816,6,0,P|425:166|441:209,1,89.9999999999999,2|0,0:0|0:0,0:0:0:0:
290,335,157159,1,8,0:0:0:0:
341,250,157330,1,0,0:0:0:0:
313,155,157501,2,0,P|278:103|210:82,1,135
150,33,157844,2,0,L|113:121,1,89.9999999999999,8|0,0:0|0:0,0:0:0:0:
115,264,158187,6,0,L|140:305,1,45
237,303,158359,2,0,L|260:344,1,45
227,197,158530,2,0,L|204:153,1,45
270,81,158701,2,0,L|250:41,1,45
349,48,158873,1,0,0:0:0:0:
396,58,158959,1,0,0:0:0:0:
426,97,159044,1,0,0:0:0:0:
438,145,159130,1,0,0:0:0:0:
424,192,159216,1,8,0:0:0:0:
418,208,159559,6,0,P|390:243|347:261,1,89.9999999999999,4|0,0:0|0:0,0:0:0:0:
231,350,159901,2,0,L|215:253,1,89.9999999999999,8|0,0:0|0:0,0:0:0:0:
270,70,160244,1,2,0:0:0:0:
168,178,160416,1,2,0:0:0:0:
120,29,160587,2,0,L|96:116,1,89.9999999999999,8|2,0:0|0:0,0:0:0:0:
124,306,160930,6,0,L|145:214,1,89.9999999999999,2|0,0:0|0:0,0:0:0:0:
262,172,161273,2,0,L|231:350,1,180,8|2,0:0|0:0,0:0:0:0:
351,263,161787,1,2,0:0:0:0:
395,174,161959,2,0,P|425:219|451:249,1,89.9999999999999,8|2,0:0|0:0,0:0:0:0:
292,53,162301,6,0,B|230:83|230:83|162:95,2,135,2|2|2,0:0|0:0|0:0,0:0:0:0:
220,331,162987,2,0,B|282:301|282:301|350:289,2,135,0|2|2,0:0|0:0|0:0,0:0:0:0:
141,167,163673,5,2,0:0:0:0:
118,263,163844,2,0,L|109:311,1,45,0|2,0:0|0:0,0:0:0:0:
205,267,164016,2,0,L|220:170,1,89.9999999999999,0|2,0:0|0:0,0:0:0:0:
377,220,164359,5,0,0:0:0:0:
205,267,164530,1,0,0:0:0:0:
248,93,164701,1,0,0:0:0:0:
343,119,164873,1,2,0:0:0:0:
269,185,165044,6,0,B|225:185|225:185|179:160,1,89.9999999999999,2|0,0:0|0:0,0:0:0:0:
44,303,165387,2,0,B|98:309|129:274|129:274|169:271|203:312,1,180,8|2,0:0|0:0,0:0:0:0:
63,217,165901,1,2,0:0:0:0:
118,134,166073,2,0,P|116:89|102:42,1,89.9999999999999,8|2,0:0|0:0,0:0:0:0:
158,220,166416,6,0,P|204:227|253:212,1,89.9999999999999,2|0,0:0|0:0,0:0:0:0:
392,83,166759,2,0,B|357:115|347:154|347:154|353:197|390:244,1,180,8|2,0:0|0:0,0:0:0:0:
447,160,167273,1,2,0:0:0:0:
351,333,167444,2,0,L|299:254,1,89.9999999999999,8|2,0:0|0:0,0:0:0:0:
184,39,167787,6,0,B|201:102|201:102|168:163,1,135,2|0,0:0|0:0,0:0:0:0:
92,182,168130,2,0,B|66:223|87:276,1,89.9999999999999,8|0,0:0|0:0,0:0:0:0:
329,230,168473,2,0,B|367:226|395:241|395:241|408:278|445:307,2,135,0|2|0,0:0|0:0|0:0,0:0:0:0:
234,344,169159,5,2,0:0:0:0:
167,282,169330,1,2,0:0:0:0:
160,246,169416,1,0,0:0:0:0:
175,213,169501,1,0,0:0:0:0:
255,172,169673,1,2,0:0:0:0:
105,171,169844,5,0,0:0:0:0:
129,144,169930,1,2,0:0:0:0:
153,117,170016,1,2,0:0:0:0:
178,91,170101,1,2,0:0:0:0:
201,65,170187,2,0,L|277:121,1,89.9999999999999,0|0,0:0|0:0,0:0:0:0:
442,151,170530,6,0,L|370:95,1,89.9999999999999,4|0,0:0|0:0,0:0:0:0:
201,64,170873,2,0,P|238:120|197:216,1,180,8|2,0:0|0:0,0:0:0:0:
196,216,171387,1,2,0:0:0:0:
338,328,171559,2,0,P|298:322|261:291,1,89.9999999999999,8|2,0:0|0:0,0:0:0:0:
113,158,171901,6,0,L|62:236,1,89.9999999999999,2|0,0:0|0:0,0:0:0:0:
230,164,172244,2,0,L|131:318,1,180,8|2,0:0|0:0,0:0:0:0:
271,261,172759,1,2,0:0:0:0:
309,117,172930,2,0,B|317:164|317:164|350:204,1,89.9999999999999,8|2,0:0|0:0,0:0:0:0:
370,343,173273,6,0,P|399:308|411:263,1,89.9999999999999,2|0,0:0|0:0,0:0:0:0:
472,208,173530,2,0,B|427:194|427:194|396:162|393:114,1,135,2|0,0:0|0:0,0:0:0:0:
261,46,173959,2,0,P|229:83|191:99,1,89.9999999999999,0|2,0:0|0:0,0:0:0:0:
118,71,174216,2,0,B|92:114|106:161|106:161|144:186,1,135,2|0,0:0|0:0,0:0:0:0:
287,161,174644,5,2,0:0:0:0:
330,184,174730,1,0,0:0:0:0:
345,230,174816,1,2,0:0:0:0:
340,279,174901,1,0,0:0:0:0:
307,316,174987,2,0,L|224:353,1,89.9999999999999,8|2,0:0|0:0,0:0:0:0:
391,348,175330,5,2,0:0:0:0:
253,242,175501,1,2,0:0:0:0:
86,188,175673,2,0,B|136:192|136:192|182:184,1,89.9999999999999,8|0,0:0|0:0,0:0:0:0:
380,46,176016,6,0,B|377:93|377:93|385:138,1,89.9999999999999,4|0,0:0|0:0,0:0:0:0:
400,182,176273,2,0,L|422:269,1,89.9999999999999
437,316,176530,1,0,0:0:0:0:
243,357,176701,2,0,B|253:313|253:313|248:263,1,89.9999999999999
239,218,176959,2,0,L|224:126,1,89.9999999999999
209,81,177216,1,0,0:0:0:0:
67,219,177387,6,0,B|106:242|106:242|152:242,1,89.9999999999999,4|0,0:0|0:0,0:0:0:0:
204,181,177644,2,0,L|297:195,1,89.9999999999999
341,258,177901,1,0,0:0:0:0:
461,100,178073,2,0,B|417:114|417:114|372:111,1,89.9999999999999
326,45,178330,2,0,L|241:78,1,89.9999999999999
161,56,178587,1,0,0:0:0:0:
125,200,178759,5,4,0:0:0:0:
233,343,178987,1,2,0:0:0:0:
375,232,179216,1,2,0:0:0:0:
266,89,179444,5,4,0:0:0:0:
128,222,179673,1,2,0:0:0:0:
259,344,179901,1,2,0:0:0:0:
380,210,180130,5,4,0:0:0:0:
368,106,180301,1,0,0:0:0:0:
470,73,180473,2,0,B|478:118|478:118|474:165,1,89.9999999999999,8|0,0:0|0:0,0:0:0:0:
459,264,180816,1,2,0:0:0:0:
445,311,180901,1,0,0:0:0:0:
405,340,180987,1,2,0:0:0:0:
355,343,181073,1,0,0:0:0:0:
311,318,181159,1,2,0:0:0:0:
287,275,181244,1,0,0:0:0:0:
252,239,181330,1,2,0:0:0:0:
202,231,181416,1,0,0:0:0:0:
156,249,181501,6,0,B|121:278|121:278|108:321,1,89.9999999999999,4|0,0:0|0:0,0:0:0:0:
160,161,181844,1,8,0:0:0:0:
133,65,182016,2,0,B|176:38|214:26|214:26|262:29|313:42,1,180,0|2,0:0|0:0,0:0:0:0:
395,214,182530,1,8,0:0:0:0:
268,134,182701,1,0,0:0:0:0:
438,90,182873,6,0,B|396:117|396:117|350:120,1,89.9999999999999,2|0,0:0|0:0,0:0:0:0:
234,275,183216,1,8,0:0:0:0:
268,134,183387,1,0,0:0:0:0:
128,175,183559,1,0,0:0:0:0:
245,277,183730,5,2,0:0:0:0:
259,132,183901,1,8,0:0:0:0:
126,192,184073,1,0,0:0:0:0:
332,233,184244,6,0,B|302:265|302:265|257:277,1,89.9999999999999,2|0,0:0|0:0,0:0:0:0:
210,198,184587,1,8,0:0:0:0:
386,146,184759,2,0,B|358:108|358:108|351:59,1,89.9999999999999,2|0,0:0|0:0,0:0:0:0:
449,80,185101,1,2,0:0:0:0:
259,132,185273,2,0,L|178:97,1,89.9999999999999,8|0,0:0|0:0,0:0:0:0:
34,234,185616,6,0,B|72:207|72:207|118:201,1,89.9999999999999,2|0,0:0|0:0,0:0:0:0:
115,201,185873,1,0,0:0:0:0:
115,201,185959,1,8,0:0:0:0:
217,309,186130,2,0,P|244:267|251:225,1,89.9999999999999,2|0,0:0|0:0,0:0:0:0:
250,228,186473,1,0,0:0:0:0:
295,75,186644,2,0,P|268:117|261:159,1,89.9999999999999,8|0,0:0|0:0,0:0:0:0:
455,196,186987,6,0,B|454:246|436:283|436:283|398:311|344:315,1,180,2|8,0:0|0:0,0:0:0:0:
217,309,187501,1,0,0:0:0:0:
154,173,187673,1,0,0:0:0:0:
127,268,187844,1,2,0:0:0:0:
287,158,188016,1,8,0:0:0:0:
322,250,188187,1,0,0:0:0:0:
226,224,188359,6,0,B|200:188|200:188|200:134,1,89.9999999999999,2|0,0:0|0:0,0:0:0:0:
334,36,188701,2,0,B|360:72|360:72|360:126,1,89.9999999999999,8|0,0:0|0:0,0:0:0:0:
299,306,189044,6,0,B|312:262|312:262|339:223,1,89.9999999999999,0|2,0:0|0:0,0:0:0:0:
218,315,189387,1,8,0:0:0:0:
412,240,189559,1,0,0:0:0:0:
276,179,189730,6,0,P|243:149|230:104,1,89.9999999999999,2|0,0:0|0:0,0:0:0:0:
153,43,190073,1,8,0:0:0:0:
61,194,190244,2,0,P|61:150|80:110,1,89.9999999999999,2|0,0:0|0:0,0:0:0:0:
112,281,190587,1,2,0:0:0:0:
211,276,190759,2,0,P|252:295|281:332,1,89.9999999999999,8|0,0:0|0:0,0:0:0:0:
377,316,191101,5,2,0:0:0:0:
300,188,191273,1,0,0:0:0:0:
300,188,191359,1,0,0:0:0:0:
300,188,191444,1,8,0:0:0:0:
365,55,191616,1,0,0:0:0:0:
300,188,191787,1,0,0:0:0:0:
250,194,191873,1,0,0:0:0:0:
201,182,191959,1,2,0:0:0:0:
167,145,192044,1,0,0:0:0:0:
157,96,192130,2,0,L|208:15,1,89.9999999999999,8|0,0:0|0:0,0:0:0:0:
256,104,192473,5,4,0:0:0:0:
387,172,192644,2,0,B|378:216|378:216|348:257,1,89.9999999999999,0|8,0:0|0:0,0:0:0:0:
239,350,192987,2,0,P|200:267|119:253,1,180,0|2,0:0|0:0,0:0:0:0:
141,349,193501,1,8,0:0:0:0:
256,188,193673,1,0,0:0:0:0:
145,40,193844,5,2,0:0:0:0:
145,40,194016,1,0,0:0:0:0:
44,149,194187,1,8,0:0:0:0:
44,149,194359,1,0,0:0:0:0:
188,253,194530,2,0,P|172:211|138:179,1,89.9999999999999,0|2,0:0|0:0,0:0:0:0:
141,349,194873,1,8,0:0:0:0:
328,284,195044,1,0,0:0:0:0:
437,118,195216,6,0,B|401:156|360:164|360:164|321:165|270:137,1,180,2|8,0:0|0:0,0:0:0:0:
145,40,195730,2,0,P|191:43|235:64,1,89.9999999999999,0|0,0:0|0:0,0:0:0:0:
170,249,196073,5,2,0:0:0:0:
316,225,196244,1,8,0:0:0:0:
157,343,196416,1,0,0:0:0:0:
285,131,196587,2,0,B|249:159|249:159|232:202,1,89.9999999999999,2|0,0:0|0:0,0:0:0:0:
255,296,196930,1,8,0:0:0:0:
175,106,197101,2,0,B|133:125|133:125|105:162,1,89.9999999999999,2|0,0:0|0:0,0:0:0:0:
74,253,197444,1,2,0:0:0:0:
255,296,197616,5,8,0:0:0:0:
346,258,197787,1,0,0:0:0:0:
435,215,197959,2,0,P|466:130|405:78,1,180,2|8,0:0|0:0,0:0:0:0:
216,24,198473,2,0,P|185:109|246:161,1,180,2|2,0:0|0:0,0:0:0:0:
346,258,198987,5,8,0:0:0:0:
201,290,199159,1,0,0:0:0:0:
171,144,199330,2,0,L|142:235,1,89.9999999999999
289,95,199673,2,0,L|262:186,1,89.9999999999999,8|0,0:0|0:0,0:0:0:0:
408,45,200016,2,0,L|376:139,1,89.9999999999999,0|2,0:0|0:0,0:0:0:0:
346,258,200359,1,8,0:0:0:0:
346,258,200530,1,0,0:0:0:0:
92,224,200701,6,0,P|165:279|250:283,1,180,2|8,0:0|0:0,0:0:0:0:
303,192,201216,1,0,0:0:0:0:
278,86,201387,1,0,0:0:0:0:
195,209,201559,1,2,0:0:0:0:
187,60,201730,2,0,L|139:146,1,89.9999999999999,8|0,0:0|0:0,0:0:0:0:
338,31,202073,5,0,0:0:0:0:
381,55,202159,1,0,0:0:0:0:
412,92,202244,1,0,0:0:0:0:
415,141,202330,1,0,0:0:0:0:
396,187,202416,1,0,0:0:0:0:
361,222,202501,1,0,0:0:0:0:
311,229,202587,1,0,0:0:0:0:
261,225,202673,1,0,0:0:0:0:
215,204,202759,6,0,L|173:185,1,45
79,215,202930,2,0,L|121:240,1,45
144,314,203101,2,0,L|242:304,1,89.9999999999999,8|0,0:0|0:0,0:0:0:0:
309,106,203444,5,4,0:0:0:0:
177,75,203616,1,2,0:0:0:0:
215,204,203787,1,2,0:0:0:0:
299,100,203959,5,0,0:0:0:0:
165,83,204130,1,2,0:0:0:0:
216,208,204301,1,2,0:0:0:0:
289,96,204473,5,0,0:0:0:0:
154,93,204644,1,2,0:0:0:0:
218,212,204816,1,2,0:0:0:0:
279,93,204987,5,0,0:0:0:0:
144,105,205159,1,2,0:0:0:0:
220,216,205330,1,2,0:0:0:0:
269,91,205501,5,0,0:0:0:0:
136,117,205673,1,2,0:0:0:0:
223,219,205844,1,2,0:0:0:0:
258,91,206016,5,0,0:0:0:0:
129,130,206187,1,2,0:0:0:0:
226,222,206359,1,2,0:0:0:0:
248,91,206530,5,0,0:0:0:0:
123,143,206701,1,2,0:0:0:0:
229,225,206873,1,2,0:0:0:0:
237,92,207044,5,0,0:0:0:0:
119,157,207216,1,2,0:0:0:0:
233,228,207387,1,2,0:0:0:0:
389,105,207559,6,0,P|414:142|425:188,1,89.9999999999999,2|0,0:0|0:0,0:0:0:0:
418,333,207901,2,0,P|384:304|367:262,1,89.9999999999999,2|0,0:0|0:0,0:0:0:0:
389,105,208244,2,0,P|357:139|308:153,1,89.9999999999999,2|0,0:0|0:0,0:0:0:0:
123,105,208587,2,0,P|155:139|204:153,1,89.9999999999999,2|0,0:0|0:0,0:0:0:0:
268,100,208930,5,2,0:0:0:0:
411,208,209101,2,0,L|352:278,1,89.9999999999999,0|2,0:0|0:0,0:0:0:0:
266,115,209444,5,2,0:0:0:0:
409,223,209616,2,0,L|350:293,1,89.9999999999999,0|2,0:0|0:0,0:0:0:0:
264,129,209959,5,0,0:0:0:0:
407,237,210130,2,0,L|348:307,1,89.9999999999999,2|2,0:0|0:0,0:0:0:0:
261,148,210473,5,0,0:0:0:0:
404,256,210644,2,0,L|345:326,1,89.9999999999999,2|0,0:0|0:0,0:0:0:0:
256,166,210987,5,0,0:0:0:0:
399,274,211159,2,0,L|340:344,1,89.9999999999999,2|2,0:0|0:0,0:0:0:0:
254,183,211501,5,0,0:0:0:0:
397,291,211673,2,0,L|338:361,1,89.9999999999999,2|0,0:0|0:0,0:0:0:0:
261,312,212016,5,2,0:0:0:0:
173,292,212187,1,0,0:0:0:0:
83,276,212359,1,2,0:0:0:0:
204,261,212530,5,2,0:0:0:0:
166,179,212701,1,0,0:0:0:0:
121,100,212873,1,2,0:0:0:0:
246,149,213044,5,0,0:0:0:0:
54,194,213216,1,0,0:0:0:0:
54,194,213301,1,0,0:0:0:0:
54,194,213387,1,0,0:0:0:0:
111,69,213559,2,0,B|154:43|191:29|191:29|245:29|284:38,1,180
389,132,214073,1,0,0:0:0:0:
389,132,214244,1,0,0:0:0:0:
375,329,214416,6,0,L|328:249,1,89.9999999999999
329,251,214759,1,2,0:0:0:0:
137,329,214930,6,0,L|184:249,1,89.9999999999999
182,251,215273,1,2,0:0:0:0:
256,352,215444,6,0,L|256:256,1,89.9999999999999
256,262,215787,1,2,0:0:0:0:
51,223,215959,6,0,L|142:192,1,89.9999999999999
136,193,216301,1,2,0:0:0:0:
461,223,216473,6,0,L|375:193,1,89.9999999999999
375,193,216816,1,2,0:0:0:0:
256,32,216987,6,0,L|256:128,1,89.9999999999999
256,122,217330,1,2,0:0:0:0:
137,55,217501,6,0,L|182:132,1,89.9999999999999
182,132,217844,1,2,0:0:0:0:
375,55,218016,6,0,L|329:132,1,89.9999999999999
329,132,218359,1,2,0:0:0:0:
276,322,218530,6,0,P|246:288|233:243,1,89.9999999999999,2|0,0:0|0:0,0:0:0:0:
126,212,218873,2,0,P|160:182|205:169,1,89.9999999999999,2|0,0:0|0:0,0:0:0:0:
236,61,219216,2,0,P|266:96|279:141,1,89.9999999999999,2|0,0:0|0:0,0:0:0:0:
386,171,219559,2,0,P|352:202|307:215,1,89.9999999999999,2|0,0:0|0:0,0:0:0:0:
145,104,219901,6,0,L|64:148,2,89.9999999999999,2|0|2,0:0|0:0|0:0,0:0:0:0:
84,293,220416,6,0,L|165:249,2,89.9999999999999,2|0|2,0:0|0:0|0:0,0:0:0:0:
232,161,220930,6,0,L|277:242,2,89.9999999999999,2|0|2,0:0|0:0|0:0,0:0:0:0:
419,227,221444,6,0,L|375:146,2,89.9999999999999,2|0|2,0:0|0:0|0:0,0:0:0:0:
259,345,221959,6,0,L|335:291,2,89.9999999999999,2|0|2,0:0|0:0|0:0,0:0:0:0:
165,311,222473,1,0,0:0:0:0:
128,116,222644,6,0,P|156:153|162:197,1,89.9999999999999,2|0,0:0|0:0,0:0:0:0:
94,255,222987,1,0,0:0:0:0:
241,263,223159,2,0,L|165:311,1,89.9999999999999,2|0,0:0|0:0,0:0:0:0:
284,176,223501,1,2,0:0:0:0:
305,88,223673,2,0,L|381:40,1,89.9999999999999,0|2,0:0|0:0,0:0:0:0:
201,35,224016,5,0,0:0:0:0:
160,54,224101,1,0,0:0:0:0:
128,85,224187,1,0,0:0:0:0:
113,127,224273,1,0,0:0:0:0:
112,172,224359,1,0,0:0:0:0:
130,213,224444,1,0,0:0:0:0:
153,250,224530,1,0,0:0:0:0:
192,271,224616,1,0,0:0:0:0:
236,274,224701,6,0,L|263:267,16,22.5,0|0|0|0|0|0|0|0|0|0|0|0|0|0|0|0|4,0:0|0:0|0:0|0:0|0:0|0:0|0:0|0:0|0:0|0:0|0:0|0:0|0:0|0:0|0:0|0:0|0:0,0:0:0:0:
