osu file format v12

[General]
AudioFilename: hito ayumishi unmei ni yosete.mp3
AudioLeadIn: 0
PreviewTime: 71787
Countdown: 0
SampleSet: Soft
StackLeniency: 0.7
Mode: 0
LetterboxInBreaks: 1
WidescreenStoryboard: 0

[Editor]
Bookmarks: 27771,44228,46971,49714,71656,90856,92228,93599,103199,115542,137485,159428,175885,181371,203314,225256
DistanceSpacing: 1.1
BeatDivisor: 2
GridSize: 8

[Metadata]
Title:Hito Ayumishi Unmei ni Yosete
TitleUnicode:人歩みし運命に寄せて
Artist:Dee! feat. Nomiya Ayumi
ArtistUnicode:Dee! feat. 野宮あゆみ
Creator:Mixagji
Version:Easy
Source:Touhou
Tags:ten desires toyosatomimi no miko shoutoku legend true administrator ore++ includeore
BeatmapID:286991
BeatmapSetID:94977

[Difficulty]
HPDrainRate:2
CircleSize:3
OverallDifficulty:2
ApproachRate:3
SliderMultiplier:0.799999999999999
SliderTickRate:1

[Events]
//Background and Video events
0,0,"dsf.jpg",0,0
//Break Periods
2,93930,103261
//Storyboard Layer 0 (Background)
//Storyboard Layer 1 (Fail)
//Storyboard Layer 2 (Pass)
//Storyboard Layer 3 (Foreground)
//Storyboard Sound Samples
//Background Colour Transformations
3,100,163,162,255

[TimingPoints]
5959,342.857142857143,4,2,2,60,1,0
181501,-100,4,2,2,80,0,1
203444,-100,4,2,2,70,0,0
203616,-100,4,2,2,70,0,0
224016,-100,4,2,1,70,0,0

[Colours]
Combo1 : 128,255,0
Combo2 : 128,255,255
Combo3 : 255,128,64

[HitObjects]
81,172,27901,2,0,P|139:124|224:142,1,160,2|0,0:0|0:0,0:0:0:0:
245,221,28930,1,8,0:0:0:0:
283,299,29273,2,0,P|354:343|430:318,2,160,0|0|2,0:0|0:0|0:0,0:0:0:0:
361,259,30987,6,0,P|388:184|350:119,1,160,8|8,0:0|0:0,0:0:0:0:
271,77,32016,2,0,L|189:64,2,79.9999999999999,2|8|0,0:0|0:0|0:0,0:0:0:0:
265,164,33044,1,8,0:0:0:0:
187,206,33387,6,0,P|247:254|324:228,1,160,0|0,0:0|0:0,0:0:0:0:
366,155,34416,1,8,0:0:0:0:
392,70,34759,2,0,P|431:89|452:126,1,79.9999999999999,2|8,0:0|0:0,0:0:0:0:
423,248,35616,6,0,P|394:303|336:317,1,120,2|2,0:0|0:0,0:0:0:0:
257,343,36473,2,0,P|209:277|234:196,1,160,8|8,0:0|0:0,0:0:0:0:
245,119,37501,6,0,L|148:101,1,79.9999999999999,2|8,0:0|0:0,0:0:0:0:
97,49,38187,2,0,B|47:98|105:142|42:206,1,160,0|4,0:0|0:0,0:0:0:0:
73,281,39216,6,0,P|144:320|223:291,1,160,8|8,0:0|0:0,0:0:0:0:
294,259,40244,2,0,P|275:219|275:181,1,79.9999999999999,2|8,0:0|0:0,0:0:0:0:
230,59,41101,6,0,P|296:55|346:88,1,120,2|2,0:0|0:0,0:0:0:0:
424,54,41959,2,0,L|411:223,1,160,8|8,0:0|0:0,0:0:0:0:
383,296,42987,6,0,P|344:318|304:321,1,79.9999999999999,2|8,0:0|0:0,0:0:0:0:
235,273,43673,2,0,P|191:274|157:297,1,79.9999999999999,0|8,0:0|0:0,0:0:0:0:
256,192,44359,12,2,47101,0:0:0:0:
132,131,49844,6,0,P|196:92|281:115,1,160,4|0,0:0|0:0,0:0:0:0:
308,192,50873,1,8,0:0:0:0:
224,220,51216,6,0,P|152:255|150:335,1,160,2|0,0:0|0:0,0:0:0:0:
232,311,52244,1,8,0:0:0:0:
303,259,52587,6,0,P|341:275|385:270,2,79.9999999999999,2|8|0,0:0|0:0|0:0,0:0:0:0:
224,220,53616,1,8,0:0:0:0:
199,135,53959,6,0,P|117:127|70:194,1,160,2|0,0:0|0:0,0:0:0:0:
89,268,54987,1,8,0:0:0:0:
140,339,55330,6,0,L|309:339,1,160,2|0,0:0|0:0,0:0:0:0:
377,297,56359,1,8,0:0:0:0:
330,222,56701,6,0,P|291:148|328:84,1,160,2|0,0:0|0:0,0:0:0:0:
404,49,57730,1,8,0:0:0:0:
452,122,58073,6,0,P|491:196|454:260,1,160,2|0,0:0|0:0,0:0:0:0:
396,320,59101,1,8,0:0:0:0:
320,274,59444,6,0,P|283:257|243:260,2,79.9999999999999,2|8|2,0:0|0:0|0:0,0:0:0:0:
264,351,60473,1,8,0:0:0:0:
177,334,60816,6,0,P|136:266|167:197,1,160,4|0,0:0|0:0,0:0:0:0:
166,109,61844,1,8,0:0:0:0:
234,54,62187,6,0,L|394:100,1,160,2|0,0:0|0:0,0:0:0:0:
418,181,63216,1,8,0:0:0:0:
467,253,63559,6,0,P|389:264|329:205,1,160,2|0,0:0|0:0,0:0:0:0:
255,170,64587,1,8,0:0:0:0:
173,202,64930,6,0,P|150:240|148:282,2,79.9999999999999,2|8|2,0:0|0:0|0:0,0:0:0:0:
187,114,65959,1,8,0:0:0:0:
262,68,66301,6,0,P|195:29|122:56,1,160,2|0,0:0|0:0,0:0:0:0:
88,137,67330,1,8,0:0:0:0:
149,200,67673,2,0,P|173:272|125:333,1,160,2|0,0:0|0:0,0:0:0:0:
84,254,68701,1,8,0:0:0:0:
28,185,69044,2,0,P|59:82|186:76,1,240,2|8,0:0|0:0,0:0:0:0:
463,139,71787,6,0,P|415:206|342:206,1,160,4|0,0:0|0:0,0:0:0:0:
291,135,72816,2,0,L|235:203,1,79.9999999999999,8|2,0:0|0:0,0:0:0:0:
152,203,73501,6,0,P|111:183|74:182,2,79.9999999999999,8|0|8,0:0|0:0|0:0,0:0:0:0:
205,273,74530,6,0,P|262:329|341:314,1,160,2|0,0:0|0:0,0:0:0:0:
395,252,75559,1,8,0:0:0:0:
391,164,75901,2,0,P|334:108|255:123,1,160,2|0,0:0|0:0,0:0:0:0:
173,104,76930,1,8,0:0:0:0:
88,129,77273,6,0,P|141:190|219:180,1,160,2|0,0:0|0:0,0:0:0:0:
298,206,78301,2,0,P|322:241|326:286,1,79.9999999999999,8|0,0:0|0:0,0:0:0:0:
289,357,78987,6,0,L|198:365,2,79.9999999999999,8|0|8,0:0|0:0|0:0,0:0:0:0:
376,344,80016,6,0,P|455:329|477:251,1,160,2|0,0:0|0:0,0:0:0:0:
450,177,81044,1,8,0:0:0:0:
401,103,81387,2,0,L|240:72,1,160,2|0,0:0|0:0,0:0:0:0:
161,104,82416,1,8,0:0:0:0:
174,191,82759,6,0,P|149:271|77:295,2,160,4|0|2,0:0|0:0|0:0,0:0:0:0:
260,172,84473,6,0,P|289:200|299:241,2,79.9999999999999,8|0|8,0:0|0:0|0:0,0:0:0:0:
201,106,85501,6,0,P|262:52|339:71,1,160,2|0,0:0|0:0,0:0:0:0:
392,132,86530,1,8,0:0:0:0:
444,202,86873,2,0,P|435:284|364:321,1,160,2|0,0:0|0:0,0:0:0:0:
285,319,87901,1,8,0:0:0:0:
218,261,88244,6,0,P|139:261|95:325,2,160,2|0|2,0:0|0:0|0:0,0:0:0:0:
293,214,89959,6,0,P|314:181|320:142,2,79.9999999999999,8|0|8,0:0|0:0|0:0,0:0:0:0:
228,154,90987,1,4,0:0:0:0:
256,192,92359,12,0,93730,0:0:0:0:
349,138,104701,6,0,P|299:202|223:197,1,160,4|0,0:0|0:0,0:0:0:0:
161,138,105730,1,8,0:0:0:0:
94,80,106073,2,0,L|24:132,2,79.9999999999999,2|8|0,0:0|0:0|0:0,0:0:0:0:
178,55,107101,1,8,0:0:0:0:
243,113,107444,6,0,P|275:186|257:266,2,160,2|0|2,0:0|0:0|0:0,0:0:0:0:
179,174,109159,2,0,P|125:228|28:209,1,160,8|8,0:0|0:0,0:0:0:0:
5,300,110187,6,0,P|30:337|74:356,1,79.9999999999999,2|8,0:0|0:0,0:0:0:0:
148,352,110873,2,0,P|191:347|225:329,1,79.9999999999999,0|8,0:0|0:0,0:0:0:0:
288,271,111559,6,0,P|356:223|428:252,1,160,2|0,0:0|0:0,0:0:0:0:
368,315,112587,1,8,0:0:0:0:
291,358,112930,2,0,P|224:332|203:250,1,160,2|0,0:0|0:0,0:0:0:0:
233,170,113959,5,8,0:0:0:0:
305,120,114301,2,0,P|335:91|345:51,1,79.9999999999999,2|0,0:0|0:0,0:0:0:0:
257,44,114987,2,0,L|159:34,1,79.9999999999999,0|8,0:0|0:0,0:0:0:0:
90,53,115673,6,0,P|35:112|50:190,1,160,4|0,0:0|0:0,0:0:0:0:
99,255,116701,1,8,0:0:0:0:
186,243,117044,6,0,P|267:221|328:265,1,160,2|0,0:0|0:0,0:0:0:0:
370,337,118073,1,8,0:0:0:0:
432,274,118416,6,0,P|466:201|444:126,1,160,2|0,0:0|0:0,0:0:0:0:
372,78,119444,1,8,0:0:0:0:
299,127,119787,6,0,P|216:150|148:115,1,160,2|0,0:0|0:0,0:0:0:0:
111,41,120816,1,8,0:0:0:0:
38,90,121159,6,0,P|26:171|79:226,1,160,2|0,0:0|0:0,0:0:0:0:
162,234,122187,1,8,0:0:0:0:
224,172,122530,6,0,P|284:115|358:129,1,160,2|0,0:0|0:0,0:0:0:0:
402,200,123559,1,8,0:0:0:0:
474,150,123901,6,0,P|488:230|433:283,1,160,2|0,0:0|0:0,0:0:0:0:
348,280,124930,1,8,0:0:0:0:
260,276,125273,6,0,P|223:299|207:339,2,79.9999999999999,2|8|2,0:0|0:0|0:0,0:0:0:0:
307,201,126301,1,8,0:0:0:0:
332,116,126644,6,0,P|274:57|197:60,1,160,4|0,0:0|0:0,0:0:0:0:
116,81,127673,1,8,0:0:0:0:
57,146,128016,6,0,P|38:220|82:285,1,160,2|0,0:0|0:0,0:0:0:0:
149,342,129044,1,8,0:0:0:0:
191,265,129387,6,0,P|233:197|311:193,1,160,2|0,0:0|0:0,0:0:0:0:
380,239,130416,1,8,0:0:0:0:
407,322,130759,6,0,P|468:267|456:194,1,160,2|0,0:0|0:0,0:0:0:0:
407,123,131787,1,8,0:0:0:0:
340,64,132130,6,0,L|188:121,1,160,2|0,0:0|0:0,0:0:0:0:
145,196,133159,1,8,0:0:0:0:
149,283,133501,6,0,P|232:276|300:219,1,160,2|0,0:0|0:0,0:0:0:0:
379,234,134530,1,8,0:0:0:0:
460,201,134873,6,0,P|465:259|430:309,2,120,2|0|0,0:0|0:0|0:0,0:0:0:0:
392,144,136244,2,0,P|387:86|422:36,2,120
314,186,137616,6,0,P|228:186|178:130,1,160,4|0,0:0|0:0,0:0:0:0:
120,300,138987,2,0,L|35:336,2,79.9999999999999,2|8|0,0:0|0:0|0:0,0:0:0:0:
208,305,140016,1,8,0:0:0:0:
292,335,140359,6,0,P|373:328|413:260,1,160,2|0,0:0|0:0,0:0:0:0:
416,90,141730,2,0,L|290:51,2,120,2|2|8,0:0|0:0|0:0,0:0:0:0:
404,177,143101,6,0,P|323:190|294:259,1,160,2|0,0:0|0:0,0:0:0:0:
162,137,144473,2,0,P|122:134|85:154,2,79.9999999999999,2|8|0,0:0|0:0|0:0,0:0:0:0:
208,212,145501,1,8,0:0:0:0:
247,133,145844,6,0,P|294:67|372:69,2,160,2|0|2,0:0|0:0|0:0,0:0:0:0:
310,194,147559,1,8,0:0:0:0:
374,253,147901,2,0,P|392:291|393:337,1,79.9999999999999,0|8,0:0|0:0,0:0:0:0:
306,336,148587,6,0,P|225:311|160:346,1,160,4|0,0:0|0:0,0:0:0:0:
52,205,149959,2,0,L|76:124,2,79.9999999999999,2|8|0,0:0|0:0|0:0,0:0:0:0:
68,291,150987,1,8,0:0:0:0:
148,256,151330,6,0,P|217:206|224:133,1,160,2|0,0:0|0:0,0:0:0:0:
369,36,152701,2,0,L|460:126,2,120,2|2|8,0:0|0:0|0:0,0:0:0:0:
326,113,154073,6,0,P|297:188|347:252,1,160,2|0,0:0|0:0,0:0:0:0:
195,350,155444,1,2,0:0:0:0:
235,271,155787,1,8,0:0:0:0:
210,186,156130,1,0,0:0:0:0:
131,145,156473,6,0,L|48:124,1,79.9999999999999,8|2,0:0|0:0,0:0:0:0:
99,50,157159,1,8,0:0:0:0:
184,69,157501,2,0,L|274:94,1,79.9999999999999,0|8,0:0|0:0,0:0:0:0:
345,116,158187,6,0,P|415:210|355:302,1,240,0|8,0:0|0:0,0:0:0:0:
268,299,159559,6,0,P|226:313|198:346,1,79.9999999999999,4|8,0:0|0:0,0:0:0:0:
114,326,160244,2,0,P|69:259|93:189,1,160,0|2,0:0|0:0,0:0:0:0:
172,152,161273,1,8,0:0:0:0:
259,144,161616,2,0,P|302:126|324:97,1,79.9999999999999,0|8,0:0|0:0,0:0:0:0:
376,169,162301,6,0,P|406:115|395:48,2,120,0|0|8,0:0|0:0|0:0,0:0:0:0:
305,222,163673,2,0,P|307:277|349:330,2,120,2|2|8,0:0|0:0|0:0,0:0:0:0:
290,135,165044,6,0,P|234:85|153:100,1,160,2|0,0:0|0:0,0:0:0:0:
85,152,166073,1,8,0:0:0:0:
82,240,166416,2,0,P|139:298|221:288,1,160,2|0,0:0|0:0,0:0:0:0:
298,272,167444,1,8,0:0:0:0:
363,212,167787,6,0,P|420:234|450:298,2,120,2|0|8,0:0|0:0|0:0,0:0:0:0:
277,189,169159,2,0,P|236:163|223:132,1,79.9999999999999,2|8,0:0|0:0,0:0:0:0:
244,50,169844,2,0,L|158:43,1,79.9999999999999,0|8,0:0|0:0,0:0:0:0:
78,64,170530,6,0,P|29:127|51:200,1,160,4|0,0:0|0:0,0:0:0:0:
111,261,171559,1,8,0:0:0:0:
193,231,171901,2,0,P|271:208|346:240,1,160,2|0,0:0|0:0,0:0:0:0:
365,321,172930,1,8,0:0:0:0:
287,361,173273,6,0,P|231:367|170:334,2,120,2|0|8,0:0|0:0|0:0,0:0:0:0:
365,321,174644,2,0,L|411:254,1,79.9999999999999,2|8,0:0|0:0,0:0:0:0:
468,188,175330,2,0,L|460:105,1,79.9999999999999,0|8,0:0|0:0,0:0:0:0:
398,45,176016,6,0,P|317:45|278:123,1,160,4|0,0:0|0:0,0:0:0:0:
218,170,177044,1,8,0:0:0:0:
300,201,177387,6,0,P|316:276|259:334,1,160,4|0,0:0|0:0,0:0:0:0:
176,315,178416,1,8,0:0:0:0:
115,251,178759,5,4,0:0:0:0:
135,76,179444,1,4,0:0:0:0:
278,177,180130,2,0,P|360:175|406:115,1,160,4|0,0:0|0:0,0:0:0:0:
418,293,181501,6,0,L|251:311,1,160,4|0,0:0|0:0,0:0:0:0:
185,260,182530,1,8,0:0:0:0:
111,212,182873,2,0,L|47:276,2,79.9999999999999,2|8|0,0:0|0:0|0:0,0:0:0:0:
190,173,183901,1,8,0:0:0:0:
129,109,184244,6,0,P|199:84|268:126,1,160,2|0,0:0|0:0,0:0:0:0:
277,213,185273,1,8,0:0:0:0:
299,298,185616,2,0,P|366:337|439:308,1,160,2|0,0:0|0:0,0:0:0:0:
459,223,186644,1,8,0:0:0:0:
383,177,186987,6,0,P|337:112|375:43,2,160,2|0|2,0:0|0:0|0:0,0:0:0:0:
327,244,188701,1,8,0:0:0:0:
239,246,189044,2,0,P|197:250|164:279,1,79.9999999999999,0|8,0:0|0:0,0:0:0:0:
122,348,189730,6,0,P|76:286|106:214,1,160,2|0,0:0|0:0,0:0:0:0:
182,172,190759,1,8,0:0:0:0:
260,132,191101,2,0,P|279:95|277:53,2,79.9999999999999,2|8|0,0:0|0:0|0:0,0:0:0:0:
185,85,192130,1,8,0:0:0:0:
182,172,192473,6,0,P|204:249|280:273,1,160,4|0,0:0|0:0,0:0:0:0:
361,268,193501,1,8,0:0:0:0:
432,216,193844,2,0,P|452:260|444:301,2,79.9999999999999,2|8|0,0:0|0:0|0:0,0:0:0:0:
350,183,194873,1,8,0:0:0:0:
263,196,195216,6,0,P|221:159|213:94,2,120,2|0|8,0:0|0:0|0:0,0:0:0:0:
292,278,196587,2,0,P|226:324|146:307,1,160,2|0,0:0|0:0,0:0:0:0:
79,259,197616,1,8,0:0:0:0:
81,170,197959,6,0,P|115:100|205:87,1,160,2|0,0:0|0:0,0:0:0:0:
261,134,198987,1,8,0:0:0:0:
347,152,199330,2,0,P|332:193|302:216,2,79.9999999999999,2|8|0,0:0|0:0|0:0,0:0:0:0:
334,64,200359,1,8,0:0:0:0:
256,192,200701,12,0,202073,0:0:0:0:
196,273,203444,6,0,P|137:271|92:224,2,120,4|0|8,0:0|0:0|0:0,0:0:0:0:
261,213,204816,6,0,P|320:215|365:262,2,120,2|0|8,0:0|0:0|0:0,0:0:0:0:
176,187,206187,6,0,P|176:104|235:59,1,160,2|0,0:0|0:0,0:0:0:0:
318,43,207216,1,8,0:0:0:0:
379,105,207559,6,0,P|421:118|459:114,1,79.9999999999999,0|8,0:0|0:0,0:0:0:0:
482,198,208244,2,0,P|443:209|401:203,1,79.9999999999999,0|8,0:0|0:0,0:0:0:0:
334,258,208930,6,0,P|352:313|410:339,2,120,2|0|8,0:0|0:0|0:0,0:0:0:0:
276,191,210301,6,0,P|226:153|168:158,2,120,2|0|8,0:0|0:0|0:0,0:0:0:0:
241,272,211673,6,0,P|177:327|103:317,1,160,2|0,0:0|0:0,0:0:0:0:
50,250,212701,1,8,0:0:0:0:
109,184,213044,6,0,P|124:146|121:103,1,79.9999999999999,0|8,0:0|0:0,0:0:0:0:
179,40,213730,2,0,P|216:53|243:89,1,79.9999999999999,0|8,0:0|0:0,0:0:0:0:
307,142,214416,6,0,P|365:131|401:77,2,120,2|0|8,0:0|0:0|0:0,0:0:0:0:
222,167,215787,6,0,P|168:192|147:258,2,120,2|0|8,0:0|0:0|0:0,0:0:0:0:
277,235,217159,6,0,P|299:316|372:335,1,160,2|0,0:0|0:0,0:0:0:0:
442,294,218187,1,8,0:0:0:0:
393,220,218530,6,0,P|351:146|387:82,1,160,2|0,0:0|0:0,0:0:0:0:
309,35,219559,1,8,0:0:0:0:
222,51,219901,6,0,P|167:67|106:45,2,120,2|0|8,0:0|0:0|0:0,0:0:0:0:
268,126,221273,2,0,P|229:166|229:232,2,120,2|0|8,0:0|0:0|0:0,0:0:0:0:
311,202,222644,6,0,P|393:214|444:157,1,160,2|0,0:0|0:0,0:0:0:0:
398,85,223673,1,8,0:0:0:0:
256,192,224016,12,4,225387,0:0:0:0:
