osu file format v9

[General]
AudioFilename: aikotoba (sasakure.UK Sweets Remix) cut ver.mp3
AudioLeadIn: 0
PreviewTime: 126244
Countdown: 0
SampleSet: Soft
StackLeniency: 0.7
Mode: 0
LetterboxInBreaks: 1

[Editor]
DistanceSpacing: 0.8
BeatDivisor: 4
GridSize: 8

[Metadata]
Title:Aikotoba (sasakure.UK Sweets Remix)
Artist:Deco*27 feat. mirto
Creator:Dielz7
Version:Love
Source:Deco*27
Tags:sasakure Aimai Elegy vocaloid cover love word hatsune miku

[Difficulty]
HPDrainRate:8
CircleSize:5
OverallDifficulty:7
ApproachRate:8
SliderMultiplier:1.4
SliderTickRate:1

[Events]
//Background and Video events
//Break Periods
2,98853,111698
2,182721,195786
//Storyboard Layer 0 (Background)
//Storyboard Layer 1 (Fail)
//Storyboard Layer 2 (Pass)
//Storyboard Layer 3 (Foreground)
//Storyboard Sound Samples
//Background Colour Transformations
3,100,163,162,255

[TimingPoints]
332,437.956204379562,4,2,0,50,1,0
37231,-200,4,2,0,50,0,0
37669,-100,4,2,0,50,0,0
55844,-200,4,2,0,50,0,0
62085,-100,4,2,0,50,0,0
70303,-100,4,2,0,50,0,1
98998,-100,4,2,0,50,0,0
125479,-50,4,2,0,50,0,0
126245,-100,4,2,0,50,0,0
168399,-200,4,2,0,50,0,0
172340,-100,4,2,0,50,0,0
176069,-100,4,2,0,50,0,0
225417,-100,4,2,0,5,0,0
227716,-100,4,2,0,50,0,0
228045,-200,4,2,0,25,0,0
241293,-100,4,2,0,50,0,0
242091,-100,4,2,0,50,0,1
251366,-200,4,2,0,50,0,0
252132,-100,4,2,0,50,0,0
256544,-100,4,2,0,50,0,0

[Colours]
Combo1 : 252,160,238
Combo2 : 82,252,218
Combo3 : 253,163,147

[HitObjects]
256,80,28361,2,0,B|256:176,1,70,0|0
192,152,28799,1,2
320,152,29018,1,2
256,304,29675,2,0,B|256:208,1,70,0|0
192,232,30113,1,2
320,232,30332,1,2
256,232,30769,5,0
288,184,30988,1,0
256,144,31207,1,0
216,104,31426,1,0
256,64,31645,1,0
256,64,31864,6,0,B|256:160,1,70,0|0
256,134,32302,1,2
256,134,32521,1,2
256,320,33178,2,0,B|256:224,1,70,0|0
256,250,33616,1,2
256,250,33835,1,2
256,320,34273,5,0
176,272,34492,1,0
208,192,34711,1,0
304,192,34930,1,0
336,272,35149,1,0
432,272,35368,6,2,B|432:208|432:208|424:208|424:128,1,140,2|2
424,104,36025,1,0
80,112,36682,2,0,B|80:176|80:176|88:176|88:256,1,140,2|2
88,280,37339,2,0,B|128:280|128:272|128:272|176:272,1,70,0|0
208,272,37996,1,0
240,224,38215,1,0
264,272,38434,1,0
296,224,38653,1,0
328,272,38872,6,2,B|400:272|400:272|400:200,1,140,2|0
400,204,39529,1,2
400,204,39748,1,2
184,112,40623,2,2,B|112:112|112:112|112:184,1,140,0|2
112,180,41280,1,2
112,180,41499,1,6
112,240,41718,1,0
112,240,41828,1,0
112,240,41937,1,2
112,296,42156,6,0,B|144:280|144:280|176:296,1,70
312,296,42594,2,0,B|280:312|280:312|248:296,1,70
384,296,43032,2,0,B|416:280|416:280|448:296,1,70
447,296,43470,1,2
448,88,43908,2,0,B|416:72|416:72|384:88,1,70
248,88,44346,2,0,B|280:104|280:104|312:88,1,70
168,88,44784,2,0,B|136:72|136:72|104:88,1,70
105,87,45222,1,2
105,87,45332,1,0
105,87,45441,1,2
96,192,45660,6,0,B|192:192,1,70
166,192,46098,1,2
168,264,46317,1,0
168,264,46536,2,0,B|88:264,1,70,0|2
98,264,46974,2,0,B|98:333,2,70,0|2|0
98,334,47631,5,2
96,264,47850,1,2
168,264,48069,1,2
168,192,48288,1,2
96,192,48507,1,2
168,192,48726,1,2
240,192,48945,1,2
288,144,49164,6,0,B|352:80,1,70
288,208,49602,2,0,B|376:208,1,70
288,272,50040,2,0,B|360:328,1,70
160,144,50477,2,0,B|104:88,1,70
160,208,50915,2,0,B|72:208,1,70
160,272,51353,2,0,B|104:328,1,70
224,144,51791,2,0,B|224:56,1,70,0|2
224,272,52229,2,0,B|224:352,1,70
384,160,52886,6,0,B|384:208|384:232,2,70,2|0|0
320,160,53543,1,2
448,160,53762,1,2
128,224,54200,2,8,B|128:176|128:152,2,70,0|2|0
192,224,54857,1,0
64,224,55076,1,0
128,155,55295,1,2
128,288,55514,1,6
416,72,55952,6,2,B|416:144|416:144|368:192,1,140,2|0
368,192,57047,1,0
368,192,57266,1,0
96,312,57704,2,2,B|96:240|96:240|144:192,1,140,2|0
144,192,58799,1,0
144,192,59018,1,0
72,64,59456,5,2
72,64,59894,2,0,B|144:88|144:88|144:128,1,105,0|2
144,117,60769,1,0
440,320,61207,1,2
440,320,61645,2,0,B|368:296|368:296|368:256,1,105,0|2
368,266,62520,1,0
56,192,62959,6,2,B|144:192,1,87.5
143,192,63397,1,2
208,192,63616,1,0
216,192,63726,1,0
224,192,63835,1,2
224,112,64054,1,0
224,272,64273,1,2
456,192,64711,2,2,B|368:192,1,87.5
369,192,65149,1,2
304,192,65367,1,0
288,176,65477,1,0
272,192,65587,1,2
256,176,65696,1,0
240,192,65806,1,2
176,192,66025,1,4
256,192,66244,12,0,69529
256,192,69967,5,0
64,64,70404,1,2
176,64,70842,1,0
232,64,71061,1,2
176,160,71499,1,0
208,112,71718,1,2
232,160,71937,1,2
448,64,73032,5,0
64,320,73470,1,0
80,192,73908,6,0,B|224:192,1,140
220,192,74565,1,0
221,104,75003,1,0
312,192,75222,1,0
220,279,75441,1,0
360,216,76317,2,0,B|384:192|384:192|352:152,3,70
424,240,77412,6,0,B|472:192|416:136,2,105,0|2|2
368,104,78507,1,0
280,192,78726,1,0
368,280,78945,1,0
64,56,79821,5,0
136,56,80039,1,0
136,56,80149,1,0
136,128,80477,1,0
136,128,80587,1,0
76,172,80915,2,0,B|136:236|204:168,1,140,0|0
244,112,81791,2,0,B|308:172|240:240,1,140,2|0
200,176,82667,1,0
336,72,83324,1,0
336,272,83543,1,0
384,56,83981,5,0
384,56,84091,1,0
384,56,84200,1,0
384,56,84419,2,0,B|312:56,1,70
384,120,84857,2,0,B|320:184,1,70
248,56,85514,1,0
288,216,85733,1,0
448,256,85952,1,0
416,80,86390,1,0
416,80,86499,1,0
416,80,86609,1,0
336,176,86828,1,0
248,272,87047,5,0
248,272,87485,1,0
128,56,87923,6,0,B|200:56,1,70,2|0
128,120,88361,2,0,B|192:184,1,70,2|0
128,272,89018,2,0,B|152:272|184:272|184:272|200:232|200:232|208:272|208:272|280:272,1,210,0|2
128,192,90331,5,0
256,64,90550,1,0
384,192,90769,1,0
256,320,90988,1,0
64,320,91426,6,0,B|160:320,2,70,2|0|2
64,224,92083,1,0
192,128,92521,1,0
192,320,92959,1,0
192,320,93069,1,0
192,320,93178,1,0
448,64,93835,6,0,B|352:64,3,70
320,128,94930,1,0
192,128,95368,1,0
192,256,95806,1,0
320,256,96244,1,0
320,256,96682,5,0
192,256,97120,1,0
192,128,97558,1,0
320,128,97996,1,0
244,179,98433,1,0
268,179,98543,1,0
256,200,98653,1,0
80,64,112448,6,0,B|160:64,2,70
80,128,113105,2,0,B|160:128,2,70
80,192,113762,2,0,B|160:192,2,70
80,256,114419,2,0,B|160:256,2,70
80,320,115076,6,0,B|160:320,3,70
288,320,115952,6,0,B|192:320,2,70
288,256,116609,2,0,B|192:256,2,70
288,192,117266,2,0,B|192:192,2,70
288,128,117923,2,0,B|192:128,2,70
288,64,118580,1,0
288,64,118689,1,0
288,64,118908,1,0
448,48,119237,5,0
368,48,119456,1,0
408,112,119675,1,0
328,112,119894,5,0
288,176,120113,1,0
368,176,120331,1,0
328,240,120550,5,0
288,304,120769,1,0
248,240,120988,1,0
216,304,121207,5,0
256,368,121426,1,0
176,368,121645,1,0
144,304,121864,1,0
88,304,122083,5,0
156,244,122302,1,0
215,312,122521,1,0
147,372,122740,1,0
64,232,122959,6,0,B|64:144,1,70
64,96,123397,1,0
128,160,123616,2,0,B|128:72,1,70
128,24,124054,1,0
200,24,124273,6,0,B|288:24,1,70
336,24,124711,1,0
272,88,124930,2,0,B|360:88,1,70
408,88,125368,1,0
408,160,125587,2,0,B|392:160|392:160|368:160,12,35
373,160,126463,5,0
373,82,126901,1,0
374,237,127120,1,0
144,160,127777,1,0
144,240,128215,1,0
143,83,128434,1,0
200,216,128872,5,0
256,160,129091,1,0
312,104,129310,1,0
200,104,129529,1,0
312,216,129748,1,0
328,288,129967,6,0,B|184:288,1,140
188,288,130623,1,0
184,32,131280,2,0,B|328:32,1,140
324,32,131937,1,0
312,216,132375,5,0
256,160,132594,1,0
200,104,132813,1,0
200,216,133032,1,0
312,104,133251,1,0
429,108,133470,6,0,B|405:148|405:148|445:172|445:172|421:228,1,140
428,214,134127,1,0
88,216,134784,2,0,B|112:176|112:176|72:152|72:152|96:96,1,140
89,110,135441,1,0
152,272,135879,5,0
232,272,136098,1,0
280,208,136317,1,0
328,272,136536,1,0
408,272,136755,1,0
136,40,136974,6,0,B|184:40|184:40|256:136|328:40|328:40|400:40,1,280
256,24,138288,1,0
376,288,138726,2,0,B|328:288|328:288|256:384|184:288|184:288|112:288,1,280
256,256,140040,1,0
216,240,140259,6,0,B|160:184,1,70
296,240,140696,2,0,B|352:184,1,70
256,296,141134,2,0,B|256:368,1,70
256,256,141572,1,0
296,112,142010,2,0,B|320:88|320:88|352:112,1,70
216,112,142448,2,0,B|192:88|192:88|160:112,1,70
163,110,142886,1,0
256,192,143105,1,0
348,109,143324,1,0
256,192,143543,1,0
163,110,143762,6,0,B|128:84|96:112,1,70
96,192,144200,2,0,B|131:218|163:190,1,70
160,80,144638,2,0,B|125:54|93:82,1,70
96,224,145076,2,0,B|131:250|163:222,1,70
208,128,145514,2,0,B|219:94|219:94|253:82,1,70
208,176,145952,2,0,B|241:187|241:187|253:221,1,70
256,288,146390,5,0
352,288,146609,1,0
256,184,146828,1,0
160,184,147047,1,0
56,56,147266,6,0,B|56:128,2,70
56,56,147923,1,0
120,128,148142,1,0
120,128,148361,2,0,B|120:48,2,70
256,136,149456,5,0
312,192,149675,1,0
256,248,149894,1,0
200,192,150113,1,0
256,136,150332,2,0,B|320:72,1,70,0|2
256,248,150769,2,0,B|192:312,1,70,0|2
384,288,151864,5,0
128,96,152302,1,0
384,96,152740,1,0
128,288,153178,1,0
272,144,153616,2,0,B|200:144|200:72|280:72,1,140,4|2
84,60,154492,6,0,B|172:60|172:196|76:196,1,210
80,128,155368,1,0
84,196,155806,1,0
81,129,156244,2,0,B|-7:129|-7:263|89:265,1,210
84,196,157120,1,0
152,196,157558,6,0,B|240:196,1,70
288,224,157996,2,0,B|288:128,2,70,0|2|0
288,154,158653,1,0
288,224,158872,1,0
216,192,159310,6,0,B|144:192,1,70
80,224,159748,2,0,B|80:128,2,70,0|2|0
80,224,160404,1,0
80,154,160623,1,0
216,64,161061,6,0,B|304:64,1,70
288,128,161499,2,0,B|212:128,1,70
144,128,161937,1,0
256,200,162156,1,0
376,128,162375,1,0
288,224,162813,2,0,B|288:312,1,70
224,296,163251,2,0,B|224:220,1,70
224,360,163689,1,0
256,168,163908,1,0
288,360,164127,1,0
256,192,164565,12,0,168069
448,64,168507,6,0,B|320:64,1,105
272,64,169602,2,0,B|240:64|240:88,2,35,2|0|2
312,64,170259,2,0,B|352:64|368:120,1,70
362,105,170915,1,0
362,105,171134,1,0
376,128,171572,5,0
376,128,171682,1,0
376,128,171791,2,0,B|376:184|304:184,1,105,2|0
264,184,172667,1,0
264,208,172886,1,0
192,184,173324,1,0
192,256,173652,1,0
192,256,173762,1,0
192,296,174091,1,0
200,304,174200,1,0
208,312,174310,1,0
216,320,174419,1,0
224,328,174529,1,0
224,328,174857,1,0
264,328,175076,1,0
184,84,175514,6,0,B|232:56|232:56|232:56|232:56|304:132|304:132,1,140,0|2
290,117,176171,1,0
290,117,176280,1,0
290,117,176390,1,0
189,174,176609,1,0
80,224,176828,1,0
80,224,177047,2,0,B|80:124|76:124,1,70
80,68,177704,2,0,B|248:68,1,140
224,180,178580,2,0,B|224:80,1,70
224,110,179018,1,0
144,272,179894,5,0
368,272,180113,1,0
128,272,180331,1,0
384,272,180550,1,0
256,192,180769,1,0
144,112,181426,1,0
368,112,181646,1,0
128,112,181864,1,0
384,112,182083,1,0
256,192,182302,1,0
256,192,182412,6,0,B|256:176|256:160|256:176,2,17.5
64,64,196536,6,0,B|128:128,2,70
160,64,197193,2,0,B|224:128,2,70
256,64,197850,2,0,B|320:128,2,70
352,64,198507,2,0,B|416:128,2,70
464,176,199164,1,0
400,288,199383,1,0
288,352,199602,1,0
176,288,199821,1,0
112,192,200040,6,0,B|48:128,2,70,0|0|0
208,192,200696,2,0,B|144:128,2,70
304,192,201353,2,0,B|240:128,2,70
400,192,202010,2,0,B|336:128,2,70
480,192,202667,2,0,B|480:144,1,35
480,208,202996,1,0
448,80,203324,5,0
352,144,203543,1,0
256,80,203762,1,0
160,144,203981,1,0
64,80,204200,1,0
160,144,204419,5,0
352,144,204638,1,0
128,208,204857,1,0
384,208,205076,1,0
96,272,205295,1,0
192,80,205514,1,0
416,272,205733,1,0
320,80,205952,1,0
256,192,206171,5,0
320,128,206390,5,0
192,128,206609,1,0
192,240,206828,1,0
320,240,207047,1,0
320,128,207266,2,0,B|387:60,1,70
192,128,207704,1,0
192,240,207923,2,0,B|135:296,1,70
80,240,208361,5,0
80,352,208580,1,0
192,352,208799,1,0
192,240,209018,2,0,B|256:176,1,70
256,128,209456,5,0
256,128,209675,5,0
256,128,209784,1,0
256,128,209894,1,0
256,128,210113,5,0
136,48,210550,6,0,B|224:48|224:184|128:184,1,210
132,116,211426,1,0
64,48,211864,2,0,B|64:192,1,140
188,48,213178,1,0
188,192,213397,1,0
376,192,214054,6,0,B|288:192|288:56|384:56,1,210
380,124,214930,1,0
448,192,215368,2,0,B|448:48,1,140
324,192,216682,1,0
324,52,216901,1,0
96,64,217339,6,0,B|96:160,1,70
208,224,217996,1,0
96,224,218434,1,0
208,135,218872,2,0,B|208:59,2,70
96,224,219748,1,0
208,224,220186,1,0
96,224,220623,6,0,B|236:224,1,140
432,192,221718,1,0
352,192,221937,1,0
272,272,222594,1,0
352,272,222813,1,0
208,336,223689,5,0
496,128,223908,1,0
256,192,225441,12,0,227631
80,64,228069,5,0
128,64,228507,2,0,B|176:64,1,35
192,64,229164,1,0
240,112,229383,1,0
288,64,229602,1,0
352,64,229821,2,0,B|416:128|352:192,1,140
356,187,231134,1,0
304,192,231572,6,0,B|288:240|304:272,1,70
304,288,232229,1,0
256,224,232667,1,0
208,288,233105,1,0
208,288,233215,1,0
208,288,233324,1,0
64,288,233981,6,0,B|48:272|64:256,3,35
64,176,235076,1,0
64,176,235514,1,0
144,176,235733,1,0
64,176,236171,1,0
144,176,236390,1,0
224,176,236609,1,0
296,176,236828,1,0
368,176,237047,1,0
368,176,237156,1,0
368,176,237266,1,0
352,96,237485,6,0,B|304:96,1,35
160,96,238142,1,0
160,288,238580,1,0
352,288,239018,1,0
256,96,239456,1,0
160,192,239894,1,0
256,288,240331,1,0
352,192,240988,6,0,B|400:192,1,35
96,192,241645,5,0
416,192,241864,1,0
96,192,242083,1,0
160,192,242521,2,0,B|160:144|160:144|200:108,1,70
232,88,243178,5,0
268,192,243397,1,0
296,88,243616,1,0
96,192,244711,5,0
416,192,245149,1,0
176,112,245587,6,0,B|240:176,1,70
336,112,246025,2,0,B|272:176,1,70
256,208,246682,2,0,B|256:304,1,70,0|2
176,112,247120,1,0
336,112,247339,1,0
416,192,247996,5,0
96,192,248215,1,0
416,192,248434,5,0
96,192,248653,1,0
176,272,249091,6,0,B|240:208,1,70
336,272,249529,2,0,B|272:208,1,70
256,160,250186,1,0
176,272,250514,1,0
176,272,250623,1,0
336,272,251061,1,0
336,272,251280,1,0
256,64,251718,6,0,B|256:160,1,70
256,336,252594,1,0
464,192,253032,1,0
256,48,253470,1,0
48,192,253908,1,0
256,112,254346,1,0
176,192,254784,1,0
256,272,255222,1,0
336,192,255660,1,0
248,176,256098,5,0
264,176,256207,1,0
258,188,256317,1,0
