osu file format v13

[General]
AudioFilename: DECO-27 - Fakery Tale feat. Hatsune Miku feat..mp3
AudioLeadIn: 0
PreviewTime: -1
Countdown: 1
SampleSet: Normal
StackLeniency: 0.7
Mode: 0
LetterboxInBreaks: 1
WidescreenStoryboard: 0

[Editor]
DistanceSpacing: 1
BeatDivisor: 4
GridSize: 4
TimelineZoom: 2.2

[Metadata]
Title:Fakery Tale
TitleUnicode:Fakery Tale
Artist:Deco*27 feat. Hatsune Miku
ArtistUnicode:Deco*27 feat. Hatsune Miku
Creator:Kyoko-Chaan
Version:Normal
Source:
Tags:
BeatmapID:451818
BeatmapSetID:189646

[Difficulty]
HPDrainRate:6
CircleSize:4
OverallDifficulty:7
ApproachRate:7
SliderMultiplier:1.4
SliderTickRate:1

[Events]
//Background and Video events
0,0,"_utau__fakery_tale_by_terrainakka-d705d9k.png",0,0
//Break Periods
2,88119,95660
2,132763,137423
2,207169,211349
//Storyboard Layer 0 (Background)
//Storyboard Layer 1 (Fail)
//Storyboard Layer 2 (Pass)
//Storyboard Layer 3 (Foreground)
//Storyboard Sound Samples
//Background Colour Transformations
3,100,163,162,255

[TimingPoints]
17834,480.038403072246,4,1,0,100,1,0
61397,-200,4,1,0,100,0,0
65117,-100,4,1,0,100,0,0
122842,-200,4,1,0,100,0,0
126562,-100,4,1,0,100,0,0
195688,-200,4,1,0,100,0,0

[HitObjects]
256,52,17834,6,0,B|164:108|176:140|160:224|80:288,1,280
188,304,19274,2,0,B|280:296|320:232|372:152|436:128,1,280
408,48,20714,2,0,L|324:48,2,70,0|0|0,0:0|0:0|0:0,0:0:0:0:
256,40,21674,6,0,B|188:96|200:184|120:264|92:264,1,280
168,320,23114,2,0,B|232:328|256:296|276:248,1,140
200,200,24074,2,0,B|236:156|312:132|328:96,1,140
392,60,25034,1,0,0:0:0:0:
392,184,25514,6,0,L|404:260,2,70,0|0|0,0:0|0:0|0:0,0:0:0:0:
296,216,26474,1,0,0:0:0:0:
204,176,26954,2,0,B|160:208|120:292|68:260,1,140
72,168,27914,2,0,P|72:84|120:56,1,140
220,64,28874,1,0,0:0:0:0:
332,80,29354,6,0,L|404:128,2,70,0|0|0,0:0|0:0|0:0,0:0:0:0:
336,184,30314,1,0,0:0:0:0:
380,260,30795,2,0,P|300:288|232:280,2,140,0|0|0,0:0|0:0|0:0,0:0:0:0:
424,184,32235,1,0,0:0:0:0:
380,84,32715,6,0,B|276:160|240:156|236:164|188:232|108:188,1,280
100,276,34155,1,0,0:0:0:0:
192,312,34635,2,0,B|240:304|288:320|316:320|344:308,2,140,0|0|0,0:0|0:0|0:0,0:0:0:0:
116,244,36075,1,0,0:0:0:0:
256,192,36555,12,0,39915,0:0:0:0:
412,68,40875,6,0,B|332:108|304:160|228:192|176:128|224:80,1,280
120,100,42315,1,0,0:0:0:0:
92,180,42795,2,0,B|96:228|144:280|184:276,1,140
272,300,43756,1,0,0:0:0:0:
352,248,44236,1,0,0:0:0:0:
420,180,44716,6,0,B|392:136|424:116|432:88|388:44,2,140,0|0|0,0:0|0:0|0:0,0:0:0:0:
428,288,46156,1,0,0:0:0:0:
332,320,46636,2,0,B|276:280|248:224|244:156|216:96|160:104,1,280
124,184,48076,1,0,0:0:0:0:
124,276,48556,6,0,B|200:276|256:232|288:200|328:156|384:176,1,280
432,108,49996,2,0,B|392:60|340:80|280:92|208:68|144:36|148:60,1,280
92,120,51436,2,0,L|156:256,1,140,0|0,0:0|0:0,0:0:0:0:
248,288,52396,6,0,B|304:268|292:188|312:192|340:188|368:156|372:128|304:84|264:108,1,280
168,120,53836,1,0,0:0:0:0:
88,68,54316,1,0,0:0:0:0:
56,160,54796,2,0,P|96:204|128:216,2,70,0|0|0,0:0|0:0|0:0,0:0:0:0:
132,296,55757,6,0,L|280:316,2,140,0|0|0,0:0|0:0|0:0,0:0:0:0:
136,196,57197,1,0,0:0:0:0:
208,116,57677,2,0,L|348:64,2,140,0|0|0,0:0|0:0|0:0,0:0:0:0:
256,192,59117,1,0,0:0:0:0:
332,156,59597,2,0,B|384:192|396:284|348:332|292:352|220:344,1,280
168,296,61037,1,0,0:0:0:0:
96,204,61517,6,0,B|140:148|216:156|260:152|288:124|284:100,1,210.000008010865
348,60,63437,2,0,P|424:80|432:204,1,210,0|0,0:0|0:0,0:0:0:0:
372,260,65357,6,0,B|308:256|276:208|264:144,1,140
272,175,66317,6,0,B|208:179|176:227|164:291,1,140
88,216,67277,1,0,0:0:0:0:
128,152,67757,2,0,B|180:136|140:88|148:80|224:116|180:40|188:40|224:44|212:12,1,140
320,72,68718,1,0,0:0:0:0:
428,112,69198,6,0,B|436:184|424:240|392:264,2,140,0|0|0,0:0|0:0|0:0,0:0:0:0:
340,108,70638,2,0,P|316:164|244:204,1,140
156,188,71598,1,0,0:0:0:0:
224,92,72078,6,0,B|164:64|116:80|96:112,1,140,0|0,0:0|0:0,0:0:0:0:
68,224,73038,6,0,P|104:280|172:288,2,140,0|0|0,0:0|0:0|0:0,0:0:0:0:
160,176,74478,2,0,B|236:172|236:172|264:108,1,140
364,176,75438,2,0,B|288:172|288:172|260:108,1,140
262,113,76398,2,0,P|263:56|334:49,1,140
400,96,77358,1,0,0:0:0:0:
424,184,77838,2,0,B|408:240|384:260|384:260|324:232,1,140
304,152,78798,6,0,B|196:200|160:184|140:272|60:284,1,280
56,180,80238,1,0,0:0:0:0:
148,92,80719,6,0,B|204:76|204:76|224:112|224:112|284:84|284:84|308:128|308:128|380:96,1,280
432,156,82159,2,0,L|444:308,2,140,0|0|0,0:0|0:0|0:0,0:0:0:0:
360,104,83599,2,0,B|344:176|316:196|276:140,1,140
228,224,84559,6,0,B|171:211|171:211|170:170|170:170|104:167|104:167|103:117|103:117|25:111,1,280
32,204,85999,2,0,P|65:288|256:324,2,280,0|0|0,0:0|0:0|0:0,0:0:0:0:
140,72,96560,6,0,B|196:216|288:264|332:300,1,280
428,320,98000,2,0,B|404:204|344:140|276:88,1,280
200,52,99440,2,0,L|120:72,2,70,0|0|0,0:0|0:0|0:0,0:0:0:0:
208,144,100400,6,0,B|168:196|76:224|100:284|200:304|252:284,1,280
328,336,101840,2,0,B|380:320|384:260|308:236|332:204|404:204|412:148|376:104|316:104|316:108,1,280,0|0,0:0|0:0,0:0:0:0:
236,88,103280,1,0,0:0:0:0:
176,172,103760,1,0,0:0:0:0:
120,68,104240,6,0,B|60:128|76:232|124:304|184:304,1,280
256,316,105681,2,0,B|372:312|404:244|424:200|424:108|416:100,1,280
396,40,107121,2,0,L|304:88,2,70,0|0|0,0:0|0:0|0:0,0:0:0:0:
256,120,108081,6,0,L|256:204,4,70,0|0|0|0|0,0:0|0:0|0:0|0:0|0:0,0:0:0:0:
172,60,109521,2,0,L|92:112,2,70,0|0|0,0:0|0:0|0:0,0:0:0:0:
268,48,110481,2,0,B|328:48|384:92|400:48,1,140,0|0,0:0|0:0,0:0:0:0:
456,124,111441,1,0,0:0:0:0:
464,216,111921,6,0,B|416:284|368:296|320:280|244:240|188:296,1,280
96,296,113361,2,0,B|104:224|160:188|140:136|76:120|76:64|112:40|160:80,1,280
236,88,114801,2,0,L|328:104,2,70,0|0|0,0:0|0:0|0:0,0:0:0:0:
200,192,115761,6,0,B|268:240|312:220|368:200|432:244|428:336,1,280
448,172,117201,2,0,P|436:64|396:24,2,140,0|0|0,0:0|0:0|0:0,0:0:0:0:
420,256,118642,2,0,L|372:312,2,70,0|0|0,0:0|0:0|0:0,0:0:0:0:
428,152,119602,6,0,B|344:152|292:192|204:200|132:148,1,280
96,232,121042,2,0,B|200:280|308:280|376:256,1,280
448,320,122482,1,0,0:0:0:0:
436,184,122962,2,0,P|444:124|440:100,1,70
416,40,123922,6,0,P|364:72|344:72,1,70
356,72,124642,2,0,P|300:96|244:88,1,105
172,92,125842,2,0,B|156:96|172:132|176:156|164:168,1,70,0|0,0:0|0:0,0:0:0:0:
100,240,126802,6,0,P|168:280|224:260,1,140
304,276,127762,2,0,P|368:300|440:272,1,140
432,148,128722,2,0,P|380:108|304:128,1,140
228,120,129682,2,0,P|176:96|96:128,1,140
256,192,130643,12,0,132563,0:0:0:0:
256,192,138323,6,0,L|256:48,1,140
256,192,139283,2,0,L|400:192,1,140
256,192,140243,2,0,L|256:360,1,140
256,192,141203,2,0,L|88:192,1,140
108,72,142163,6,0,P|196:100|236:84,1,140
236,84,143124,2,0,B|296:104|352:108|384:92,1,140
373,96,144084,2,0,B|429:128|445:172|429:240,1,140
433,211,145044,2,0,B|433:271|401:311|337:315,1,140
256,192,146004,6,0,L|256:48,2,140,0|0|0,0:0|0:0|0:0,0:0:0:0:
256,284,147444,2,0,P|168:288|128:236,1,140
256,284,148404,2,0,P|344:288|384:236,1,140,0|0,0:0|0:0,0:0:0:0:
256,192,149364,1,0,0:0:0:0:
172,192,149844,6,0,B|152:124|152:124|224:92,1,140
348,164,150804,6,0,B|368:232|368:232|296:264,1,140
224,276,151764,6,0,B|160:308|120:288|76:244,1,140
76,172,152724,2,0,P|60:108|100:40,1,140
220,60,153684,6,0,P|304:92|352:60,1,140
432,84,154644,2,0,P|456:160|436:228,1,140
412,296,155605,2,0,P|312:320|268:296,1,140
256,224,156565,2,0,B|268:184|248:140|232:104|276:88,1,140
188,60,157525,6,0,B|148:108|148:160|68:128,1,140
76,216,158485,2,0,B|120:228|108:308|188:312,1,140
264,320,159445,2,0,P|332:320|380:248,2,140,0|0|0,0:0|0:0|0:0,0:0:0:0:
256,192,160885,12,0,162325,0:0:0:0:
256,192,163285,6,0,P|304:240|392:240,1,140
256,192,164245,2,0,P|208:240|120:240,1,140
138,246,165205,6,0,P|186:294|274:294,1,140
372,248,166165,6,0,P|324:296|236:296,1,140
256,224,167125,6,0,B|240:160|280:128|276:68|256:64,1,140
188,48,168086,6,0,B|144:96|160:144|88:160,1,140
104,240,169046,2,0,B|160:304|244:292|244:296,1,140
328,284,170006,2,0,P|408:256|432:192,1,140
416,104,170966,6,0,P|356:80|268:96,1,140
180,80,171926,2,0,P|108:68|56:128,1,140,0|0,0:0|0:0,0:0:0:0:
148,216,172886,2,0,B|204:176|240:208|288:168,1,140
324,264,173846,2,0,P|388:260|432:332,1,140,0|0,0:0|0:0,0:0:0:0:
456,204,174806,6,0,P|456:140|400:56,2,140,0|0|0,0:0|0:0|0:0,0:0:0:0:
360,156,176246,2,0,B|320:112|256:108|216:140,1,140
128,144,177206,2,0,L|76:208,5,70,0|0|0|0|0|0,0:0|0:0|0:0|0:0|0:0|0:0,0:0:0:0:
256,88,179846,6,0,B|232:148|272:192|256:304,1,210
348,296,181047,2,0,P|408:248|424:180,1,140
416,104,182007,2,0,P|384:56|292:48,1,140
240,88,182967,2,0,P|168:128|104:108,1,140,0|0,0:0|0:0,0:0:0:0:
92,200,183927,2,0,L|144:268,2,70,0|0|0,0:0|0:0|0:0,0:0:0:0:
196,168,184887,6,0,P|264:184|312:256,1,140
360,304,185847,2,0,P|416:276|456:192,1,140
436,112,186807,2,0,L|408:40,2,70,0|0|0,0:0|0:0|0:0,0:0:0:0:
352,144,187767,6,0,B|272:136|240:92|240:92|160:148|96:88,1,280
92,192,189207,1,0,0:0:0:0:
140,272,189687,2,0,B|204:228|268:228|268:228|296:288|296:288|348:300|388:256,1,280
368,273,190887,1,0,0:0:0:0:
440,192,191367,6,0,L|463:92,2,70,0|0|0,0:0|0:0|0:0,0:0:0:0:
336,168,192087,2,0,P|280:208|216:168,1,140
222,179,193048,2,0,P|142:215|94:175,1,140
256,192,194008,12,0,195448,0:0:0:0:
256,300,195928,6,0,P|184:308|144:248,1,140
256,300,197368,2,0,P|304:328|360:272,1,140
248,204,198808,2,0,B|236:180|260:136|256:128|252:124,1,70
248,52,199768,2,0,B|184:76|168:112|152:152,2,140,0|0|0,0:0|0:0|0:0,0:0:0:0:
248,52,202168,6,0,L|248:196,1,140
248,52,203608,2,0,B|312:76|328:112|344:152,2,140,0|0|0,0:0|0:0|0:0,0:0:0:0:
248,52,206009,6,0,L|248:196,1,140
256,192,212249,5,0,0:0:0:0:
160,192,212729,2,0,P|180:236|264:264,1,140
348,312,214169,2,0,P|380:264|344:184,1,140
292,136,215609,2,0,L|260:104,2,35,0|0|0,0:0|0:0|0:0,0:0:0:0:
388,108,216569,6,0,P|384:60|304:56,1,140
224,64,218010,2,0,P|164:68|96:120,2,140,0|0|0,0:0|0:0|0:0,0:0:0:0:
308,88,220410,2,0,L|344:114,2,35,0|0|0,0:0|0:0|0:0,0:0:0:0:
260,172,221370,1,0,0:0:0:0:
144,172,221850,2,0,P|184:240|252:240,1,140
360,256,223290,6,0,L|384:216,2,35,0|0|0,0:0|0:0|0:0,0:0:0:0:
408,148,224250,2,0,P|392:80|320:64,1,140
248,80,225690,2,0,L|176:88,2,70,0|0|0,0:0|0:0|0:0,0:0:0:0:
